<?xml version="1.0" standalone="no"?>
<!DOCTYPE svg PUBLIC "-//W3C//DTD SVG 1.1//EN" "http://www.w3.org/Graphics/SVG/1.1/DTD/svg11.dtd" >
<svg xmlns="http://www.w3.org/2000/svg" xmlns:xlink="http://www.w3.org/1999/xlink" version="1.1">
<metadata>
Created by FontForge 20201107 at Fri Mar 17 16:10:02 2023
 By 
Copyright 2021 The Outfit Project Authors (https://github.com/Outfitio/Outfit-Fonts)
</metadata>
<defs>
<font id="Outfit-Thin" horiz-adv-x="589" >
  <font-face 
    font-family="Outfit Thin"
    font-weight="250"
    font-stretch="normal"
    units-per-em="1000"
    panose-1="0 0 0 0 0 0 0 0 0 0"
    ascent="800"
    descent="-200"
    x-height="460"
    cap-height="676"
    bbox="-123 -254 3490 937"
    underline-thickness="50"
    underline-position="-125"
    unicode-range="U+000D-FB02"
  />
<missing-glyph horiz-adv-x="676" 
d="M99 0v676h478v-676h-478zM131 31h414v614h-414v-614zM206 453l17 17l247 -247l-18 -17zM459 477l18 -18l-260 -260l-18 18z" />
    <glyph glyph-name="fi" unicode="fi" horiz-adv-x="526" 
d="M153 0v556q0 44 18.5 77.5t51.5 52.5t75 19q32 0 59 -11.5t47 -32.5l-21 -21q-19 20 -40.5 28.5t-45.5 8.5q-53 0 -82.5 -34t-29.5 -91v-552h-32zM31 433v27h399v-27h-399zM414 0v460h32v-460h-32zM429 533q-13 0 -22 10t-9 23q0 14 9 23t22 9q14 0 23.5 -9t9.5 -23
q0 -13 -9.5 -23t-23.5 -10z" />
    <glyph glyph-name="fl" unicode="fl" horiz-adv-x="526" 
d="M153 0v556q0 44 18.5 77.5t51.5 52.5t75 19l-1 -28q-53 0 -82.5 -34t-29.5 -91v-552h-32zM31 433v27h396v-27h-396zM415 0v710h31v-710h-31z" />
    <glyph glyph-name="f_f" unicode="ff" horiz-adv-x="648" 
d="M153 0v546q0 44 19 77.5t52 52.5t76 19t74 -18.5t48 -50t17 -70.5h-24q-3 47 -31 79t-84 32q-55 0 -85 -34t-30 -91v-542h-32zM31 433v27h585v-27h-585zM415 0v556q0 44 19 77.5t51.5 52.5t74.5 19q32 0 59 -11.5t47 -32.5l-21 -21q-19 20 -40.5 28.5t-45.5 8.5
q-53 0 -82.5 -34t-29.5 -91v-552h-32z" />
    <glyph glyph-name="f_j" unicode="fj" horiz-adv-x="526" 
d="M153 0v556q0 44 18.5 77.5t51.5 52.5t75 19q32 0 59 -11.5t47 -32.5l-21 -21q-19 20 -40.5 28.5t-45.5 8.5q-53 0 -82.5 -34t-29.5 -91v-552h-32zM31 433v27h399v-27h-399zM316 -206q-31 0 -58.5 11.5t-47.5 32.5l21 21q19 -19 40.5 -28t45.5 -9q41 0 69 24t28 77v537h32
v-536q0 -43 -18 -72t-47.5 -43.5t-64.5 -14.5zM429 533q-13 0 -22 10t-9 23q0 14 9 23t22 9q14 0 23.5 -9t9.5 -23q0 -13 -9.5 -23t-23.5 -10z" />
    <glyph glyph-name="o_u_t_f_i_t" unicode="outfit" horiz-adv-x="2197" 
d="M287 -10q-67 0 -120.5 32t-85 87t-31.5 123q0 67 31.5 121t85 85.5t120.5 31.5q66 0 119.5 -31.5t85 -85.5t31.5 -121q0 -69 -31.5 -123.5t-85 -86.5t-119.5 -32zM287 19q58 0 104 28t73 76.5t27 109.5q0 59 -27 106t-73 74.5t-104 27.5t-104.5 -27.5t-73.5 -74.5
t-27 -107q0 -61 27 -109t73.5 -76t104.5 -28zM830 -10q-54 0 -96.5 25.5t-66.5 71t-24 105.5v268h31v-267q0 -51 19.5 -90.5t55 -62t81.5 -22.5q70 0 113 49t43 126v267h31v-268q0 -59 -24 -105t-66 -71.5t-97 -25.5zM1004 433v27h1162v-27h-1162zM1227 0v656h32v-656h-32z
M1489 0v556q0 44 18.5 77.5t51.5 52.5t75 19q32 0 59 -11.5t47 -32.5l-21 -21q-19 20 -40.5 28.5t-45.5 8.5q-53 0 -82.5 -34t-29.5 -91v-552h-32zM1751 0v460h32v-460h-32zM1766 545q-13 0 -22 10t-9 23q0 14 9 23t22 9q14 0 23.5 -9t9.5 -23q0 -13 -9.5 -23t-23.5 -10z
M2013 0v656h32v-656h-32z" />
    <glyph glyph-name="o_u_t_f_i_t_t_e_d" unicode="outfitted" horiz-adv-x="3570" 
d="M287 -10q-67 0 -120.5 32t-85 87t-31.5 123q0 67 31.5 121t85 85.5t120.5 31.5q66 0 119.5 -31.5t85 -85.5t31.5 -121q0 -69 -31.5 -123.5t-85 -86.5t-119.5 -32zM287 19q58 0 104 28t73 76.5t27 109.5q0 59 -27 106t-73 74.5t-104 27.5t-104.5 -27.5t-73.5 -74.5
t-27 -107q0 -61 27 -109t73.5 -76t104.5 -28zM830 -10q-54 0 -96.5 25.5t-66.5 71t-24 105.5v268h31v-267q0 -51 19.5 -90.5t55 -62t81.5 -22.5q70 0 113 49t43 126v267h31v-268q0 -59 -24 -105t-66 -71.5t-97 -25.5zM1227 0v656h32v-656h-32zM1489 0v556q0 44 18.5 77.5
t51.5 52.5t75 19q32 0 59 -11.5t47 -32.5l-21 -21q-19 20 -40.5 28.5t-45.5 8.5q-53 0 -82.5 -34t-29.5 -91v-552h-32zM1751 0v460h32v-460h-32zM1004 433v27h1423v-27h-1423zM1766 545q-13 0 -22 10t-9 23q0 14 9 23t22 9q14 0 23.5 -9t9.5 -23q0 -13 -9.5 -23t-23.5 -10z
M2013 0v656h32v-656h-32zM2275 0v656h32v-656h-32zM2730 -10q-69 0 -123.5 31.5t-86 86t-31.5 123.5q0 68 30.5 122t84 85.5t120.5 31.5q62 0 109.5 -27.5t74.5 -76.5t27 -113q0 -4 -0.5 -12.5t-2.5 -21.5h-421v29h401l-9 -7q4 59 -18 104t-63.5 70.5t-98.5 25.5
q-60 0 -105.5 -26.5t-71 -73t-25.5 -108.5q0 -64 26.5 -112t74.5 -75t112 -27q48 0 88.5 18t68.5 54l21 -21q-31 -37 -78.5 -58.5t-103.5 -21.5zM3261 -10q-66 0 -118 31.5t-81.5 85.5t-29.5 122q0 69 30 123.5t82 86t117 31.5q50 0 94 -19t75.5 -55t42.5 -87v-157
q-12 -49 -42.5 -85.5t-74 -56.5t-95.5 -20zM3267 19q57 0 100.5 27t68 74.5t24.5 108.5q0 63 -25 110.5t-69 74.5t-102 27t-103 -27t-71 -74.5t-26 -109.5q0 -61 26 -109t72 -75t105 -27zM3459 0v123l10 114l-10 111v348h31v-696h-31z" />
    <glyph glyph-name="o_u_t_f_i_t_t_e_r" unicode="outfitter" horiz-adv-x="3383" 
d="M287 -10q-67 0 -120.5 32t-85 87t-31.5 123q0 67 31.5 121t85 85.5t120.5 31.5q66 0 119.5 -31.5t85 -85.5t31.5 -121q0 -69 -31.5 -123.5t-85 -86.5t-119.5 -32zM287 19q58 0 104 28t73 76.5t27 109.5q0 59 -27 106t-73 74.5t-104 27.5t-104.5 -27.5t-73.5 -74.5
t-27 -107q0 -61 27 -109t73.5 -76t104.5 -28zM830 -10q-54 0 -96.5 25.5t-66.5 71t-24 105.5v268h31v-267q0 -51 19.5 -90.5t55 -62t81.5 -22.5q70 0 113 49t43 126v267h31v-268q0 -59 -24 -105t-66 -71.5t-97 -25.5zM1227 0v656h32v-656h-32zM1489 0v556q0 44 18.5 77.5
t51.5 52.5t75 19q32 0 59 -11.5t47 -32.5l-21 -21q-19 20 -40.5 28.5t-45.5 8.5q-53 0 -82.5 -34t-29.5 -91v-552h-32zM1751 0v460h32v-460h-32zM1004 433v27h1423v-27h-1423zM1766 545q-13 0 -22 10t-9 23q0 14 9 23t22 9q14 0 23.5 -9t9.5 -23q0 -13 -9.5 -23t-23.5 -10z
M2013 0v656h32v-656h-32zM2275 0v656h32v-656h-32zM2730 -10q-69 0 -123.5 31.5t-86 86t-31.5 123.5q0 68 30.5 122t84 85.5t120.5 31.5q62 0 109.5 -27.5t74.5 -76.5t27 -113q0 -4 -0.5 -12.5t-2.5 -21.5h-421v29h401l-9 -7q4 59 -18 104t-63.5 70.5t-98.5 25.5
q-60 0 -105.5 -26.5t-71 -73t-25.5 -108.5q0 -64 26.5 -112t74.5 -75t112 -27q48 0 88.5 18t68.5 54l21 -21q-31 -37 -78.5 -58.5t-103.5 -21.5zM3061 0v460h31v-460h-31zM3092 281l-21 6q0 88 46.5 135.5t116.5 47.5q34 0 63.5 -12t54.5 -38l-21 -23q-21 23 -45.5 33
t-56.5 10q-61 0 -99 -41.5t-38 -117.5z" />
    <glyph glyph-name="t_t" unicode="tt" horiz-adv-x="599" 
d="M153 0v656h32v-656h-32zM31 433v27h537v-27h-537zM415 0v656h32v-656h-32z" />
    <glyph glyph-name=".notdef" horiz-adv-x="676" 
d="M99 0v676h478v-676h-478zM131 31h414v614h-414v-614zM206 453l17 17l247 -247l-18 -17zM459 477l18 -18l-260 -260l-18 18z" />
    <glyph glyph-name=".null" horiz-adv-x="0" 
 />
    <glyph glyph-name="nonmarkingreturn" horiz-adv-x="333" 
 />
    <glyph glyph-name="CR" unicode="&#xd;" horiz-adv-x="600" 
 />
    <glyph glyph-name="space" unicode=" " horiz-adv-x="230" 
 />
    <glyph glyph-name="exclam" unicode="!" horiz-adv-x="259" 
d="M117 185l-7 511h39l-7 -511h-25zM128 -10q-17 0 -28.5 12t-11.5 28q0 17 11.5 29t28.5 12t28.5 -12t11.5 -29q0 -16 -11.5 -28t-28.5 -12z" />
    <glyph glyph-name="quotedbl" unicode="&#x22;" horiz-adv-x="322" 
d="M202 518l-10 178h39l-10 -178h-19zM101 518l-10 178h39l-10 -178h-19z" />
    <glyph glyph-name="numbersign" unicode="#" horiz-adv-x="635" 
d="M356 0l93 676h30l-94 -676h-29zM64 227v26h478v-26h-478zM147 0l94 676h29l-94 -676h-29zM92 434v26h478v-26h-478z" />
    <glyph glyph-name="dollar" unicode="$" horiz-adv-x="599" 
d="M309 -10q-75 0 -131 30.5t-96 83.5l23 22q41 -57 91.5 -81.5t114.5 -24.5q71 0 117 36t46 100q0 48 -18.5 78.5t-49.5 49.5t-68 33.5l-74 29t-68 36t-49.5 55t-18.5 85.5q0 49 22.5 85.5t63 57t94.5 20.5q63 0 112.5 -25t84.5 -72l-23 -22q-32 43 -74.5 66t-99.5 23
q-65 0 -106.5 -35t-41.5 -97q0 -45 18.5 -73.5t49.5 -47t68 -32t74 -28.5t68 -37t49.5 -56.5t18.5 -87.5q0 -85 -53 -128.5t-144 -43.5zM302 -100v876h26v-876h-26z" />
    <glyph glyph-name="percent" unicode="%" horiz-adv-x="666" 
d="M98 0l434 676h36l-434 -676h-36zM450 -10q-37 0 -68 18t-50 49.5t-19 69.5t18.5 69t50 49t68.5 18q38 0 69 -18t50 -49t19 -69t-18.5 -69.5t-50 -49.5t-69.5 -18zM449 19q46 0 76.5 30t30.5 79q0 47 -31.5 76.5t-75.5 29.5q-43 0 -73.5 -29.5t-30.5 -76.5q0 -49 30.5 -79
t73.5 -30zM215 412q-37 0 -68 18t-50 49.5t-19 69.5t18.5 69t50 49t68.5 18q38 0 69 -18t50 -49t19 -69t-18.5 -69.5t-50 -49.5t-69.5 -18zM214 441q46 0 76.5 30t30.5 79q0 47 -31.5 76.5t-75.5 29.5q-43 0 -73.5 -29.5t-30.5 -76.5q0 -49 30.5 -79t73.5 -30z" />
    <glyph glyph-name="ampersand" unicode="&#x26;" horiz-adv-x="627" 
d="M565 0l-332 335q-44 44 -64.5 86t-20.5 88q0 53 22.5 92.5t63.5 62t94 22.5q35 0 65 -10t54.5 -28.5t41.5 -46.5l-23 -23q-25 38 -59.5 57.5t-77.5 19.5q-67 0 -108 -40.5t-41 -108.5q0 -41 18 -76t63 -80l349 -350h-45zM288 -10q-60 0 -107 25.5t-74 69.5t-27 101
q0 64 34 118.5t90 81.5l19 -22q-49 -22 -80 -71.5t-31 -106.5q0 -48 23 -85.5t63 -59t91 -21.5q56 0 104 26.5t73 72.5l21 -21q-19 -33 -49.5 -57.5t-68.5 -37.5t-81 -13z" />
    <glyph glyph-name="quotesingle" unicode="'" horiz-adv-x="221" 
d="M101 518l-10 178h39l-10 -178h-19z" />
    <glyph glyph-name="parenleft" unicode="(" horiz-adv-x="313" 
d="M247 -108q-61 45 -101.5 110.5t-61 143t-20.5 159.5t20.5 159.5t61 143t101.5 110.5l20 -20q-87 -67 -130.5 -170t-43.5 -223t43.5 -222.5t130.5 -170.5z" />
    <glyph glyph-name="parenright" unicode=")" horiz-adv-x="312" 
d="M66 -108l-20 20q87 68 130.5 170.5t43.5 222.5t-43.5 223t-130.5 170l20 20q61 -45 101.5 -110.5t61 -143t20.5 -159.5t-20.5 -159.5t-61 -143t-101.5 -110.5z" />
    <glyph glyph-name="asterisk" unicode="*" horiz-adv-x="485" 
d="M246 388l-17 160l-144 -81l-15 30l153 65l-125 109l24 23l113 -121l67 148l31 -14l-84 -140l166 -16l-4 -33l-165 33l34 -159z" />
    <glyph glyph-name="plus" unicode="+" horiz-adv-x="526" 
d="M75 319v26h376v-26h-376zM249 530h28v-396h-28v396z" />
    <glyph glyph-name="comma" unicode="," horiz-adv-x="271" 
d="M100 -89l46 95l14 2q-2 -7 -8 -11.5t-16 -4.5q-15 0 -26.5 11t-11.5 27q0 17 12.5 29t29.5 12q16 0 28 -12t12 -29q0 -7 -1.5 -16.5t-9.5 -25.5l-45 -90z" />
    <glyph glyph-name="hyphen" unicode="-" horiz-adv-x="459" 
d="M80 237v30h299v-30h-299z" />
    <glyph glyph-name="period" unicode="." horiz-adv-x="288" 
d="M144 -10q-17 0 -28.5 12.5t-11.5 28.5q0 17 11.5 28.5t28.5 11.5t28.5 -11.5t11.5 -28.5q0 -16 -11.5 -28.5t-28.5 -12.5z" />
    <glyph glyph-name="slash" unicode="/" horiz-adv-x="358" 
d="M30 -40l269 750h29l-269 -750h-29z" />
    <glyph glyph-name="zero" unicode="0" horiz-adv-x="659" 
d="M331 -10q-73 0 -133.5 43t-96.5 121.5t-36 184.5q0 107 35.5 184.5t95.5 120t133 42.5q74 0 134 -42.5t95.5 -120.5t35.5 -185q0 -106 -35.5 -184.5t-95 -121t-132.5 -42.5zM329 20q66 0 118.5 38.5t83.5 110t31 170.5q0 98 -31 169t-83.5 109.5t-118.5 38.5
q-65 0 -117.5 -38.5t-83.5 -109.5t-31 -169q0 -99 31 -170.5t83.5 -110t117.5 -38.5z" />
    <glyph glyph-name="one" unicode="1" horiz-adv-x="321" 
d="M195 0v676h31v-676h-31zM45 648v28h171v-28h-171z" />
    <glyph glyph-name="two" unicode="2" horiz-adv-x="539" 
d="M48 22l251 258q57 59 86 96t39 66t10 62q0 71 -43.5 111.5t-118.5 40.5q-62 0 -108 -27.5t-82 -80.5l-23 23q40 56 92 85.5t121 29.5q59 0 102.5 -22.5t67.5 -63.5t24 -98q0 -38 -11.5 -71t-41.5 -71.5t-86 -95.5l-234 -239zM48 0v22l21 6h417v-28h-438z" />
    <glyph glyph-name="three" unicode="3" horiz-adv-x="530" 
d="M250 -10q-63 0 -115.5 26t-87.5 75l21 21q29 -44 76.5 -68.5t105.5 -24.5q56 0 98 22t66 62.5t24 93.5q0 54 -24 94.5t-66.5 63t-99.5 22.5q-16 0 -32 -2t-36 -7l6 16q12 11 29 15.5t42 4.5q61 0 109 -27t76 -74t28 -106q0 -61 -28.5 -107.5t-78 -73t-113.5 -26.5z
M180 368v22l249 272l33 -8l-250 -273zM73 648v28h389v-22l-28 -6h-361z" />
    <glyph glyph-name="four" unicode="4" horiz-adv-x="594" 
d="M48 206l264 470h35l-268 -470h-31zM48 184v22l13 6h486v-28h-499zM409 0v460h31v-460h-31z" />
    <glyph glyph-name="five" unicode="5" horiz-adv-x="530" 
d="M249 -10q-63 0 -114.5 26t-86.5 75l21 21q29 -44 75.5 -68.5t104.5 -24.5q56 0 98.5 23t67 64t24.5 96q0 56 -23.5 98t-65.5 65.5t-97 23.5q-45 0 -85 -14t-68 -40l-6 23q20 20 45 32.5t53.5 19t60.5 6.5q65 0 114 -27.5t76.5 -76t27.5 -111.5q0 -62 -29 -109.5
t-79 -74.5t-114 -27zM100 335l-15 16l29 325h30l-31 -325zM131 648l-17 28h334v-28h-317z" />
    <glyph glyph-name="six" unicode="6" horiz-adv-x="568" 
d="M283 -10q-63 0 -114 30t-81.5 81t-30.5 114q0 80 55 150l242 311h39l-224 -280l-10 5q18 13 39 22t44 14t46 5q61 0 111.5 -31t81 -82t30.5 -113t-31 -113.5t-82.5 -82t-114.5 -30.5zM284 17q53 0 97.5 27.5t71 72.5t26.5 99t-26.5 99.5t-71 72.5t-97.5 27
q-54 0 -98.5 -26.5t-70.5 -71.5t-26 -101q0 -55 26 -100.5t70.5 -72t98.5 -26.5z" />
    <glyph glyph-name="seven" unicode="7" horiz-adv-x="533" 
d="M183 0l274 664l28 -10l-269 -654h-33zM45 648v28h440v-22l-15 -6h-425z" />
    <glyph glyph-name="eight" unicode="8" horiz-adv-x="556" 
d="M278 -10q-62 0 -112 26t-78.5 70.5t-28.5 100.5q0 45 18 83t50.5 64.5t74.5 35.5l19 -10q-40 11 -69 34t-44.5 55.5t-15.5 70.5q0 49 24 86t66 58.5t96 21.5t96 -21.5t66 -58.5t24 -86q0 -38 -15.5 -70.5t-44.5 -55.5t-69 -34l19 10q42 -9 74 -35.5t50.5 -64.5t18.5 -83
q0 -56 -28.5 -100.5t-78 -70.5t-112.5 -26zM278 17q55 0 97 21.5t66 60t24 88.5q0 49 -24 87t-66 60t-97 22q-54 0 -96.5 -22t-66.5 -60t-24 -87q0 -50 24 -88.5t66 -60t97 -21.5zM278 379q68 0 111 39t43 102q0 62 -43 100.5t-111 38.5t-111 -38.5t-43 -100.5
q0 -63 43 -102t111 -39z" />
    <glyph glyph-name="nine" unicode="9" horiz-adv-x="568" 
d="M175 0l224 280l10 -5q-18 -13 -39 -22t-43.5 -14t-46.5 -5q-61 0 -111.5 31t-81 82.5t-30.5 112.5q0 63 31 114t82.5 81.5t114.5 30.5t114.5 -30t81.5 -81t30 -114q0 -80 -55 -150l-242 -311h-39zM284 261q54 0 98.5 26.5t70.5 72t26 100.5q0 56 -26 101t-70.5 71.5
t-98.5 26.5q-53 0 -97.5 -27t-71 -72.5t-26.5 -99.5t26.5 -99t71 -72.5t97.5 -27.5z" />
    <glyph glyph-name="colon" unicode=":" horiz-adv-x="269" 
d="M134 -10q-17 0 -28 12.5t-11 28.5q0 17 11 28.5t28 11.5t29 -11.5t12 -28.5q0 -16 -12 -28.5t-29 -12.5zM134 310q-17 0 -28 12.5t-11 28.5q0 17 11 28.5t28 11.5t29 -11.5t12 -28.5q0 -16 -12 -28.5t-29 -12.5z" />
    <glyph glyph-name="semicolon" unicode=";" horiz-adv-x="269" 
d="M97 -89l46 95l14 2q-2 -7 -8 -11.5t-16 -4.5q-15 0 -26.5 11t-11.5 27q0 17 12.5 29t29.5 12q16 0 28 -12t12 -29q0 -7 -1.5 -16.5t-9.5 -25.5l-45 -90zM135 310q-17 0 -28 12.5t-11 28.5q0 17 11 28.5t28 11.5t29 -11.5t12 -28.5q0 -16 -12 -28.5t-29 -12.5z" />
    <glyph glyph-name="less" unicode="&#x3c;" horiz-adv-x="526" 
d="M451 150l-376 175v20l376 175v-29l-357 -164v16l357 -164v-29z" />
    <glyph glyph-name="equal" unicode="=" horiz-adv-x="526" 
d="M75 434v26h376v-26h-376zM75 204v26h376v-26h-376z" />
    <glyph glyph-name="greater" unicode="&#x3e;" horiz-adv-x="526" 
d="M75 491v29l376 -175v-20l-376 -175v29l357 164v-16z" />
    <glyph glyph-name="question" unicode="?" horiz-adv-x="503" 
d="M234 185l-3 181l24 1q43 2 75.5 24.5t51 58t18.5 76.5t-18.5 75t-52 54t-80.5 20q-61 0 -101 -26.5t-64 -63.5l-23 23q26 41 74 69.5t114 28.5q56 0 97 -23.5t64 -64t23 -92.5q0 -49 -23 -91.5t-64 -68.5t-94 -28l10 15l-3 -168h-25zM245 -10q-17 0 -28.5 12t-11.5 28
q0 17 11.5 29t28.5 12t28.5 -12t11.5 -29q0 -16 -11.5 -28t-28.5 -12z" />
    <glyph glyph-name="at" unicode="@" horiz-adv-x="790" 
d="M398 -80q-65 0 -122 24t-99.5 67t-66.5 101t-24 125q0 68 24.5 126t68 101.5t101.5 67.5t124 24q88 0 155.5 -40.5t106.5 -111.5t39 -164q0 -42 -8.5 -73.5t-26.5 -60.5l-27 8q13 20 19.5 36t9.5 37t3 55q0 86 -35 150.5t-96.5 100t-139.5 35.5q-79 0 -144 -37t-104 -103
t-39 -152q0 -84 38 -149t101.5 -102t139.5 -37q63 0 110 17t82 50l21 -20q-43 -37 -96 -56t-115 -19zM382 95q-39 0 -70.5 19t-49.5 51.5t-18 71.5q0 41 18 73.5t49.5 51.5t70.5 19q51 0 84.5 -28t33.5 -66v-99q0 -37 -33 -65t-85 -28zM382 121q50 0 80 32.5t30 84.5
q0 54 -29.5 85.5t-79.5 31.5q-45 0 -77 -32t-32 -85q0 -52 31.5 -84.5t76.5 -32.5zM493 106v27h177v-27h-177zM488 106v68l9 68l-9 65v68h30v-269h-30z" />
    <glyph glyph-name="A" unicode="A" horiz-adv-x="678" 
d="M50 0l275 676h30l273 -676h-35l-261 648h15l-263 -648h-34zM165 223v29h349v-29h-349z" />
    <glyph glyph-name="B" unicode="B" horiz-adv-x="627" 
d="M115 0v29h235q82 0 131.5 43t49.5 114q0 46 -21.5 81t-59.5 55t-88 20h-247v27h242q66 0 104 37.5t38 101.5q0 65 -43 102t-115 37h-226v29h226q58 0 100.5 -20t66 -57t23.5 -89q0 -60 -30 -101.5t-87 -58.5l5 12q68 -16 106.5 -63t38.5 -113q0 -56 -27 -98t-76 -65
t-116 -23h-230zM99 0v676h32v-676h-32z" />
    <glyph glyph-name="C" unicode="C" horiz-adv-x="703" 
d="M405 -10q-72 0 -134 26.5t-108 74.5t-71.5 111.5t-25.5 136.5q0 74 25 137t70.5 110t106.5 73.5t132 26.5q73 0 136 -28t109 -78l-23 -23q-40 46 -97.5 72t-124.5 26q-64 0 -118.5 -24t-95.5 -67t-63.5 -100.5t-22.5 -124.5t23 -125t63.5 -101.5t96 -67.5t119.5 -24
q68 0 126.5 26.5t98.5 72.5l23 -23q-45 -50 -108 -78.5t-137 -28.5z" />
    <glyph glyph-name="D" unicode="D" horiz-adv-x="738" 
d="M110 0v30h221q90 0 159.5 40t108.5 109.5t39 159.5q0 89 -39 158.5t-108.5 109t-159.5 39.5h-217v30h217q75 0 137 -25t108 -70t71 -107t25 -136q0 -73 -25 -135t-70.5 -107.5t-107.5 -70.5t-136 -25h-223zM99 0v676h32v-676h-32z" />
    <glyph glyph-name="E" unicode="E" horiz-adv-x="588" 
d="M99 0v676h32v-676h-32zM117 0v29h417v-29h-417zM117 333v28h387v-28h-387zM117 647v29h411v-29h-411z" />
    <glyph glyph-name="F" unicode="F" horiz-adv-x="567" 
d="M99 0v676h32v-676h-32zM117 321v29h381v-29h-381zM117 647v29h398v-29h-398z" />
    <glyph glyph-name="G" unicode="G" horiz-adv-x="774" 
d="M406 -9q-74 0 -136.5 26t-108 72.5t-70.5 110t-25 138.5t25.5 138.5t71.5 111t108 73.5t136 26q83 0 151 -33.5t110 -95.5l-24 -24q-40 59 -100.5 90.5t-136.5 31.5q-89 0 -158.5 -41.5t-109 -113.5t-39.5 -164q0 -91 39 -162.5t107.5 -112t157.5 -40.5q84 0 146 36
t96.5 103.5t35.5 160.5l12 -10h-302v29h323v-6q0 -108 -38 -185t-107.5 -118t-163.5 -41z" />
    <glyph glyph-name="H" unicode="H" horiz-adv-x="687" 
d="M99 0v676h32v-676h-32zM556 0v676h32v-676h-32zM117 333v29h455v-29h-455z" />
    <glyph glyph-name="I" unicode="I" horiz-adv-x="230" 
d="M99 0v676h32v-676h-32z" />
    <glyph glyph-name="J" unicode="J" horiz-adv-x="496" 
d="M215 -10q-55 0 -94.5 20.5t-71.5 57.5l22 22q27 -34 61.5 -51.5t82.5 -17.5q38 0 74 17.5t59.5 57t23.5 103.5v477h32v-483q0 -68 -27.5 -113t-71 -67.5t-90.5 -22.5z" />
    <glyph glyph-name="K" unicode="K" horiz-adv-x="646" 
d="M548 0l-428 352l419 324h49l-433 -334v21l443 -363h-50zM99 0v676h32v-676h-32z" />
    <glyph glyph-name="L" unicode="L" horiz-adv-x="558" 
d="M99 0v676h32v-676h-32zM117 0v29h392v-29h-392z" />
    <glyph glyph-name="M" unicode="M" horiz-adv-x="830" 
d="M99 0v676h24l303 -496h-22l303 496h24v-676h-32v622l8 -2l-280 -459h-24l-280 459l8 2v-622h-32z" />
    <glyph glyph-name="N" unicode="N" horiz-adv-x="689" 
d="M99 0v676h24l8 -42v-634h-32zM566 0l-450 633l7 43l450 -633zM566 0l-8 42v634h32v-676h-24z" />
    <glyph glyph-name="O" unicode="O" horiz-adv-x="793" 
d="M398 -10q-71 0 -131.5 26.5t-105.5 74.5t-70 111.5t-25 136.5q0 74 24.5 137t69.5 110t105 73.5t131 26.5t131.5 -26.5t105 -73.5t69.5 -110.5t25 -137.5q0 -73 -24.5 -136.5t-69.5 -111t-104.5 -74t-130.5 -26.5zM396 21q85 0 152 42t106 114t39 162q0 67 -22.5 124.5
t-62.5 100.5t-94 67t-118 24q-85 0 -152 -41.5t-105.5 -113t-38.5 -161.5q0 -67 22.5 -125t62.5 -101.5t94 -67.5t117 -24z" />
    <glyph glyph-name="P" unicode="P" horiz-adv-x="611" 
d="M115 288v29h230q50 0 89 20t61.5 57t22.5 88t-22.5 88t-61.5 57t-89 20h-230v29h235q58 0 103 -24t71.5 -67.5t26.5 -102.5t-26.5 -102.5t-71.5 -67.5t-103 -24h-235zM99 0v676h32v-676h-32z" />
    <glyph glyph-name="Q" unicode="Q" horiz-adv-x="807" 
d="M398 -10q-71 0 -131.5 26.5t-105.5 74.5t-70 111.5t-25 136.5q0 74 24.5 137t69.5 110t105 73.5t131 26.5t131.5 -26.5t105 -73.5t69.5 -110.5t25 -137.5q0 -73 -24.5 -136.5t-69.5 -111t-104.5 -74t-130.5 -26.5zM766 -51l-354 354l20 20l354 -354zM396 21q85 0 152 42
t106 114t39 162q0 67 -22.5 124.5t-62.5 100.5t-94 67t-118 24q-85 0 -152 -41.5t-105.5 -113t-38.5 -161.5q0 -67 22.5 -125t62.5 -101.5t94 -67.5t117 -24z" />
    <glyph glyph-name="R" unicode="R" horiz-adv-x="637" 
d="M115 318v29h222q83 0 126 41.5t43 108.5q0 68 -43 109t-126 41h-222v29h217q67 0 113 -22.5t70 -63t24 -93.5t-24 -93.5t-70 -63t-113 -22.5h-217zM99 0v676h32v-676h-32zM547 0l-271 332l35 6l279 -338h-43z" />
    <glyph glyph-name="S" unicode="S" horiz-adv-x="552" 
d="M285 -10q-78 0 -136 30.5t-99 83.5l23 22q42 -57 95 -81.5t119 -24.5q74 0 121 36t47 100q0 48 -19.5 78.5t-51.5 49.5t-70 33.5l-76 29t-70 36t-51.5 55t-19.5 85.5q0 49 23.5 85.5t65.5 57t98 20.5q65 0 116 -25t87 -72l-23 -22q-34 43 -77.5 66t-102.5 23
q-68 0 -111 -35t-43 -97q0 -45 19.5 -73.5t51.5 -47t70 -32t76 -28.5t70 -37t51.5 -56.5t19.5 -87.5q0 -85 -54.5 -128.5t-148.5 -43.5z" />
    <glyph glyph-name="T" unicode="T" horiz-adv-x="644" 
d="M306 0v657h32v-657h-32zM49 647v29h546v-29h-546z" />
    <glyph glyph-name="U" unicode="U" horiz-adv-x="662" 
d="M331 -10q-69 0 -123.5 31t-86 85t-31.5 122v448h32v-442q0 -65 27.5 -113t75 -74t106.5 -26q60 0 107 26t74.5 74t27.5 112v443h32v-449q0 -68 -31.5 -121.5t-86 -84.5t-123.5 -31z" />
    <glyph glyph-name="V" unicode="V" horiz-adv-x="662" 
d="M315 0l-265 676h35l253 -647h-15l255 647h34l-267 -676h-30z" />
    <glyph glyph-name="W" unicode="W" horiz-adv-x="976" 
d="M266 0l-215 676h34l201 -646h-15l201 646h31l202 -646h-16l202 646h34l-215 -676h-28l-201 644h13l-200 -644h-28z" />
    <glyph glyph-name="X" unicode="X" horiz-adv-x="671" 
d="M582 0l-251 335h-5l-266 341h39l242 -313h5l276 -363h-40zM49 0l276 352l18 -21l-257 -331h-37zM349 334l-16 23l242 319h37z" />
    <glyph glyph-name="Y" unicode="Y" horiz-adv-x="645" 
d="M321 288l-273 388h39l241 -343h-10l244 343h36l-275 -388h-2zM307 0v321h32v-321h-32z" />
    <glyph glyph-name="Z" unicode="Z" horiz-adv-x="565" 
d="M52 18l422 640h38l-422 -640h-38zM52 0v18l26 11h427v-29h-453zM67 647v29h445v-18l-27 -11h-418z" />
    <glyph glyph-name="bracketleft" unicode="[" horiz-adv-x="328" 
d="M95 -96v792h29v-792h-29zM110 -96v25h171v-25h-171zM110 671v25h171v-25h-171z" />
    <glyph glyph-name="backslash" unicode="\" horiz-adv-x="358" 
d="M299 -40l-269 750h29l269 -750h-29z" />
    <glyph glyph-name="bracketright" unicode="]" horiz-adv-x="328" 
d="M204 -96v792h29v-792h-29zM47 -96v25h171v-25h-171zM47 671v25h171v-25h-171z" />
    <glyph glyph-name="asciicircum" unicode="^" horiz-adv-x="458" 
d="M350 457l-124 217h6l-124 -217h-33l141 239h25l142 -239h-33z" />
    <glyph glyph-name="underscore" unicode="_" horiz-adv-x="576" 
d="M80 -92v26h416v-26h-416z" />
    <glyph glyph-name="grave" unicode="`" horiz-adv-x="244" 
d="M191 537l-151 140l27 27l137 -154z" />
    <glyph glyph-name="a" unicode="a" 
d="M287 -10q-68 0 -121.5 31.5t-84.5 85.5t-31 122t31 122.5t84 86.5t120 32q53 0 95.5 -19.5t71 -55.5t39.5 -86v-157q-12 -50 -40.5 -86.5t-70 -56t-93.5 -19.5zM291 19q86 0 137 57.5t51 152.5q0 64 -23.5 111.5t-66.5 74t-100 26.5q-60 0 -106.5 -27.5t-73.5 -75
t-27 -108.5t27 -108.5t74.5 -75t107.5 -27.5zM478 0v123l9 114l-9 111v112h31v-460h-31z" />
    <glyph glyph-name="b" unicode="b" 
d="M309 -10q-52 0 -95.5 20t-74 56.5t-42.5 85.5v157q12 51 43 87t75 55t94 19q66 0 117.5 -31.5t81.5 -86t30 -123.5q0 -68 -29.5 -122t-81.5 -85.5t-118 -31.5zM80 0v696h31v-348l-10 -111l10 -114v-123h-31zM303 19q60 0 105.5 27t71.5 75t26 109q0 62 -26 109.5
t-71 74.5t-103 27t-102 -27t-69 -74.5t-25 -110.5q0 -61 24.5 -108.5t68 -74.5t100.5 -27z" />
    <glyph glyph-name="c" unicode="c" horiz-adv-x="495" 
d="M287 -10q-67 0 -120.5 32t-85 87t-31.5 123q0 67 31.5 121t85 85.5t120.5 31.5q50 0 93.5 -18.5t74.5 -51.5l-21 -21q-27 29 -65 45.5t-82 16.5q-58 0 -104.5 -27.5t-73.5 -74.5t-27 -107q0 -61 27 -109t73.5 -76t104.5 -28q45 0 83.5 16.5t66.5 46.5l21 -21
q-32 -34 -76.5 -52.5t-94.5 -18.5z" />
    <glyph glyph-name="d" unicode="d" 
d="M280 -10q-66 0 -117.5 31.5t-81.5 85.5t-30 122q0 69 30 123.5t82 86t117 31.5q50 0 94 -19t75.5 -55t42.5 -87v-157q-12 -49 -42.5 -85.5t-74 -56.5t-95.5 -20zM286 19q57 0 100.5 27t68 74.5t24.5 108.5q0 63 -25 110.5t-69 74.5t-102 27t-103 -27t-71 -74.5
t-26 -109.5q0 -61 26 -109t72 -75t105 -27zM509 0h-31v123l10 114l-10 111v348h31v-696z" />
    <glyph glyph-name="e" unicode="e" horiz-adv-x="542" 
d="M291 -10q-69 0 -123.5 31.5t-86 86t-31.5 123.5q0 68 30.5 122t84 85.5t120.5 31.5q62 0 109.5 -27.5t74.5 -76.5t27 -113q0 -4 -0.5 -12.5t-2.5 -21.5h-421v29h401l-9 -7q4 59 -18 104t-63.5 70.5t-98.5 25.5q-60 0 -105.5 -26.5t-71 -73t-25.5 -108.5q0 -64 26.5 -112
t74.5 -75t112 -27q48 0 88.5 18t68.5 54l21 -21q-31 -37 -78.5 -58.5t-103.5 -21.5z" />
    <glyph glyph-name="f" unicode="f" horiz-adv-x="386" 
d="M153 0v556q0 44 18.5 77.5t51.5 52.5t75 19q32 0 59 -11.5t47 -32.5l-21 -21q-19 20 -40.5 28.5t-45.5 8.5q-53 0 -83 -34t-30 -91v-552h-31zM31 433v27h323v-27h-323z" />
    <glyph glyph-name="g" unicode="g" 
d="M269 -206q-66 0 -120 25t-87 72l19 19q27 -39 76 -63t113 -24q96 0 152.5 52.5t56.5 141.5v117l9 108l-9 105v113h31v-443q0 -67 -30 -117t-84.5 -78t-126.5 -28zM284 0q-67 0 -119.5 30.5t-83 83.5t-30.5 121q0 67 30 120t82.5 84t118.5 31q53 0 96.5 -19.5t73 -55.5
t40.5 -86v-149q-12 -49 -41.5 -85t-72 -55.5t-94.5 -19.5zM288 29q57 0 100.5 25.5t67.5 72t24 108.5q0 61 -24.5 107t-68 72.5t-101.5 26.5q-59 0 -105 -26.5t-72 -72.5t-26 -106t26.5 -107t72.5 -73.5t106 -26.5z" />
    <glyph glyph-name="h" unicode="h" horiz-adv-x="537" 
d="M436 0v275q0 75 -43 121t-115 46q-49 0 -86.5 -21.5t-59 -58.5t-21.5 -86l-21 12q0 52 25.5 93t69 65t98.5 24t96.5 -25t64.5 -69t23 -101v-275h-31zM80 0v696h31v-696h-31z" />
    <glyph glyph-name="i" unicode="i" horiz-adv-x="192" 
d="M80 0v460h31v-460h-31zM95 575q-13 0 -22 10t-9 23q0 14 9 23t22 9q14 0 23.5 -9t9.5 -23q0 -13 -9.5 -23t-23.5 -10z" />
    <glyph glyph-name="j" unicode="j" horiz-adv-x="193" 
d="M-17 -206q-31 0 -58.5 11.5t-47.5 32.5l21 21q19 -19 40.5 -28t45.5 -9q41 0 69.5 24t28.5 77v537h31v-536q0 -43 -18 -72t-47.5 -43.5t-64.5 -14.5zM96 575q-13 0 -22 10t-9 23q0 14 9 23t22 9q14 0 23.5 -9t9.5 -23q0 -13 -9.5 -23t-23.5 -10z" />
    <glyph glyph-name="k" unicode="k" horiz-adv-x="457" 
d="M382 0l-278 237l271 223h43l-282 -231v17l291 -246h-45zM80 0v696h31v-696h-31z" />
    <glyph glyph-name="l" unicode="l" horiz-adv-x="191" 
d="M80 0v696h31v-696h-31z" />
    <glyph glyph-name="m" unicode="m" horiz-adv-x="837" 
d="M80 0v460h31v-460h-31zM408 0v290q0 68 -40 110t-103 42q-42 0 -77 -19t-56 -52.5t-21 -78.5l-21 1q0 53 23.5 93t64 62t90.5 22q49 0 87.5 -22t61 -62t22.5 -94v-292h-31zM736 0v290q0 68 -40 110t-103 42q-42 0 -77 -19t-56 -52.5t-21 -78.5l-21 1q0 54 24 93.5
t64.5 61.5t89.5 22t87.5 -22t61 -62.5t22.5 -94.5v-291h-31z" />
    <glyph glyph-name="n" unicode="n" horiz-adv-x="537" 
d="M436 0v275q0 75 -43 121t-115 46q-49 0 -86.5 -21.5t-59 -58.5t-21.5 -86l-21 12q0 52 25.5 93t69 65t98.5 24t96.5 -25t64.5 -69t23 -101v-275h-31zM80 0v460h31v-460h-31z" />
    <glyph glyph-name="o" unicode="o" horiz-adv-x="573" 
d="M287 -10q-67 0 -120.5 32t-85 87t-31.5 123q0 67 31.5 121t85 85.5t120.5 31.5q66 0 119.5 -31.5t85 -85.5t31.5 -121q0 -69 -31.5 -123.5t-85 -86.5t-119.5 -32zM287 19q58 0 104 28t73 76.5t27 109.5q0 59 -27 106t-73 74.5t-104 27.5t-104.5 -27.5t-73.5 -74.5
t-27 -107q0 -61 27 -109t73.5 -76t104.5 -28z" />
    <glyph glyph-name="p" unicode="p" 
d="M309 -10q-52 0 -95.5 20t-74 56.5t-42.5 85.5v157q12 51 43 87t75 55t94 19q66 0 117.5 -31.5t81.5 -86t30 -123.5q0 -68 -29.5 -122t-81.5 -85.5t-118 -31.5zM80 -196v656h31v-112l-10 -111l10 -114v-319h-31zM303 19q60 0 105.5 27t71.5 75t26 109q0 62 -26 109.5
t-71 74.5t-103 27t-102 -27t-69 -74.5t-25 -110.5q0 -61 24.5 -108.5t68 -74.5t100.5 -27z" />
    <glyph glyph-name="q" unicode="q" horiz-adv-x="590" 
d="M288 -10q-68 0 -121.5 31.5t-84.5 85.5t-31 122t31 122.5t84 86.5t120 32q53 0 95.5 -19.5t71 -55.5t39.5 -86v-157q-12 -50 -40.5 -86.5t-70 -56t-93.5 -19.5zM292 19q86 0 137 57.5t51 152.5q0 64 -23.5 111.5t-66.5 74t-100 26.5q-60 0 -106.5 -27.5t-73.5 -75
t-27 -108.5t27 -108.5t74.5 -75t107.5 -27.5zM479 -196v319l9 114l-9 111v112h31v-656h-31z" />
    <glyph glyph-name="r" unicode="r" horiz-adv-x="402" 
d="M80 0v460h31v-460h-31zM111 281l-21 6q0 88 46.5 135.5t116.5 47.5q34 0 63.5 -12t54.5 -38l-21 -23q-21 23 -45.5 33t-56.5 10q-61 0 -99 -41.5t-38 -117.5z" />
    <glyph glyph-name="s" unicode="s" horiz-adv-x="417" 
d="M212 -10q-37 0 -69.5 10.5t-58.5 29t-46 42.5l21 22q30 -39 69 -57.5t85 -18.5q57 0 91 24.5t34 67.5q0 38 -19.5 60t-50.5 34t-65.5 22t-65.5 23.5t-50.5 38t-19.5 66.5q0 34 18 60t51 41t78 15q49 0 90 -17.5t64 -50.5l-21 -21q-20 28 -56 44.5t-80 16.5q-56 0 -85 -25
t-29 -62q0 -35 19.5 -55t50.5 -31t65.5 -20.5t65.5 -24t50.5 -40t19.5 -70.5q0 -57 -42.5 -90.5t-113.5 -33.5z" />
    <glyph glyph-name="t" unicode="t" horiz-adv-x="336" 
d="M153 0v656h31v-656h-31zM31 433v27h274v-27h-274z" />
    <glyph glyph-name="u" unicode="u" horiz-adv-x="512" 
d="M256 -10q-54 0 -96.5 25.5t-66.5 71t-24 105.5v268h31v-267q0 -51 19.5 -90.5t55 -62t81.5 -22.5q70 0 113 49t43 126v267h31v-268q0 -59 -24 -105t-66 -71.5t-97 -25.5z" />
    <glyph glyph-name="v" unicode="v" horiz-adv-x="514" 
d="M247 0l-216 460h34l200 -432h-17l201 432h34l-218 -460h-18z" />
    <glyph glyph-name="w" unicode="w" horiz-adv-x="738" 
d="M203 0l-170 460h33l155 -432h-18l157 432h18l157 -432h-18l155 432h33l-170 -460h-19l-159 438h24l-159 -438h-19z" />
    <glyph glyph-name="x" unicode="x" horiz-adv-x="488" 
d="M417 0l-177 224l-9 7l-192 229h40l170 -207l9 -6l199 -247h-40zM31 0l202 247l14 -25l-177 -222h-39zM257 231l-14 23l167 206h39z" />
    <glyph glyph-name="y" unicode="y" horiz-adv-x="502" 
d="M240 0l-208 460h34l192 -432h-23l201 432h34l-218 -460h-12zM126 -196l110 226l16 -30l-93 -196h-33z" />
    <glyph glyph-name="z" unicode="z" horiz-adv-x="433" 
d="M35 17l325 426h37l-325 -426h-37zM35 0v17l21 10h336v-27h-357zM51 433v27h346v-17l-31 -10h-315z" />
    <glyph glyph-name="braceleft" unicode="{" horiz-adv-x="313" 
d="M232 -96q-64 0 -101 44.5t-24 140.5l14 106q7 49 -7.5 72t-41.5 23h-27v23h27q27 0 41.5 23t7.5 72l-14 103q-13 96 24 140.5t101 44.5h34v-25h-26q-54 0 -84 -35t-20 -121l13 -108q4 -30 -1.5 -54t-21 -39t-42.5 -22v16q27 -4 42.5 -19.5t21 -39t1.5 -53.5l-13 -111
q-10 -85 20 -120.5t84 -35.5h26v-25h-34z" />
    <glyph glyph-name="bar" unicode="|" horiz-adv-x="267" 
d="M119 -130v876h29v-876h-29z" />
    <glyph glyph-name="braceright" unicode="}" horiz-adv-x="313" 
d="M81 -96h-34v25h26q54 0 84 35.5t20 120.5l-13 111q-3 30 2 53.5t20.5 39t42.5 19.5v-16q-27 7 -42.5 22t-20.5 39t-2 54l13 108q11 86 -19.5 121t-84.5 35h-26v25h34q64 0 101 -44.5t24 -140.5l-14 -103q-7 -49 7.5 -72t41.5 -23h27v-23h-27q-27 0 -41.5 -23t-7.5 -72
l14 -106q13 -96 -24 -140.5t-101 -44.5z" />
    <glyph glyph-name="asciitilde" unicode="~" horiz-adv-x="526" 
d="M356 295q-23 0 -43.5 6.5t-41 15t-43 15t-50.5 6.5q-35 0 -55.5 -10.5t-34.5 -28.5l-19 16q17 22 42 36t67 14q28 0 50.5 -6.5t43 -15t41 -15t43.5 -6.5q29 0 49 10.5t34 28.5l18 -16q-16 -22 -40.5 -36t-60.5 -14z" />
    <glyph glyph-name="uni00A0" unicode="&#xa0;" horiz-adv-x="230" 
 />
    <glyph glyph-name="exclamdown" unicode="&#xa1;" horiz-adv-x="259" 
d="M110 -196l7 471h25l7 -471h-39zM128 389q-17 0 -28.5 12t-11.5 28q0 17 11.5 29t28.5 12t28.5 -12t11.5 -29q0 -16 -11.5 -28t-28.5 -12z" />
    <glyph glyph-name="cent" unicode="&#xa2;" horiz-adv-x="501" 
d="M290 98q-67 0 -120.5 32t-85 87t-31.5 123q0 67 31.5 121t85 85.5t120.5 31.5q50 0 93.5 -18.5t74.5 -51.5l-21 -21q-27 29 -65 45.5t-82 16.5q-58 0 -104.5 -27.5t-73.5 -74.5t-27 -107q0 -61 27 -109t73.5 -76t104.5 -28q45 0 83.5 16.5t66.5 46.5l21 -21
q-32 -34 -76.5 -52.5t-94.5 -18.5zM263 10v656h26v-656h-26z" />
    <glyph glyph-name="sterling" unicode="&#xa3;" horiz-adv-x="612" 
d="M186 10v483q0 62 25.5 105t68 65.5t93.5 22.5q65 0 105.5 -24.5t62.5 -54.5l-23 -23q-25 30 -59.5 50.5t-87.5 20.5q-41 0 -76 -18t-56 -53.5t-21 -87.5v-486h-32zM78 0v29h450v-29h-450zM78 309v29h370v-29h-370z" />
    <glyph glyph-name="currency" unicode="&#xa4;" horiz-adv-x="458" 
d="M229 146q-53 0 -96.5 26t-68.5 70t-25 98t25 97t68.5 68.5t96.5 25.5t96 -25t68.5 -68.5t25.5 -97.5q0 -55 -25.5 -99t-68.5 -69.5t-96 -25.5zM39 130l-19 18l73 73l18 -18zM229 173q46 0 82 22t57 60t21 86q0 46 -21 83t-57 58.5t-82 21.5t-82 -21.5t-57 -58.5t-21 -84
q0 -48 21 -85.5t57.5 -59.5t81.5 -22zM420 130l-73 73l18 18l73 -73zM93 457l-73 72l19 19l72 -73zM365 457l-18 18l73 73l18 -19z" />
    <glyph glyph-name="yen" unicode="&#xa5;" horiz-adv-x="652" 
d="M324 288l-238 388h38l207 -343h-10l209 343h36l-240 -388h-2zM310 0v321h32v-321h-32zM245 440l16 -28h-150v28h134zM111 238v28h430v-28h-430zM384 412l19 28h138v-28h-157z" />
    <glyph glyph-name="brokenbar" unicode="&#xa6;" horiz-adv-x="267" 
d="M119 386v360h29v-360h-29zM119 -130v360h29v-360h-29z" />
    <glyph glyph-name="section" unicode="&#xa7;" horiz-adv-x="524" 
d="M271 140l1 25q63 0 101 29t38 73t-21.5 68t-55.5 37.5t-72.5 24.5t-72.5 27t-55.5 45t-21.5 79q0 40 19.5 71t55.5 49t86 18q56 0 100.5 -22t67.5 -59l-22 -23q-23 35 -64 54t-86 19q-62 0 -94 -30.5t-32 -74.5q0 -43 21.5 -66.5t55.5 -37t72.5 -24t72.5 -26.5t55.5 -45
t21.5 -80q0 -39 -21.5 -68.5t-59.5 -46t-90 -16.5zM251 -121q-55 0 -100 22t-68 59l22 23q23 -35 64 -54t86 -19q62 0 94 31t32 74t-21.5 66.5t-55.5 37t-72.5 24t-72.5 26.5t-55.5 45t-21.5 80q0 40 21.5 69t60 45.5t89.5 16.5l-1 -25q-63 0 -101 -29t-38 -73
q0 -43 21.5 -67.5t55.5 -38t72.5 -24.5t72.5 -27t55.5 -45t21.5 -79q0 -40 -19.5 -71t-55.5 -49t-86 -18z" />
    <glyph glyph-name="dieresis" unicode="&#xa8;" horiz-adv-x="354" 
d="M91 545q-13 0 -22 10t-9 23q0 14 9 23t22 9q14 0 23.5 -9t9.5 -23q0 -13 -9.5 -23t-23.5 -10zM261 545q-13 0 -22 10t-9 23q0 14 9 23t22 9q14 0 23.5 -9t9.5 -23q0 -13 -9.5 -23t-23.5 -10z" />
    <glyph glyph-name="copyright" unicode="&#xa9;" horiz-adv-x="859" 
d="M431 -10q-76 0 -139.5 26.5t-109.5 74.5t-71.5 111.5t-25.5 136.5q0 74 25 137t71 110t109 73.5t139 26.5t139.5 -26.5t109.5 -73.5t71 -110.5t25 -137.5q0 -73 -25 -136.5t-71 -111t-108.5 -74t-138.5 -26.5zM432 146q-53 0 -96.5 26t-68.5 70t-25 98t25 97t68.5 68.5
t96.5 25.5q40 0 74.5 -14.5t61.5 -42.5l-20 -23q-21 23 -50.5 36t-65.5 13q-43 0 -78.5 -20.5t-56.5 -56.5t-21 -83q0 -48 21 -85t56.5 -58t78.5 -21q34 0 65 12t54 37l19 -22q-25 -27 -61 -42t-77 -15zM429 21q92 0 162 42t109.5 114t39.5 162q0 89 -39.5 160.5
t-109.5 113.5t-162 42t-162 -41.5t-109 -113t-39 -161.5t39.5 -162t109.5 -114t161 -42z" />
    <glyph glyph-name="ordfeminine" unicode="&#xaa;" horiz-adv-x="352" 
d="M170 392q-40 0 -72.5 19t-51 51.5t-18.5 73.5q0 42 18.5 75t50.5 52t72 19q46 0 79.5 -26t42.5 -73v-92q-9 -46 -41.5 -72.5t-79.5 -26.5zM173 417q49 0 78.5 32.5t29.5 87.5q0 54 -30 87t-79 33q-51 0 -84 -34t-33 -86t33.5 -86t84.5 -34zM280 398v74l6 69l-6 67v68h26
v-278h-26z" />
    <glyph glyph-name="guillemotleft" unicode="&#xab;" horiz-adv-x="405" 
d="M177 83l-124 151l124 151h36l-126 -151l126 -151h-36zM317 83l-124 151l124 151h36l-126 -151l126 -151h-36z" />
    <glyph glyph-name="logicalnot" unicode="&#xac;" horiz-adv-x="526" 
d="M75 369v26h376v-26h-376zM423 388h28v-204h-28v204z" />
    <glyph glyph-name="registered" unicode="&#xae;" horiz-adv-x="598" 
d="M300 266q-61 0 -108.5 28t-74 76t-26.5 107t26.5 106t73 75t107.5 28q62 0 109 -28t73.5 -75.5t26.5 -106.5t-26.5 -106.5t-73 -75.5t-107.5 -28zM230 368v223h24v-223h-24zM371 368l-90 110h28l90 -110h-28zM298 286q56 0 98 25.5t65.5 68.5t23.5 97q0 53 -23.5 96
t-65.5 68t-98 25q-55 0 -96.5 -25t-65 -68t-23.5 -96q0 -54 23.5 -97t65.5 -68.5t96 -25.5zM235 473v24h73q22 0 32 10t10 25q0 14 -9.5 25t-32.5 11h-73v23h72q33 0 50.5 -16.5t17.5 -42.5t-17.5 -42.5t-50.5 -16.5h-72z" />
    <glyph glyph-name="macron" unicode="&#xaf;" horiz-adv-x="390" 
d="M40 591h310v-27h-310v27z" />
    <glyph glyph-name="degree" unicode="&#xb0;" horiz-adv-x="400" 
d="M200 391q-41 0 -74 19t-52 52.5t-19 75.5q0 43 19 76t52 52.5t74 19.5q42 0 74.5 -19.5t51.5 -52.5t19 -76q0 -42 -19 -75.5t-51.5 -52.5t-74.5 -19zM201 416q50 0 83 35t33 89q0 53 -32.5 87t-83.5 34q-52 0 -85 -34t-33 -87q0 -54 33.5 -89t84.5 -35z" />
    <glyph glyph-name="plusminus" unicode="&#xb1;" horiz-adv-x="526" 
d="M75 369v26h376v-26h-376zM249 530h28v-296h-28v296zM75 134v26h376v-26h-376z" />
    <glyph glyph-name="uni00B2" unicode="&#xb2;" horiz-adv-x="325" 
d="M48 352l126 131q37 38 49.5 59t12.5 45q0 32 -20 50.5t-54 18.5q-29 0 -51 -13.5t-39 -40.5l-19 18q20 30 47 45.5t63 15.5q45 0 72.5 -25.5t27.5 -69.5q0 -29 -13.5 -53t-52.5 -64l-112 -115zM48 335v17l21 7h203v-24h-224z" />
    <glyph glyph-name="uni00B3" unicode="&#xb3;" horiz-adv-x="326" 
d="M151 330q-34 0 -60.5 13.5t-43.5 36.5l18 19q13 -19 35.5 -31.5t50.5 -12.5q38 0 62.5 22.5t24.5 59.5q0 38 -24 60.5t-65 22.5q-7 0 -15 -1t-19 -3l9 14q8 6 18 8t20 2q44 0 74 -29t30 -74q0 -47 -32.5 -77t-82.5 -30zM115 516v17l116 128l31 -2l-118 -130zM61 652v24
h201v-17l-24 -7h-177z" />
    <glyph glyph-name="acute" unicode="&#xb4;" horiz-adv-x="244" 
d="M53 537l-13 13l137 154l27 -27z" />
    <glyph glyph-name="uni00B5" unicode="&#xb5;" 
d="M119 -180v640h31v-640h-31zM305 -10q-79 0 -127.5 50t-48.5 132l21 12q0 -73 40 -119.5t110 -46.5q69 0 115.5 44.5t46.5 122.5v275h31v-275q0 -59 -25 -103t-67.5 -68t-95.5 -24z" />
    <glyph glyph-name="paragraph" unicode="&#xb6;" horiz-adv-x="668" 
d="M364 288h-85q-57 0 -102.5 24t-72 67.5t-26.5 102.5t26.5 102.5t72 67.5t102.5 24h321v-29h-316q-49 0 -88.5 -20t-62 -57t-22.5 -88t22.5 -88t62 -57t88.5 -20h80v-29zM380 -100h-32v776h32v-776zM506 -100h-32v776h32v-776z" />
    <glyph glyph-name="periodcentered" unicode="&#xb7;" horiz-adv-x="80" 
d="M40 314q-17 0 -28.5 12.5t-11.5 28.5q0 17 11.5 28.5t28.5 11.5t28.5 -11.5t11.5 -28.5q0 -16 -11.5 -28.5t-28.5 -12.5z" />
    <glyph glyph-name="cedilla" unicode="&#xb8;" horiz-adv-x="260" 
d="M133 -206q-29 0 -58.5 10.5t-52.5 29.5l26 22q16 -15 38 -23.5t47 -8.5q39 0 60.5 14t21.5 39t-23.5 38.5t-67.5 13.5h-20l24 79h35l-21 -69l-14 17q59 0 90.5 -21t31.5 -59q0 -39 -30.5 -60.5t-86.5 -21.5z" />
    <glyph glyph-name="uni00B9" unicode="&#xb9;" horiz-adv-x="240" 
d="M119 335v341h26v-341h-26zM45 652v24h95v-24h-95z" />
    <glyph glyph-name="ordmasculine" unicode="&#xba;" horiz-adv-x="343" 
d="M172 392q-40 0 -73 19.5t-52 52.5t-19 74t19 73.5t52 51.5t73 19t72 -19t51.5 -51.5t19.5 -73.5t-19.5 -74.5t-51.5 -52.5t-72 -19zM172 417q50 0 83 35t33 87q0 50 -33.5 84t-82.5 34q-50 0 -83.5 -34t-33.5 -85q0 -52 33.5 -86.5t83.5 -34.5z" />
    <glyph glyph-name="guillemotright" unicode="&#xbb;" horiz-adv-x="405" 
d="M192 83l126 151l-126 151h36l124 -151l-124 -151h-36zM52 83l126 151l-126 151h36l124 -151l-124 -151h-36z" />
    <glyph glyph-name="onequarter" unicode="&#xbc;" horiz-adv-x="636" 
d="M255 295l15 -10l-181 -295l-33 24zM335 381l-15 10l181 295l33 -24zM141 335v341h26v-341h-26zM67 652v24h95v-24h-95zM325 94l130 232h31l-133 -232h-28zM325 76v18l11 7h245v-25h-256zM502 -15v230h26v-230h-26z" />
    <glyph glyph-name="onehalf" unicode="&#xbd;" horiz-adv-x="629" 
d="M255 295l15 -10l-181 -295l-33 24zM335 381l-15 10l181 295l33 -24zM141 335v341h26v-341h-26zM67 652v24h95v-24h-95zM344 2l126 131q37 38 49.5 59t12.5 45q0 32 -20 50.5t-54 18.5q-29 0 -51 -13.5t-39 -40.5l-19 18q20 30 47 45.5t63 15.5q45 0 72.5 -25.5
t27.5 -69.5q0 -29 -13.5 -53t-52.5 -64l-112 -115zM344 -15v17l21 7h203v-24h-224z" />
    <glyph glyph-name="threequarters" unicode="&#xbe;" horiz-adv-x="627" 
d="M289 295l15 -10l-181 -295l-33 24zM369 381l-15 10l181 295l33 -24zM160 330q-34 0 -60.5 13.5t-43.5 36.5l18 19q13 -19 35.5 -31.5t50.5 -12.5q38 0 62.5 22.5t24.5 59.5q0 38 -24 60.5t-65 22.5q-7 0 -15 -1t-19 -3l9 14q8 6 18 8t20 2q44 0 74 -29t30 -74
q0 -47 -32.5 -77t-82.5 -30zM124 516v17l116 128l31 -2l-118 -130zM70 652v24h201v-17l-24 -7h-177zM312 94l130 232h31l-133 -232h-28zM312 76v18l11 7h245v-25h-256zM489 -15v230h26v-230h-26z" />
    <glyph glyph-name="questiondown" unicode="&#xbf;" horiz-adv-x="505" 
d="M256 -206q-55 0 -96.5 24.5t-64.5 66t-23 92.5q0 55 23 95.5t64 64t94 25.5l-10 -15l3 128h25l3 -141l-24 -1q-64 -3 -104.5 -44.5t-40.5 -111.5q0 -41 18.5 -75.5t52.5 -55.5t80 -21q62 0 101.5 26.5t63.5 63.5l23 -23q-26 -41 -74 -69.5t-114 -28.5zM260 389
q-17 0 -28.5 12t-11.5 29t11.5 28.5t28.5 11.5t28.5 -11.5t11.5 -28.5t-11.5 -29t-28.5 -12z" />
    <glyph glyph-name="Agrave" unicode="&#xc0;" horiz-adv-x="678" 
d="M50 0l275 676h30l273 -676h-35l-261 648h15l-263 -648h-34zM165 223v29h349v-29h-349zM378 753l-151 140l27 27l137 -154z" />
    <glyph glyph-name="Aacute" unicode="&#xc1;" horiz-adv-x="678" 
d="M50 0l275 676h30l273 -676h-35l-261 648h15l-263 -648h-34zM165 223v29h349v-29h-349zM270 753l-13 13l137 154l27 -27z" />
    <glyph glyph-name="Acircumflex" unicode="&#xc2;" horiz-adv-x="678" 
d="M50 0l275 676h30l273 -676h-35l-261 648h15l-263 -648h-34zM165 223v29h349v-29h-349zM200 753l-13 13l137 154h30l137 -154l-13 -13l-149 138h20z" />
    <glyph glyph-name="Atilde" unicode="&#xc3;" horiz-adv-x="678" 
d="M50 0l275 676h30l273 -676h-35l-261 648h15l-263 -648h-34zM165 223v29h349v-29h-349zM413 762q-30 0 -51.5 11t-42.5 21.5t-48 10.5q-28 0 -43 -10.5t-27 -28.5l-19 16q14 22 34.5 36t54.5 14q33 0 55.5 -10.5t42.5 -21.5t44 -11q23 0 37.5 10.5t26.5 28.5l19 -16
q-14 -22 -34 -36t-49 -14z" />
    <glyph glyph-name="Adieresis" unicode="&#xc4;" horiz-adv-x="678" 
d="M50 0l275 676h30l273 -676h-35l-261 648h15l-263 -648h-34zM165 223v29h349v-29h-349zM253 761q-13 0 -22 10t-9 23q0 14 9 23t22 9q14 0 23.5 -9t9.5 -23q0 -13 -9.5 -23t-23.5 -10zM423 761q-13 0 -22 10t-9 23q0 14 9 23t22 9q14 0 23.5 -9t9.5 -23q0 -13 -9.5 -23
t-23.5 -10z" />
    <glyph glyph-name="Aring" unicode="&#xc5;" horiz-adv-x="678" 
d="M50 0l275 676h30l273 -676h-35l-261 648h15l-263 -648h-34zM165 223v29h349v-29h-349zM340 663q-30 0 -53.5 13.5t-36.5 36.5t-13 52t13 52t36.5 36.5t53.5 13.5q29 0 51.5 -13.5t35.5 -36.5t13 -52t-13 -52t-35.5 -36.5t-51.5 -13.5zM341 690q29 0 50 21.5t21 53.5
t-21 53.5t-50 21.5q-34 0 -54.5 -21.5t-20.5 -53.5t20.5 -53.5t54.5 -21.5z" />
    <glyph glyph-name="AE" unicode="&#xc6;" horiz-adv-x="947" 
d="M50 0l275 676h180v-29h-159l-262 -647h-34zM180 273v28h333v-28h-333zM516 0v29h377v-29h-377zM498 0v676h32v-676h-32zM510 333v28h353v-28h-353zM516 647v29h371v-29h-371z" />
    <glyph glyph-name="Ccedilla" unicode="&#xc7;" horiz-adv-x="703" 
d="M405 -10q-72 0 -134 26.5t-108 74.5t-71.5 111.5t-25.5 136.5q0 74 25 137t70.5 110t106.5 73.5t132 26.5q73 0 136 -28t109 -78l-23 -23q-40 46 -97.5 72t-124.5 26q-64 0 -118.5 -24t-95.5 -67t-63.5 -100.5t-22.5 -124.5t23 -125t63.5 -101.5t96 -67.5t119.5 -24
q68 0 126.5 26.5t98.5 72.5l23 -23q-45 -50 -108 -78.5t-137 -28.5zM378 -206q-29 0 -58.5 10.5t-52.5 29.5l26 22q16 -15 38 -23.5t47 -8.5q39 0 60.5 14t21.5 39t-23.5 38.5t-67.5 13.5h-20l24 79h35l-21 -69l-14 17q59 0 90.5 -21t31.5 -59q0 -39 -30.5 -60.5
t-86.5 -21.5z" />
    <glyph glyph-name="Egrave" unicode="&#xc8;" horiz-adv-x="588" 
d="M99 0v676h32v-676h-32zM117 0v29h417v-29h-417zM117 333v28h387v-28h-387zM117 647v29h411v-29h-411zM356 753l-151 140l27 27l137 -154z" />
    <glyph glyph-name="Eacute" unicode="&#xc9;" horiz-adv-x="588" 
d="M99 0v676h32v-676h-32zM117 0v29h417v-29h-417zM117 333v28h387v-28h-387zM117 647v29h411v-29h-411zM248 753l-13 13l137 154l27 -27z" />
    <glyph glyph-name="Ecircumflex" unicode="&#xca;" horiz-adv-x="588" 
d="M99 0v676h32v-676h-32zM117 0v29h417v-29h-417zM117 333v28h387v-28h-387zM117 647v29h411v-29h-411zM178 753l-13 13l137 154h30l137 -154l-13 -13l-149 138h20z" />
    <glyph glyph-name="Edieresis" unicode="&#xcb;" horiz-adv-x="588" 
d="M99 0v676h32v-676h-32zM117 0v29h417v-29h-417zM117 333v28h387v-28h-387zM117 647v29h411v-29h-411zM231 761q-13 0 -22 10t-9 23q0 14 9 23t22 9q14 0 23.5 -9t9.5 -23q0 -13 -9.5 -23t-23.5 -10zM401 761q-13 0 -22 10t-9 23q0 14 9 23t22 9q14 0 23.5 -9t9.5 -23
q0 -13 -9.5 -23t-23.5 -10z" />
    <glyph glyph-name="Igrave" unicode="&#xcc;" horiz-adv-x="230" 
d="M99 0v676h32v-676h-32zM154 753l-151 140l27 27l137 -154z" />
    <glyph glyph-name="Iacute" unicode="&#xcd;" horiz-adv-x="230" 
d="M99 0v676h32v-676h-32zM46 753l-13 13l137 154l27 -27z" />
    <glyph glyph-name="Icircumflex" unicode="&#xce;" horiz-adv-x="230" 
d="M99 0v676h32v-676h-32zM-24 753l-13 13l137 154h30l137 -154l-13 -13l-149 138h20z" />
    <glyph glyph-name="Idieresis" unicode="&#xcf;" horiz-adv-x="230" 
d="M99 0v676h32v-676h-32zM29 761q-13 0 -22 10t-9 23q0 14 9 23t22 9q14 0 23.5 -9t9.5 -23q0 -13 -9.5 -23t-23.5 -10zM199 761q-13 0 -22 10t-9 23q0 14 9 23t22 9q14 0 23.5 -9t9.5 -23q0 -13 -9.5 -23t-23.5 -10z" />
    <glyph glyph-name="Eth" unicode="&#xd0;" horiz-adv-x="738" 
d="M14 362h342v-28h-342v28zM110 0v30h221q90 0 159.5 40t108.5 109.5t39 159.5q0 89 -39 158.5t-108.5 109t-159.5 39.5h-217v30h217q75 0 137 -25t108 -70t71 -107t25 -136q0 -73 -25 -135t-70.5 -107.5t-107.5 -70.5t-136 -25h-223zM99 0v676h32v-676h-32z" />
    <glyph glyph-name="Ntilde" unicode="&#xd1;" horiz-adv-x="689" 
d="M99 0v676h24l8 -42v-634h-32zM566 0l-450 633l7 43l450 -633zM566 0l-8 42v634h32v-676h-24zM419 762q-30 0 -51.5 11t-42.5 21.5t-48 10.5q-28 0 -43 -10.5t-27 -28.5l-19 16q14 22 34.5 36t54.5 14q33 0 55.5 -10.5t42.5 -21.5t44 -11q23 0 37.5 10.5t26.5 28.5l19 -16
q-14 -22 -34 -36t-49 -14z" />
    <glyph glyph-name="Ograve" unicode="&#xd2;" horiz-adv-x="793" 
d="M398 -10q-71 0 -131.5 26.5t-105.5 74.5t-70 111.5t-25 136.5q0 74 24.5 137t69.5 110t105 73.5t131 26.5t131.5 -26.5t105 -73.5t69.5 -110.5t25 -137.5q0 -73 -24.5 -136.5t-69.5 -111t-104.5 -74t-130.5 -26.5zM396 21q85 0 152 42t106 114t39 162q0 67 -22.5 124.5
t-62.5 100.5t-94 67t-118 24q-85 0 -152 -41.5t-105.5 -113t-38.5 -161.5q0 -67 22.5 -125t62.5 -101.5t94 -67.5t117 -24zM436 753l-151 140l27 27l137 -154z" />
    <glyph glyph-name="Oacute" unicode="&#xd3;" horiz-adv-x="793" 
d="M398 -10q-71 0 -131.5 26.5t-105.5 74.5t-70 111.5t-25 136.5q0 74 24.5 137t69.5 110t105 73.5t131 26.5t131.5 -26.5t105 -73.5t69.5 -110.5t25 -137.5q0 -73 -24.5 -136.5t-69.5 -111t-104.5 -74t-130.5 -26.5zM396 21q85 0 152 42t106 114t39 162q0 67 -22.5 124.5
t-62.5 100.5t-94 67t-118 24q-85 0 -152 -41.5t-105.5 -113t-38.5 -161.5q0 -67 22.5 -125t62.5 -101.5t94 -67.5t117 -24zM328 753l-13 13l137 154l27 -27z" />
    <glyph glyph-name="Ocircumflex" unicode="&#xd4;" horiz-adv-x="793" 
d="M398 -10q-71 0 -131.5 26.5t-105.5 74.5t-70 111.5t-25 136.5q0 74 24.5 137t69.5 110t105 73.5t131 26.5t131.5 -26.5t105 -73.5t69.5 -110.5t25 -137.5q0 -73 -24.5 -136.5t-69.5 -111t-104.5 -74t-130.5 -26.5zM396 21q85 0 152 42t106 114t39 162q0 67 -22.5 124.5
t-62.5 100.5t-94 67t-118 24q-85 0 -152 -41.5t-105.5 -113t-38.5 -161.5q0 -67 22.5 -125t62.5 -101.5t94 -67.5t117 -24zM258 753l-13 13l137 154h30l137 -154l-13 -13l-149 138h20z" />
    <glyph glyph-name="Otilde" unicode="&#xd5;" horiz-adv-x="793" 
d="M398 -10q-71 0 -131.5 26.5t-105.5 74.5t-70 111.5t-25 136.5q0 74 24.5 137t69.5 110t105 73.5t131 26.5t131.5 -26.5t105 -73.5t69.5 -110.5t25 -137.5q0 -73 -24.5 -136.5t-69.5 -111t-104.5 -74t-130.5 -26.5zM396 21q85 0 152 42t106 114t39 162q0 67 -22.5 124.5
t-62.5 100.5t-94 67t-118 24q-85 0 -152 -41.5t-105.5 -113t-38.5 -161.5q0 -67 22.5 -125t62.5 -101.5t94 -67.5t117 -24zM471 762q-30 0 -51.5 11t-42.5 21.5t-48 10.5q-28 0 -43 -10.5t-27 -28.5l-19 16q14 22 34.5 36t54.5 14q33 0 55.5 -10.5t42.5 -21.5t44 -11
q23 0 37.5 10.5t26.5 28.5l19 -16q-14 -22 -34 -36t-49 -14z" />
    <glyph glyph-name="Odieresis" unicode="&#xd6;" horiz-adv-x="793" 
d="M398 -10q-71 0 -131.5 26.5t-105.5 74.5t-70 111.5t-25 136.5q0 74 24.5 137t69.5 110t105 73.5t131 26.5t131.5 -26.5t105 -73.5t69.5 -110.5t25 -137.5q0 -73 -24.5 -136.5t-69.5 -111t-104.5 -74t-130.5 -26.5zM396 21q85 0 152 42t106 114t39 162q0 67 -22.5 124.5
t-62.5 100.5t-94 67t-118 24q-85 0 -152 -41.5t-105.5 -113t-38.5 -161.5q0 -67 22.5 -125t62.5 -101.5t94 -67.5t117 -24zM311 761q-13 0 -22 10t-9 23q0 14 9 23t22 9q14 0 23.5 -9t9.5 -23q0 -13 -9.5 -23t-23.5 -10zM481 761q-13 0 -22 10t-9 23q0 14 9 23t22 9
q14 0 23.5 -9t9.5 -23q0 -13 -9.5 -23t-23.5 -10z" />
    <glyph glyph-name="multiply" unicode="&#xd7;" horiz-adv-x="526" 
d="M105 154l-20 20l336 336l20 -20zM414 161l-322 322l20 20l322 -322z" />
    <glyph glyph-name="Oslash" unicode="&#xd8;" horiz-adv-x="793" 
d="M695 658l20 -21l-619 -619l-20 21zM397 -10q-71 0 -131.5 26.5t-105.5 74.5t-70 111.5t-25 136.5q0 74 24.5 137t69.5 110t105 73.5t131 26.5t131.5 -26.5t105 -73.5t69.5 -110.5t25 -137.5q0 -73 -24.5 -136.5t-69.5 -111t-104.5 -74t-130.5 -26.5zM395 21q85 0 152 42
t106 114t39 162q0 67 -22.5 124.5t-62.5 100.5t-94 67t-118 24q-85 0 -152 -41.5t-105.5 -113t-38.5 -161.5q0 -67 22.5 -125t62.5 -101.5t94 -67.5t117 -24z" />
    <glyph glyph-name="Ugrave" unicode="&#xd9;" horiz-adv-x="662" 
d="M331 -10q-69 0 -123.5 31t-86 85t-31.5 122v448h32v-442q0 -65 27.5 -113t75 -74t106.5 -26q60 0 107 26t74.5 74t27.5 112v443h32v-449q0 -68 -31.5 -121.5t-86 -84.5t-123.5 -31zM370 753l-151 140l27 27l137 -154z" />
    <glyph glyph-name="Uacute" unicode="&#xda;" horiz-adv-x="662" 
d="M331 -10q-69 0 -123.5 31t-86 85t-31.5 122v448h32v-442q0 -65 27.5 -113t75 -74t106.5 -26q60 0 107 26t74.5 74t27.5 112v443h32v-449q0 -68 -31.5 -121.5t-86 -84.5t-123.5 -31zM262 753l-13 13l137 154l27 -27z" />
    <glyph glyph-name="Ucircumflex" unicode="&#xdb;" horiz-adv-x="662" 
d="M331 -10q-69 0 -123.5 31t-86 85t-31.5 122v448h32v-442q0 -65 27.5 -113t75 -74t106.5 -26q60 0 107 26t74.5 74t27.5 112v443h32v-449q0 -68 -31.5 -121.5t-86 -84.5t-123.5 -31zM192 753l-13 13l137 154h30l137 -154l-13 -13l-149 138h20z" />
    <glyph glyph-name="Udieresis" unicode="&#xdc;" horiz-adv-x="662" 
d="M331 -10q-69 0 -123.5 31t-86 85t-31.5 122v448h32v-442q0 -65 27.5 -113t75 -74t106.5 -26q60 0 107 26t74.5 74t27.5 112v443h32v-449q0 -68 -31.5 -121.5t-86 -84.5t-123.5 -31zM245 761q-13 0 -22 10t-9 23q0 14 9 23t22 9q14 0 23.5 -9t9.5 -23q0 -13 -9.5 -23
t-23.5 -10zM415 761q-13 0 -22 10t-9 23q0 14 9 23t22 9q14 0 23.5 -9t9.5 -23q0 -13 -9.5 -23t-23.5 -10z" />
    <glyph glyph-name="Yacute" unicode="&#xdd;" horiz-adv-x="645" 
d="M321 288l-273 388h39l241 -343h-10l244 343h36l-275 -388h-2zM307 0v321h32v-321h-32zM254 753l-13 13l137 154l27 -27z" />
    <glyph glyph-name="Thorn" unicode="&#xde;" horiz-adv-x="611" 
d="M115 153v29h230q50 0 89 20t61.5 57t22.5 88t-22.5 88t-61.5 57t-89 20h-230v29h235q58 0 103 -24t71.5 -67.5t26.5 -102.5t-26.5 -102.5t-71.5 -67.5t-103 -24h-235zM99 0v676h32v-676h-32z" />
    <glyph glyph-name="germandbls" unicode="&#xdf;" horiz-adv-x="558" 
d="M309 -10q-40 0 -79.5 15t-67.5 44l22 21q23 -25 57 -38t68 -13q56 0 93.5 23t56.5 62t19 86q0 48 -21.5 86.5t-61.5 61.5t-95 23h-61v27h29q46 0 78 21.5t49.5 56t17.5 72.5t-17.5 70t-51 51.5t-81.5 19.5q-67 0 -109 -41.5t-42 -109.5v-528h-32v528q0 53 23.5 93
t64.5 62.5t95 22.5q58 0 98.5 -22.5t62 -60.5t21.5 -85q0 -62 -37 -108t-101 -57l-1 9q62 0 108 -24.5t71 -68t25 -99.5q0 -42 -13 -78t-38.5 -63.5t-63 -43t-86.5 -15.5z" />
    <glyph glyph-name="agrave" unicode="&#xe0;" 
d="M287 -10q-68 0 -121.5 31.5t-84.5 85.5t-31 122t31 122.5t84 86.5t120 32q53 0 95.5 -19.5t71 -55.5t39.5 -86v-157q-12 -50 -40.5 -86.5t-70 -56t-93.5 -19.5zM291 19q86 0 137 57.5t51 152.5q0 64 -23.5 111.5t-66.5 74t-100 26.5q-60 0 -106.5 -27.5t-73.5 -75
t-27 -108.5t27 -108.5t74.5 -75t107.5 -27.5zM478 0v123l9 114l-9 111v112h31v-460h-31zM343 537l-151 140l27 27l137 -154z" />
    <glyph glyph-name="aacute" unicode="&#xe1;" 
d="M287 -10q-68 0 -121.5 31.5t-84.5 85.5t-31 122t31 122.5t84 86.5t120 32q53 0 95.5 -19.5t71 -55.5t39.5 -86v-157q-12 -50 -40.5 -86.5t-70 -56t-93.5 -19.5zM291 19q86 0 137 57.5t51 152.5q0 64 -23.5 111.5t-66.5 74t-100 26.5q-60 0 -106.5 -27.5t-73.5 -75
t-27 -108.5t27 -108.5t74.5 -75t107.5 -27.5zM478 0v123l9 114l-9 111v112h31v-460h-31zM235 537l-13 13l137 154l27 -27z" />
    <glyph glyph-name="acircumflex" unicode="&#xe2;" 
d="M287 -10q-68 0 -121.5 31.5t-84.5 85.5t-31 122t31 122.5t84 86.5t120 32q53 0 95.5 -19.5t71 -55.5t39.5 -86v-157q-12 -50 -40.5 -86.5t-70 -56t-93.5 -19.5zM291 19q86 0 137 57.5t51 152.5q0 64 -23.5 111.5t-66.5 74t-100 26.5q-60 0 -106.5 -27.5t-73.5 -75
t-27 -108.5t27 -108.5t74.5 -75t107.5 -27.5zM478 0v123l9 114l-9 111v112h31v-460h-31zM165 537l-13 13l137 154h30l137 -154l-13 -13l-149 138h20z" />
    <glyph glyph-name="atilde" unicode="&#xe3;" 
d="M287 -10q-68 0 -121.5 31.5t-84.5 85.5t-31 122t31 122.5t84 86.5t120 32q53 0 95.5 -19.5t71 -55.5t39.5 -86v-157q-12 -50 -40.5 -86.5t-70 -56t-93.5 -19.5zM291 19q86 0 137 57.5t51 152.5q0 64 -23.5 111.5t-66.5 74t-100 26.5q-60 0 -106.5 -27.5t-73.5 -75
t-27 -108.5t27 -108.5t74.5 -75t107.5 -27.5zM478 0v123l9 114l-9 111v112h31v-460h-31zM378 546q-30 0 -51.5 11t-42.5 21.5t-48 10.5q-28 0 -43 -10.5t-27 -28.5l-19 16q14 22 34.5 36t54.5 14q33 0 55.5 -10.5t42.5 -21.5t44 -11q23 0 37.5 10.5t26.5 28.5l19 -16
q-14 -22 -34 -36t-49 -14z" />
    <glyph glyph-name="adieresis" unicode="&#xe4;" 
d="M287 -10q-68 0 -121.5 31.5t-84.5 85.5t-31 122t31 122.5t84 86.5t120 32q53 0 95.5 -19.5t71 -55.5t39.5 -86v-157q-12 -50 -40.5 -86.5t-70 -56t-93.5 -19.5zM291 19q86 0 137 57.5t51 152.5q0 64 -23.5 111.5t-66.5 74t-100 26.5q-60 0 -106.5 -27.5t-73.5 -75
t-27 -108.5t27 -108.5t74.5 -75t107.5 -27.5zM478 0v123l9 114l-9 111v112h31v-460h-31zM218 545q-13 0 -22 10t-9 23q0 14 9 23t22 9q14 0 23.5 -9t9.5 -23q0 -13 -9.5 -23t-23.5 -10zM388 545q-13 0 -22 10t-9 23q0 14 9 23t22 9q14 0 23.5 -9t9.5 -23q0 -13 -9.5 -23
t-23.5 -10z" />
    <glyph glyph-name="aring" unicode="&#xe5;" 
d="M287 -10q-68 0 -121.5 31.5t-84.5 85.5t-31 122t31 122.5t84 86.5t120 32q53 0 95.5 -19.5t71 -55.5t39.5 -86v-157q-12 -50 -40.5 -86.5t-70 -56t-93.5 -19.5zM291 19q86 0 137 57.5t51 152.5q0 64 -23.5 111.5t-66.5 74t-100 26.5q-60 0 -106.5 -27.5t-73.5 -75
t-27 -108.5t27 -108.5t74.5 -75t107.5 -27.5zM478 0v123l9 114l-9 111v112h31v-460h-31zM305 517q-30 0 -53.5 13.5t-36.5 36.5t-13 52t13 52t36.5 36.5t53.5 13.5q29 0 51.5 -13.5t35.5 -36.5t13 -52t-13 -52t-35.5 -36.5t-51.5 -13.5zM306 544q29 0 50 21.5t21 53.5
t-21 53.5t-50 21.5q-34 0 -54.5 -21.5t-20.5 -53.5t20.5 -53.5t54.5 -21.5z" />
    <glyph glyph-name="ae" unicode="&#xe6;" horiz-adv-x="971" 
d="M720 -10q-69 0 -123.5 31.5t-86 86t-31.5 123.5q0 68 30.5 122t84 85.5t120.5 31.5q62 0 109.5 -27.5t74.5 -76.5t27 -113q0 -4 -0.5 -12.5t-2.5 -21.5h-421v29h401l-9 -7q4 59 -18 104t-63.5 70.5t-98.5 25.5q-60 0 -105.5 -26.5t-71 -73t-25.5 -108.5q0 -64 26.5 -112
t74.5 -75t112 -27q48 0 88.5 18t68.5 54l21 -21q-31 -37 -78.5 -58.5t-103.5 -21.5zM287 -10q-68 0 -121.5 31.5t-84.5 85.5t-31 122t31 122.5t84 86.5t120 32q53 0 95.5 -19.5t71 -55.5t39.5 -86v-157q-12 -50 -40.5 -86.5t-70 -56t-93.5 -19.5zM291 19q86 0 137 57.5
t51 152.5q0 64 -23.5 111.5t-66.5 74t-100 26.5q-60 0 -106.5 -27.5t-73.5 -75t-27 -108.5t27 -108.5t74.5 -75t107.5 -27.5zM478 0v123l9 114l-9 111v112h31v-460h-31z" />
    <glyph glyph-name="ccedilla" unicode="&#xe7;" horiz-adv-x="495" 
d="M287 -10q-67 0 -120.5 32t-85 87t-31.5 123q0 67 31.5 121t85 85.5t120.5 31.5q50 0 93.5 -18.5t74.5 -51.5l-21 -21q-27 29 -65 45.5t-82 16.5q-58 0 -104.5 -27.5t-73.5 -74.5t-27 -107q0 -61 27 -109t73.5 -76t104.5 -28q45 0 83.5 16.5t66.5 46.5l21 -21
q-32 -34 -76.5 -52.5t-94.5 -18.5zM253 -206q-29 0 -58.5 10.5t-52.5 29.5l26 22q16 -15 38 -23.5t47 -8.5q39 0 60.5 14t21.5 39t-23.5 38.5t-67.5 13.5h-20l24 79h35l-21 -69l-14 17q59 0 90.5 -21t31.5 -59q0 -39 -30.5 -60.5t-86.5 -21.5z" />
    <glyph glyph-name="egrave" unicode="&#xe8;" horiz-adv-x="542" 
d="M291 -10q-69 0 -123.5 31.5t-86 86t-31.5 123.5q0 68 30.5 122t84 85.5t120.5 31.5q62 0 109.5 -27.5t74.5 -76.5t27 -113q0 -4 -0.5 -12.5t-2.5 -21.5h-421v29h401l-9 -7q4 59 -18 104t-63.5 70.5t-98.5 25.5q-60 0 -105.5 -26.5t-71 -73t-25.5 -108.5q0 -64 26.5 -112
t74.5 -75t112 -27q48 0 88.5 18t68.5 54l21 -21q-31 -37 -78.5 -58.5t-103.5 -21.5zM324 537l-151 140l27 27l137 -154z" />
    <glyph glyph-name="eacute" unicode="&#xe9;" horiz-adv-x="542" 
d="M291 -10q-69 0 -123.5 31.5t-86 86t-31.5 123.5q0 68 30.5 122t84 85.5t120.5 31.5q62 0 109.5 -27.5t74.5 -76.5t27 -113q0 -4 -0.5 -12.5t-2.5 -21.5h-421v29h401l-9 -7q4 59 -18 104t-63.5 70.5t-98.5 25.5q-60 0 -105.5 -26.5t-71 -73t-25.5 -108.5q0 -64 26.5 -112
t74.5 -75t112 -27q48 0 88.5 18t68.5 54l21 -21q-31 -37 -78.5 -58.5t-103.5 -21.5zM216 537l-13 13l137 154l27 -27z" />
    <glyph glyph-name="ecircumflex" unicode="&#xea;" horiz-adv-x="542" 
d="M291 -10q-69 0 -123.5 31.5t-86 86t-31.5 123.5q0 68 30.5 122t84 85.5t120.5 31.5q62 0 109.5 -27.5t74.5 -76.5t27 -113q0 -4 -0.5 -12.5t-2.5 -21.5h-421v29h401l-9 -7q4 59 -18 104t-63.5 70.5t-98.5 25.5q-60 0 -105.5 -26.5t-71 -73t-25.5 -108.5q0 -64 26.5 -112
t74.5 -75t112 -27q48 0 88.5 18t68.5 54l21 -21q-31 -37 -78.5 -58.5t-103.5 -21.5zM146 537l-13 13l137 154h30l137 -154l-13 -13l-149 138h20z" />
    <glyph glyph-name="edieresis" unicode="&#xeb;" horiz-adv-x="542" 
d="M291 -10q-69 0 -123.5 31.5t-86 86t-31.5 123.5q0 68 30.5 122t84 85.5t120.5 31.5q62 0 109.5 -27.5t74.5 -76.5t27 -113q0 -4 -0.5 -12.5t-2.5 -21.5h-421v29h401l-9 -7q4 59 -18 104t-63.5 70.5t-98.5 25.5q-60 0 -105.5 -26.5t-71 -73t-25.5 -108.5q0 -64 26.5 -112
t74.5 -75t112 -27q48 0 88.5 18t68.5 54l21 -21q-31 -37 -78.5 -58.5t-103.5 -21.5zM199 545q-13 0 -22 10t-9 23q0 14 9 23t22 9q14 0 23.5 -9t9.5 -23q0 -13 -9.5 -23t-23.5 -10zM369 545q-13 0 -22 10t-9 23q0 14 9 23t22 9q14 0 23.5 -9t9.5 -23q0 -13 -9.5 -23
t-23.5 -10z" />
    <glyph glyph-name="igrave" unicode="&#xec;" horiz-adv-x="192" 
d="M80 0v460h32v-460h-32zM135 537l-151 140l27 27l137 -154z" />
    <glyph glyph-name="iacute" unicode="&#xed;" horiz-adv-x="192" 
d="M80 0v460h32v-460h-32zM27 537l-13 13l137 154l27 -27z" />
    <glyph glyph-name="icircumflex" unicode="&#xee;" horiz-adv-x="192" 
d="M80 0v460h32v-460h-32zM-43 537l-13 13l137 154h30l137 -154l-13 -13l-149 138h20z" />
    <glyph glyph-name="idieresis" unicode="&#xef;" horiz-adv-x="192" 
d="M80 0v460h32v-460h-32zM10 545q-13 0 -22 10t-9 23q0 14 9 23t22 9q14 0 23.5 -9t9.5 -23q0 -13 -9.5 -23t-23.5 -10zM180 545q-13 0 -22 10t-9 23q0 14 9 23t22 9q14 0 23.5 -9t9.5 -23q0 -13 -9.5 -23t-23.5 -10z" />
    <glyph glyph-name="eth" unicode="&#xf0;" horiz-adv-x="568" 
d="M285 -10q-63 0 -114.5 30.5t-82.5 82t-31 113.5t30.5 113t81 82t111.5 31q24 0 46.5 -5t43.5 -14t39 -22l-10 -5l-224 280h39l242 -311q55 -70 55 -150q0 -63 -30 -114t-81.5 -81t-114.5 -30zM284 17q54 0 98.5 26.5t70.5 72t26 100.5q0 56 -26 101t-70.5 71.5
t-98.5 26.5q-53 0 -97.5 -27t-71 -72.5t-26.5 -99.5t26.5 -99t71 -72.5t97.5 -27.5zM127 508l-9 24l284 105l9 -24z" />
    <glyph glyph-name="ntilde" unicode="&#xf1;" horiz-adv-x="537" 
d="M436 0v275q0 75 -43 121t-115 46q-49 0 -86.5 -21.5t-59 -58.5t-21.5 -86l-21 12q0 52 25.5 93t69 65t98.5 24t96.5 -25t64.5 -69t23 -101v-275h-31zM80 0v460h31v-460h-31zM343 546q-30 0 -51.5 11t-42.5 21.5t-48 10.5q-28 0 -43 -10.5t-27 -28.5l-19 16q14 22 34.5 36
t54.5 14q33 0 55.5 -10.5t42.5 -21.5t44 -11q23 0 37.5 10.5t26.5 28.5l19 -16q-14 -22 -34 -36t-49 -14z" />
    <glyph glyph-name="ograve" unicode="&#xf2;" horiz-adv-x="573" 
d="M287 -10q-67 0 -120.5 32t-85 87t-31.5 123q0 67 31.5 121t85 85.5t120.5 31.5q66 0 119.5 -31.5t85 -85.5t31.5 -121q0 -69 -31.5 -123.5t-85 -86.5t-119.5 -32zM287 19q58 0 104 28t73 76.5t27 109.5q0 59 -27 106t-73 74.5t-104 27.5t-104.5 -27.5t-73.5 -74.5
t-27 -107q0 -61 27 -109t73.5 -76t104.5 -28zM326 537l-151 140l27 27l137 -154z" />
    <glyph glyph-name="oacute" unicode="&#xf3;" horiz-adv-x="573" 
d="M287 -10q-67 0 -120.5 32t-85 87t-31.5 123q0 67 31.5 121t85 85.5t120.5 31.5q66 0 119.5 -31.5t85 -85.5t31.5 -121q0 -69 -31.5 -123.5t-85 -86.5t-119.5 -32zM287 19q58 0 104 28t73 76.5t27 109.5q0 59 -27 106t-73 74.5t-104 27.5t-104.5 -27.5t-73.5 -74.5
t-27 -107q0 -61 27 -109t73.5 -76t104.5 -28zM218 537l-13 13l137 154l27 -27z" />
    <glyph glyph-name="ocircumflex" unicode="&#xf4;" horiz-adv-x="573" 
d="M287 -10q-67 0 -120.5 32t-85 87t-31.5 123q0 67 31.5 121t85 85.5t120.5 31.5q66 0 119.5 -31.5t85 -85.5t31.5 -121q0 -69 -31.5 -123.5t-85 -86.5t-119.5 -32zM287 19q58 0 104 28t73 76.5t27 109.5q0 59 -27 106t-73 74.5t-104 27.5t-104.5 -27.5t-73.5 -74.5
t-27 -107q0 -61 27 -109t73.5 -76t104.5 -28zM148 537l-13 13l137 154h30l137 -154l-13 -13l-149 138h20z" />
    <glyph glyph-name="otilde" unicode="&#xf5;" horiz-adv-x="573" 
d="M287 -10q-67 0 -120.5 32t-85 87t-31.5 123q0 67 31.5 121t85 85.5t120.5 31.5q66 0 119.5 -31.5t85 -85.5t31.5 -121q0 -69 -31.5 -123.5t-85 -86.5t-119.5 -32zM287 19q58 0 104 28t73 76.5t27 109.5q0 59 -27 106t-73 74.5t-104 27.5t-104.5 -27.5t-73.5 -74.5
t-27 -107q0 -61 27 -109t73.5 -76t104.5 -28zM361 546q-30 0 -51.5 11t-42.5 21.5t-48 10.5q-28 0 -43 -10.5t-27 -28.5l-19 16q14 22 34.5 36t54.5 14q33 0 55.5 -10.5t42.5 -21.5t44 -11q23 0 37.5 10.5t26.5 28.5l19 -16q-14 -22 -34 -36t-49 -14z" />
    <glyph glyph-name="odieresis" unicode="&#xf6;" horiz-adv-x="573" 
d="M287 -10q-67 0 -120.5 32t-85 87t-31.5 123q0 67 31.5 121t85 85.5t120.5 31.5q66 0 119.5 -31.5t85 -85.5t31.5 -121q0 -69 -31.5 -123.5t-85 -86.5t-119.5 -32zM287 19q58 0 104 28t73 76.5t27 109.5q0 59 -27 106t-73 74.5t-104 27.5t-104.5 -27.5t-73.5 -74.5
t-27 -107q0 -61 27 -109t73.5 -76t104.5 -28zM201 545q-13 0 -22 10t-9 23q0 14 9 23t22 9q14 0 23.5 -9t9.5 -23q0 -13 -9.5 -23t-23.5 -10zM371 545q-13 0 -22 10t-9 23q0 14 9 23t22 9q14 0 23.5 -9t9.5 -23q0 -13 -9.5 -23t-23.5 -10z" />
    <glyph glyph-name="divide" unicode="&#xf7;" horiz-adv-x="526" 
d="M75 319v26h376v-26h-376zM262 457q-13 0 -22 10t-9 23q0 14 9 23t22 9q14 0 23.5 -9t9.5 -23q0 -13 -9.5 -23t-23.5 -10zM262 142q-13 0 -22 10t-9 23q0 14 9 23t22 9q14 0 23.5 -9t9.5 -23q0 -13 -9.5 -23t-23.5 -10z" />
    <glyph glyph-name="oslash" unicode="&#xf8;" horiz-adv-x="573" 
d="M64 -13l-20 20l466 466l20 -20zM287 -10q-67 0 -120.5 32t-85 87t-31.5 123q0 67 31.5 121t85 85.5t120.5 31.5q66 0 119.5 -31.5t85 -85.5t31.5 -121q0 -69 -31.5 -123.5t-85 -86.5t-119.5 -32zM287 19q58 0 104 28t73 76.5t27 109.5q0 59 -27 106t-73 74.5t-104 27.5
t-104.5 -27.5t-73.5 -74.5t-27 -107q0 -61 27 -109t73.5 -76t104.5 -28z" />
    <glyph glyph-name="ugrave" unicode="&#xf9;" horiz-adv-x="512" 
d="M256 -10q-54 0 -96.5 25.5t-66.5 71t-24 105.5v268h31v-267q0 -51 19.5 -90.5t55 -62t81.5 -22.5q70 0 113 49t43 126v267h31v-268q0 -59 -24 -105t-66 -71.5t-97 -25.5zM295 537l-151 140l27 27l137 -154z" />
    <glyph glyph-name="uacute" unicode="&#xfa;" horiz-adv-x="512" 
d="M256 -10q-54 0 -96.5 25.5t-66.5 71t-24 105.5v268h31v-267q0 -51 19.5 -90.5t55 -62t81.5 -22.5q70 0 113 49t43 126v267h31v-268q0 -59 -24 -105t-66 -71.5t-97 -25.5zM187 537l-13 13l137 154l27 -27z" />
    <glyph glyph-name="ucircumflex" unicode="&#xfb;" horiz-adv-x="512" 
d="M256 -10q-54 0 -96.5 25.5t-66.5 71t-24 105.5v268h31v-267q0 -51 19.5 -90.5t55 -62t81.5 -22.5q70 0 113 49t43 126v267h31v-268q0 -59 -24 -105t-66 -71.5t-97 -25.5zM117 537l-13 13l137 154h30l137 -154l-13 -13l-149 138h20z" />
    <glyph glyph-name="udieresis" unicode="&#xfc;" horiz-adv-x="512" 
d="M256 -10q-54 0 -96.5 25.5t-66.5 71t-24 105.5v268h31v-267q0 -51 19.5 -90.5t55 -62t81.5 -22.5q70 0 113 49t43 126v267h31v-268q0 -59 -24 -105t-66 -71.5t-97 -25.5zM170 545q-13 0 -22 10t-9 23q0 14 9 23t22 9q14 0 23.5 -9t9.5 -23q0 -13 -9.5 -23t-23.5 -10z
M340 545q-13 0 -22 10t-9 23q0 14 9 23t22 9q14 0 23.5 -9t9.5 -23q0 -13 -9.5 -23t-23.5 -10z" />
    <glyph glyph-name="yacute" unicode="&#xfd;" horiz-adv-x="502" 
d="M240 0l-208 460h34l192 -432h-23l201 432h34l-218 -460h-12zM126 -196l110 226l16 -30l-93 -196h-33zM182 537l-13 13l137 154l27 -27z" />
    <glyph glyph-name="thorn" unicode="&#xfe;" 
d="M309 -10q-52 0 -95.5 20t-74 56.5t-42.5 85.5v157q12 51 43 87t75 55t94 19q66 0 117.5 -31.5t81.5 -86t30 -123.5q0 -68 -29.5 -122t-81.5 -85.5t-118 -31.5zM80 -196v892h31v-348l-10 -111l10 -114v-319h-31zM303 19q60 0 106 27t72 75t26 109q0 62 -26 109.5
t-71.5 74.5t-103.5 27t-102 -27t-69 -74.5t-25 -110.5q0 -61 24.5 -108.5t68 -74.5t100.5 -27z" />
    <glyph glyph-name="ydieresis" unicode="&#xff;" horiz-adv-x="502" 
d="M240 0l-208 460h34l192 -432h-23l201 432h34l-218 -460h-12zM126 -196l110 226l16 -30l-93 -196h-33zM165 545q-13 0 -22 10t-9 23q0 14 9 23t22 9q14 0 23.5 -9t9.5 -23q0 -13 -9.5 -23t-23.5 -10zM335 545q-13 0 -22 10t-9 23q0 14 9 23t22 9q14 0 23.5 -9t9.5 -23
q0 -13 -9.5 -23t-23.5 -10z" />
    <glyph glyph-name="Amacron" unicode="&#x100;" horiz-adv-x="678" 
d="M50 0l275 676h30l273 -676h-35l-261 648h15l-263 -648h-34zM165 223v29h349v-29h-349zM184 807h310v-27h-310v27z" />
    <glyph glyph-name="amacron" unicode="&#x101;" 
d="M287 -10q-68 0 -121.5 31.5t-84.5 85.5t-31 122t31 122.5t84 86.5t120 32q53 0 95.5 -19.5t71 -55.5t39.5 -86v-157q-12 -50 -40.5 -86.5t-70 -56t-93.5 -19.5zM291 19q86 0 137 57.5t51 152.5q0 64 -23.5 111.5t-66.5 74t-100 26.5q-60 0 -106.5 -27.5t-73.5 -75
t-27 -108.5t27 -108.5t74.5 -75t107.5 -27.5zM478 0v123l9 114l-9 111v112h31v-460h-31zM149 591h310v-27h-310v27z" />
    <glyph glyph-name="Abreve" unicode="&#x102;" horiz-adv-x="678" 
d="M50 0l275 676h30l273 -676h-35l-261 648h15l-263 -648h-34zM165 223v29h349v-29h-349zM491 886q0 -43 -19.5 -78t-53 -55t-77.5 -20q-45 0 -80 20t-54.5 55t-19.5 78h29q0 -55 34.5 -91t92.5 -36q33 0 60.5 16.5t43.5 45.5t16 65h28z" />
    <glyph glyph-name="abreve" unicode="&#x103;" 
d="M287 -10q-68 0 -121.5 31.5t-84.5 85.5t-31 122t31 122.5t84 86.5t120 32q53 0 95.5 -19.5t71 -55.5t39.5 -86v-157q-12 -50 -40.5 -86.5t-70 -56t-93.5 -19.5zM291 19q86 0 137 57.5t51 152.5q0 64 -23.5 111.5t-66.5 74t-100 26.5q-60 0 -106.5 -27.5t-73.5 -75
t-27 -108.5t27 -108.5t74.5 -75t107.5 -27.5zM478 0v123l9 114l-9 111v112h31v-460h-31zM456 670q0 -43 -19.5 -78t-53 -55t-77.5 -20q-45 0 -80 20t-54.5 55t-19.5 78h29q0 -55 34.5 -91t92.5 -36q33 0 60.5 16.5t43.5 45.5t16 65h28z" />
    <glyph glyph-name="Aogonek" unicode="&#x104;" horiz-adv-x="678" 
d="M50 0l275 676h30l273 -676h-35l-261 648h15l-263 -648h-34zM165 223v29h349v-29h-349zM610 -206q-35 0 -59 21t-24 60q0 32 24 71t55 69l22 -15q-35 -34 -54.5 -63.5t-19.5 -61.5q0 -31 15.5 -44.5t42.5 -13.5q14 0 25 4t24 12l12 -17q-14 -11 -30 -16.5t-33 -5.5z" />
    <glyph glyph-name="aogonek" unicode="&#x105;" 
d="M287 -10q-68 0 -121.5 31.5t-84.5 85.5t-31 122t31 122.5t84 86.5t120 32q53 0 95.5 -19.5t71 -55.5t39.5 -86v-157q-12 -50 -40.5 -86.5t-70 -56t-93.5 -19.5zM291 19q86 0 137 57.5t51 152.5q0 64 -23.5 111.5t-66.5 74t-100 26.5q-60 0 -106.5 -27.5t-73.5 -75
t-27 -108.5t27 -108.5t74.5 -75t107.5 -27.5zM478 0v123l9 114l-9 111v112h31v-460h-31zM491 -206q-35 0 -59 21t-24 60q0 32 24 71t55 69l22 -15q-35 -34 -54.5 -63.5t-19.5 -61.5q0 -31 15.5 -44.5t42.5 -13.5q14 0 25 4t24 12l12 -17q-14 -11 -30 -16.5t-33 -5.5z" />
    <glyph glyph-name="Cacute" unicode="&#x106;" horiz-adv-x="703" 
d="M405 -10q-72 0 -134 26.5t-108 74.5t-71.5 111.5t-25.5 136.5q0 74 25 137t70.5 110t106.5 73.5t132 26.5q73 0 136 -28t109 -78l-23 -23q-40 46 -97.5 72t-124.5 26q-64 0 -118.5 -24t-95.5 -67t-63.5 -100.5t-22.5 -124.5t23 -125t63.5 -101.5t96 -67.5t119.5 -24
q68 0 126.5 26.5t98.5 72.5l23 -23q-45 -50 -108 -78.5t-137 -28.5zM319 753l-13 13l137 154l27 -27z" />
    <glyph glyph-name="cacute" unicode="&#x107;" horiz-adv-x="495" 
d="M287 -10q-67 0 -120.5 32t-85 87t-31.5 123q0 67 31.5 121t85 85.5t120.5 31.5q50 0 93.5 -18.5t74.5 -51.5l-21 -21q-27 29 -65 45.5t-82 16.5q-58 0 -104.5 -27.5t-73.5 -74.5t-27 -107q0 -61 27 -109t73.5 -76t104.5 -28q45 0 83.5 16.5t66.5 46.5l21 -21
q-32 -34 -76.5 -52.5t-94.5 -18.5zM204 537l-13 13l137 154l27 -27z" />
    <glyph glyph-name="Cdotaccent" unicode="&#x10a;" horiz-adv-x="703" 
d="M405 -10q-72 0 -134 26.5t-108 74.5t-71.5 111.5t-25.5 136.5q0 74 25 137t70.5 110t106.5 73.5t132 26.5q73 0 136 -28t109 -78l-23 -23q-40 46 -97.5 72t-124.5 26q-64 0 -118.5 -24t-95.5 -67t-63.5 -100.5t-22.5 -124.5t23 -125t63.5 -101.5t96 -67.5t119.5 -24
q68 0 126.5 26.5t98.5 72.5l23 -23q-45 -50 -108 -78.5t-137 -28.5zM387 761q-13 0 -22 10t-9 23q0 14 9 23t22 9q14 0 23.5 -9t9.5 -23q0 -13 -9.5 -23t-23.5 -10z" />
    <glyph glyph-name="cdotaccent" unicode="&#x10b;" horiz-adv-x="495" 
d="M287 -10q-67 0 -120.5 32t-85 87t-31.5 123q0 67 31.5 121t85 85.5t120.5 31.5q50 0 93.5 -18.5t74.5 -51.5l-21 -21q-27 29 -65 45.5t-82 16.5q-58 0 -104.5 -27.5t-73.5 -74.5t-27 -107q0 -61 27 -109t73.5 -76t104.5 -28q45 0 83.5 16.5t66.5 46.5l21 -21
q-32 -34 -76.5 -52.5t-94.5 -18.5zM272 545q-13 0 -22 10t-9 23q0 14 9 23t22 9q14 0 23.5 -9t9.5 -23q0 -13 -9.5 -23t-23.5 -10z" />
    <glyph glyph-name="Ccaron" unicode="&#x10c;" horiz-adv-x="703" 
d="M405 -10q-72 0 -134 26.5t-108 74.5t-71.5 111.5t-25.5 136.5q0 74 25 137t70.5 110t106.5 73.5t132 26.5q73 0 136 -28t109 -78l-23 -23q-40 46 -97.5 72t-124.5 26q-64 0 -118.5 -24t-95.5 -67t-63.5 -100.5t-22.5 -124.5t23 -125t63.5 -101.5t96 -67.5t119.5 -24
q68 0 126.5 26.5t98.5 72.5l23 -23q-45 -50 -108 -78.5t-137 -28.5zM527 920l13 -13l-137 -154h-30l-137 154l13 13l149 -138h-20z" />
    <glyph glyph-name="ccaron" unicode="&#x10d;" horiz-adv-x="495" 
d="M287 -10q-67 0 -120.5 32t-85 87t-31.5 123q0 67 31.5 121t85 85.5t120.5 31.5q50 0 93.5 -18.5t74.5 -51.5l-21 -21q-27 29 -65 45.5t-82 16.5q-58 0 -104.5 -27.5t-73.5 -74.5t-27 -107q0 -61 27 -109t73.5 -76t104.5 -28q45 0 83.5 16.5t66.5 46.5l21 -21
q-32 -34 -76.5 -52.5t-94.5 -18.5zM412 704l13 -13l-137 -154h-30l-137 154l13 13l149 -138h-20z" />
    <glyph glyph-name="Dcaron" unicode="&#x10e;" horiz-adv-x="738" 
d="M110 0v30h221q90 0 159.5 40t108.5 109.5t39 159.5q0 89 -39 158.5t-108.5 109t-159.5 39.5h-217v30h217q75 0 137 -25t108 -70t71 -107t25 -136q0 -73 -25 -135t-70.5 -107.5t-107.5 -70.5t-136 -25h-223zM99 0v676h32v-676h-32zM470 920l13 -13l-137 -154h-30l-137 154
l13 13l149 -138h-20z" />
    <glyph glyph-name="dcaron" unicode="&#x10f;" horiz-adv-x="752" 
d="M280 -10q-66 0 -117.5 31.5t-81.5 85.5t-30 122q0 69 30 123.5t82 86t117 31.5q50 0 94 -19t75.5 -55t42.5 -87v-157q-12 -49 -42.5 -85.5t-74 -56.5t-95.5 -20zM286 19q57 0 100.5 27t68 74.5t24.5 108.5q0 63 -25 110.5t-69 74.5t-102 27t-103 -27t-71 -74.5
t-26 -109.5q0 -61 26 -109t72 -75t105 -27zM509 0h-31v123l10 114l-10 111v348h31v-696zM605 507l-24 13l46 95l14 2q-2 -7 -8 -11.5t-16 -4.5q-15 0 -26.5 11t-11.5 27q0 17 12.5 29t29.5 12q16 0 28 -12t12 -29q0 -7 -1.5 -16.5t-9.5 -25.5z" />
    <glyph glyph-name="Dcroat" unicode="&#x110;" horiz-adv-x="738" 
d="M0 325v26h376v-26h-376zM110 0v30h221q90 0 159.5 40t108.5 109.5t39 159.5q0 89 -39 158.5t-108.5 109t-159.5 39.5h-217v30h217q75 0 137 -25t108 -70t71 -107t25 -136q0 -73 -25 -135t-70.5 -107.5t-107.5 -70.5t-136 -25h-223zM99 0v676h32v-676h-32z" />
    <glyph glyph-name="dcroat" unicode="&#x111;" 
d="M290 579v30h299v-30h-299zM280 -10q-66 0 -117.5 31.5t-81.5 85.5t-30 122q0 69 30 123.5t82 86t117 31.5q50 0 94 -19t75.5 -55t42.5 -87v-157q-12 -49 -42.5 -85.5t-74 -56.5t-95.5 -20zM286 19q57 0 100.5 27t68 74.5t24.5 108.5q0 63 -25 110.5t-69 74.5t-102 27
t-103 -27t-71 -74.5t-26 -109.5q0 -61 26 -109t72 -75t105 -27zM509 0h-31v123l10 114l-10 111v348h31v-696z" />
    <glyph glyph-name="Emacron" unicode="&#x112;" horiz-adv-x="588" 
d="M99 0v676h32v-676h-32zM117 0v29h417v-29h-417zM117 333v28h387v-28h-387zM117 647v29h411v-29h-411zM162 807h310v-27h-310v27z" />
    <glyph glyph-name="emacron" unicode="&#x113;" horiz-adv-x="542" 
d="M291 -10q-69 0 -123.5 31.5t-86 86t-31.5 123.5q0 68 30.5 122t84 85.5t120.5 31.5q62 0 109.5 -27.5t74.5 -76.5t27 -113q0 -4 -0.5 -12.5t-2.5 -21.5h-421v29h401l-9 -7q4 59 -18 104t-63.5 70.5t-98.5 25.5q-60 0 -105.5 -26.5t-71 -73t-25.5 -108.5q0 -64 26.5 -112
t74.5 -75t112 -27q48 0 88.5 18t68.5 54l21 -21q-31 -37 -78.5 -58.5t-103.5 -21.5zM130 591h310v-27h-310v27z" />
    <glyph glyph-name="Edotaccent" unicode="&#x116;" horiz-adv-x="588" 
d="M99 0v676h32v-676h-32zM117 0v29h417v-29h-417zM117 333v28h387v-28h-387zM117 647v29h411v-29h-411zM316 761q-13 0 -22 10t-9 23q0 14 9 23t22 9q14 0 23.5 -9t9.5 -23q0 -13 -9.5 -23t-23.5 -10z" />
    <glyph glyph-name="edotaccent" unicode="&#x117;" horiz-adv-x="542" 
d="M291 -10q-69 0 -123.5 31.5t-86 86t-31.5 123.5q0 68 30.5 122t84 85.5t120.5 31.5q62 0 109.5 -27.5t74.5 -76.5t27 -113q0 -4 -0.5 -12.5t-2.5 -21.5h-421v29h401l-9 -7q4 59 -18 104t-63.5 70.5t-98.5 25.5q-60 0 -105.5 -26.5t-71 -73t-25.5 -108.5q0 -64 26.5 -112
t74.5 -75t112 -27q48 0 88.5 18t68.5 54l21 -21q-31 -37 -78.5 -58.5t-103.5 -21.5zM284 545q-13 0 -22 10t-9 23q0 14 9 23t22 9q14 0 23.5 -9t9.5 -23q0 -13 -9.5 -23t-23.5 -10z" />
    <glyph glyph-name="Eogonek" unicode="&#x118;" horiz-adv-x="588" 
d="M99 0v676h32v-676h-32zM117 0v29h417v-29h-417zM117 333v28h387v-28h-387zM117 647v29h411v-29h-411zM516 -206q-35 0 -59 21t-24 60q0 32 24 71t55 69l22 -15q-35 -34 -54.5 -63.5t-19.5 -61.5q0 -31 15.5 -44.5t42.5 -13.5q14 0 25 4t24 12l12 -17q-14 -11 -30 -16.5
t-33 -5.5z" />
    <glyph glyph-name="eogonek" unicode="&#x119;" horiz-adv-x="542" 
d="M291 -10q-69 0 -123.5 31.5t-86 86t-31.5 123.5q0 68 30.5 122t84 85.5t120.5 31.5q62 0 109.5 -27.5t74.5 -76.5t27 -113q0 -4 -0.5 -12.5t-2.5 -21.5h-421v29h401l-9 -7q4 59 -18 104t-63.5 70.5t-98.5 25.5q-60 0 -105.5 -26.5t-71 -73t-25.5 -108.5q0 -64 26.5 -112
t74.5 -75t112 -27q48 0 88.5 18t68.5 54l21 -21q-31 -37 -78.5 -58.5t-103.5 -21.5zM369 -196q-35 0 -59 21t-24 60q0 32 24 71t55 69l22 -15q-35 -34 -54.5 -63.5t-19.5 -61.5q0 -31 15.5 -44.5t42.5 -13.5q14 0 25 4t24 12l12 -17q-14 -11 -30 -16.5t-33 -5.5z" />
    <glyph glyph-name="Ecaron" unicode="&#x11a;" horiz-adv-x="588" 
d="M99 0v676h32v-676h-32zM117 0v29h417v-29h-417zM117 333v28h387v-28h-387zM117 647v29h411v-29h-411zM456 920l13 -13l-137 -154h-30l-137 154l13 13l149 -138h-20z" />
    <glyph glyph-name="ecaron" unicode="&#x11b;" horiz-adv-x="542" 
d="M291 -10q-69 0 -123.5 31.5t-86 86t-31.5 123.5q0 68 30.5 122t84 85.5t120.5 31.5q62 0 109.5 -27.5t74.5 -76.5t27 -113q0 -4 -0.5 -12.5t-2.5 -21.5h-421v29h401l-9 -7q4 59 -18 104t-63.5 70.5t-98.5 25.5q-60 0 -105.5 -26.5t-71 -73t-25.5 -108.5q0 -64 26.5 -112
t74.5 -75t112 -27q48 0 88.5 18t68.5 54l21 -21q-31 -37 -78.5 -58.5t-103.5 -21.5zM424 704l13 -13l-137 -154h-30l-137 154l13 13l149 -138h-20z" />
    <glyph glyph-name="Gbreve" unicode="&#x11e;" horiz-adv-x="774" 
d="M406 -9q-74 0 -136.5 26t-108 72.5t-70.5 110t-25 138.5t25.5 138.5t71.5 111t108 73.5t136 26q83 0 151 -33.5t110 -95.5l-24 -24q-40 59 -100.5 90.5t-136.5 31.5q-89 0 -158.5 -41.5t-109 -113.5t-39.5 -164q0 -91 39 -162.5t107.5 -112t157.5 -40.5q84 0 146 36
t96.5 103.5t35.5 160.5l12 -10h-302v29h323v-6q0 -108 -38 -185t-107.5 -118t-163.5 -41zM549 886q0 -43 -19.5 -78t-53 -55t-77.5 -20q-45 0 -80 20t-54.5 55t-19.5 78h29q0 -55 34.5 -91t92.5 -36q33 0 60.5 16.5t43.5 45.5t16 65h28z" />
    <glyph glyph-name="gbreve" unicode="&#x11f;" 
d="M269 -206q-66 0 -120 25t-87 72l19 19q27 -39 76 -63t113 -24q96 0 152.5 52.5t56.5 141.5v117l9 108l-9 105v113h31v-443q0 -67 -30 -117t-84.5 -78t-126.5 -28zM284 0q-67 0 -119.5 30.5t-83 83.5t-30.5 121q0 67 30 120t82.5 84t118.5 31q53 0 96.5 -19.5t73 -55.5
t40.5 -86v-149q-12 -49 -41.5 -85t-72 -55.5t-94.5 -19.5zM288 29q57 0 100.5 25.5t67.5 72t24 108.5q0 61 -24.5 107t-68 72.5t-101.5 26.5q-59 0 -105 -26.5t-72 -72.5t-26 -106t26.5 -107t72.5 -73.5t106 -26.5zM456 670q0 -43 -19.5 -78t-53 -55t-77.5 -20q-45 0 -80 20
t-54.5 55t-19.5 78h29q0 -55 34.5 -91t92.5 -36q33 0 60.5 16.5t43.5 45.5t16 65h28z" />
    <glyph glyph-name="Gdotaccent" unicode="&#x120;" horiz-adv-x="774" 
d="M406 -9q-74 0 -136.5 26t-108 72.5t-70.5 110t-25 138.5t25.5 138.5t71.5 111t108 73.5t136 26q83 0 151 -33.5t110 -95.5l-24 -24q-40 59 -100.5 90.5t-136.5 31.5q-89 0 -158.5 -41.5t-109 -113.5t-39.5 -164q0 -91 39 -162.5t107.5 -112t157.5 -40.5q84 0 146 36
t96.5 103.5t35.5 160.5l12 -10h-302v29h323v-6q0 -108 -38 -185t-107.5 -118t-163.5 -41zM396 761q-13 0 -22 10t-9 23q0 14 9 23t22 9q14 0 23.5 -9t9.5 -23q0 -13 -9.5 -23t-23.5 -10z" />
    <glyph glyph-name="gdotaccent" unicode="&#x121;" 
d="M269 -206q-66 0 -120 25t-87 72l19 19q27 -39 76 -63t113 -24q96 0 152.5 52.5t56.5 141.5v117l9 108l-9 105v113h31v-443q0 -67 -30 -117t-84.5 -78t-126.5 -28zM284 0q-67 0 -119.5 30.5t-83 83.5t-30.5 121q0 67 30 120t82.5 84t118.5 31q53 0 96.5 -19.5t73 -55.5
t40.5 -86v-149q-12 -49 -41.5 -85t-72 -55.5t-94.5 -19.5zM288 29q57 0 100.5 25.5t67.5 72t24 108.5q0 61 -24.5 107t-68 72.5t-101.5 26.5q-59 0 -105 -26.5t-72 -72.5t-26 -106t26.5 -107t72.5 -73.5t106 -26.5zM303 545q-13 0 -22 10t-9 23q0 14 9 23t22 9q14 0 23.5 -9
t9.5 -23q0 -13 -9.5 -23t-23.5 -10z" />
    <glyph glyph-name="uni0122" unicode="&#x122;" horiz-adv-x="774" 
d="M406 -9q-74 0 -136.5 26t-108 72.5t-70.5 110t-25 138.5t25.5 138.5t71.5 111t108 73.5t136 26q83 0 151 -33.5t110 -95.5l-24 -24q-40 59 -100.5 90.5t-136.5 31.5q-89 0 -158.5 -41.5t-109 -113.5t-39.5 -164q0 -91 39 -162.5t107.5 -112t157.5 -40.5q84 0 146 36
t96.5 103.5t35.5 160.5l12 -10h-302v29h323v-6q0 -108 -38 -185t-107.5 -118t-163.5 -41zM382 -254l-24 13l46 95l14 2q-2 -7 -8 -11.5t-16 -4.5q-15 0 -26.5 11t-11.5 27q0 17 12.5 29t29.5 12q16 0 28 -12t12 -29q0 -7 -1.5 -16.5t-9.5 -25.5z" />
    <glyph glyph-name="uni0123" unicode="&#x123;" 
d="M269 -206q-66 0 -120 25t-87 72l19 19q27 -39 76 -63t113 -24q96 0 152.5 52.5t56.5 141.5v117l9 108l-9 105v113h31v-443q0 -67 -30 -117t-84.5 -78t-126.5 -28zM284 0q-67 0 -119.5 30.5t-83 83.5t-30.5 121q0 67 30 120t82.5 84t118.5 31q53 0 96.5 -19.5t73 -55.5
t40.5 -86v-149q-12 -49 -41.5 -85t-72 -55.5t-94.5 -19.5zM288 29q57 0 100.5 25.5t67.5 72t24 108.5q0 61 -24.5 107t-68 72.5t-101.5 26.5q-59 0 -105 -26.5t-72 -72.5t-26 -106t26.5 -107t72.5 -73.5t106 -26.5zM330 697l-46 -95l-14 -2q2 7 8 11.5t16 4.5
q15 0 26.5 -10.5t11.5 -27.5t-12.5 -29t-29.5 -12q-16 0 -28 12t-12 29q0 7 2 16.5t9 25.5l45 90z" />
    <glyph glyph-name="Hbar" unicode="&#x126;" horiz-adv-x="665" 
d="M0 535v26h665v-26h-665zM88 0v676h32v-676h-32zM545 0v676h32v-676h-32zM106 333v29h455v-29h-455z" />
    <glyph glyph-name="hbar" unicode="&#x127;" horiz-adv-x="537" 
d="M0 579v30h299v-30h-299zM436 0v275q0 75 -43 121t-115 46q-49 0 -86.5 -21.5t-59 -58.5t-21.5 -86l-21 12q0 52 25.5 93t69 65t98.5 24t96.5 -25t64.5 -69t23 -101v-275h-31zM80 0v696h31v-696h-31z" />
    <glyph glyph-name="Imacron" unicode="&#x12a;" horiz-adv-x="230" 
d="M-2 807h234v-27h-234v27zM99 0v676h32v-676h-32z" />
    <glyph glyph-name="imacron" unicode="&#x12b;" horiz-adv-x="192" 
d="M-21 591h234v-27h-234v27zM80 0v460h32v-460h-32z" />
    <glyph glyph-name="Iogonek" unicode="&#x12e;" horiz-adv-x="230" 
d="M99 0v676h32v-676h-32zM113 -206q-35 0 -59 21t-24 60q0 32 24 71t55 69l22 -15q-35 -34 -54.5 -63.5t-19.5 -61.5q0 -31 15.5 -44.5t42.5 -13.5q14 0 25 4t24 12l12 -17q-14 -11 -30 -16.5t-33 -5.5z" />
    <glyph glyph-name="iogonek" unicode="&#x12f;" horiz-adv-x="192" 
d="M80 0v460h31v-460h-31zM95 575q-13 0 -22 10t-9 23q0 14 9 23t22 9q14 0 23.5 -9t9.5 -23q0 -13 -9.5 -23t-23.5 -10zM94 -206q-35 0 -59 21t-24 60q0 32 24 71t55 69l22 -15q-35 -34 -54.5 -63.5t-19.5 -61.5q0 -31 15.5 -44.5t42.5 -13.5q14 0 25 4t24 12l12 -17
q-14 -11 -30 -16.5t-33 -5.5z" />
    <glyph glyph-name="Idotaccent" unicode="&#x130;" horiz-adv-x="230" 
d="M99 0v676h32v-676h-32zM114 761q-13 0 -22 10t-9 23q0 14 9 23t22 9q14 0 23.5 -9t9.5 -23q0 -13 -9.5 -23t-23.5 -10z" />
    <glyph glyph-name="dotlessi" unicode="&#x131;" horiz-adv-x="192" 
d="M80 0v460h32v-460h-32z" />
    <glyph glyph-name="IJ" unicode="&#x132;" horiz-adv-x="595" 
d="M314 -10q-55 0 -94.5 20.5t-71.5 57.5l22 22q27 -34 61.5 -51.5t82.5 -17.5q38 0 74 17.5t59.5 57t23.5 103.5v477h32v-483q0 -68 -27.5 -113t-71 -67.5t-90.5 -22.5zM99 220v460h32v-460h-32z" />
    <glyph glyph-name="ij" unicode="&#x133;" horiz-adv-x="385" 
d="M80 0v460h31v-460h-31zM95 575q-13 0 -22 10t-9 23q0 14 9 23t22 9q14 0 23.5 -9t9.5 -23q0 -13 -9.5 -23t-23.5 -10zM175 -206q-31 0 -58.5 11.5t-47.5 32.5l21 21q19 -19 40.5 -28t45.5 -9q41 0 69.5 24t28.5 77v537h31v-536q0 -43 -18 -72t-47.5 -43.5t-64.5 -14.5z
M288 575q-13 0 -22 10t-9 23q0 14 9 23t22 9q14 0 23.5 -9t9.5 -23q0 -13 -9.5 -23t-23.5 -10z" />
    <glyph glyph-name="uni0136" unicode="&#x136;" horiz-adv-x="646" 
d="M548 0l-428 352l419 324h49l-433 -334v21l443 -363h-50zM99 0v676h32v-676h-32zM301 -254l-24 13l46 95l14 2q-2 -7 -8 -11.5t-16 -4.5q-15 0 -26.5 11t-11.5 27q0 17 12.5 29t29.5 12q16 0 28 -12t12 -29q0 -7 -1.5 -16.5t-9.5 -25.5z" />
    <glyph glyph-name="uni0137" unicode="&#x137;" horiz-adv-x="457" 
d="M382 0l-278 237l271 223h43l-282 -231v17l291 -246h-45zM80 0v696h31v-696h-31zM230 -254l-24 13l46 95l14 2q-2 -7 -8 -11.5t-16 -4.5q-15 0 -26.5 11t-11.5 27q0 17 12.5 29t29.5 12q16 0 28 -12t12 -29q0 -7 -1.5 -16.5t-9.5 -25.5z" />
    <glyph glyph-name="Lacute" unicode="&#x139;" horiz-adv-x="558" 
d="M99 0v676h32v-676h-32zM117 0v29h392v-29h-392zM235 753l-13 13l137 154l27 -27z" />
    <glyph glyph-name="lacute" unicode="&#x13a;" horiz-adv-x="191" 
d="M80 0v696h31v-696h-31zM26 753l-13 13l137 154l27 -27z" />
    <glyph glyph-name="uni013B" unicode="&#x13b;" horiz-adv-x="558" 
d="M99 0v676h32v-676h-32zM117 0v29h392v-29h-392zM289 -254l-24 13l46 95l14 2q-2 -7 -8 -11.5t-16 -4.5q-15 0 -26.5 11t-11.5 27q0 17 12.5 29t29.5 12q16 0 28 -12t12 -29q0 -7 -1.5 -16.5t-9.5 -25.5z" />
    <glyph glyph-name="uni013C" unicode="&#x13c;" horiz-adv-x="191" 
d="M80 0v696h31v-696h-31zM80 -254l-24 13l46 95l14 2q-2 -7 -8 -11.5t-16 -4.5q-15 0 -26.5 11t-11.5 27q0 17 12.5 29t29.5 12q16 0 28 -12t12 -29q0 -7 -1.5 -16.5t-9.5 -25.5z" />
    <glyph glyph-name="Lcaron" unicode="&#x13d;" horiz-adv-x="558" 
d="M99 0v676h32v-676h-32zM117 0v29h392v-29h-392zM229 503l-24 13l46 95l14 2q-2 -7 -8 -11.5t-16 -4.5q-15 0 -26.5 11t-11.5 27q0 17 12.5 29t29.5 12q16 0 28 -12t12 -29q0 -7 -1.5 -16.5t-9.5 -25.5z" />
    <glyph glyph-name="lcaron" unicode="&#x13e;" horiz-adv-x="329" 
d="M80 0v696h31v-696h-31zM182 507l-24 13l46 95l14 2q-2 -7 -8 -11.5t-16 -4.5q-15 0 -26.5 11t-11.5 27q0 17 12.5 29t29.5 12q16 0 28 -12t12 -29q0 -7 -1.5 -16.5t-9.5 -25.5z" />
    <glyph glyph-name="Lslash" unicode="&#x141;" horiz-adv-x="652" 
d="M80 290l255 147v-32l-255 -147v32zM193 0v676h32v-676h-32zM211 0v29h392v-29h-392z" />
    <glyph glyph-name="lslash" unicode="&#x142;" horiz-adv-x="415" 
d="M80 290l255 147v-32l-255 -147v32zM192 0v696h31v-696h-31z" />
    <glyph glyph-name="Nacute" unicode="&#x143;" horiz-adv-x="689" 
d="M99 0v676h24l8 -42v-634h-32zM566 0l-450 633l7 43l450 -633zM566 0l-8 42v634h32v-676h-24zM276 753l-13 13l137 154l27 -27z" />
    <glyph glyph-name="nacute" unicode="&#x144;" horiz-adv-x="537" 
d="M436 0v275q0 75 -43 121t-115 46q-49 0 -86.5 -21.5t-59 -58.5t-21.5 -86l-21 12q0 52 25.5 93t69 65t98.5 24t96.5 -25t64.5 -69t23 -101v-275h-31zM80 0v460h31v-460h-31zM200 537l-13 13l137 154l27 -27z" />
    <glyph glyph-name="uni0145" unicode="&#x145;" horiz-adv-x="689" 
d="M99 0v676h24l8 -42v-634h-32zM566 0l-450 633l7 43l450 -633zM566 0l-8 42v634h32v-676h-24zM330 -254l-24 13l46 95l14 2q-2 -7 -8 -11.5t-16 -4.5q-15 0 -26.5 11t-11.5 27q0 17 12.5 29t29.5 12q16 0 28 -12t12 -29q0 -7 -1.5 -16.5t-9.5 -25.5z" />
    <glyph glyph-name="uni0146" unicode="&#x146;" horiz-adv-x="537" 
d="M436 0v275q0 75 -43 121t-115 46q-49 0 -86.5 -21.5t-59 -58.5t-21.5 -86l-21 12q0 52 25.5 93t69 65t98.5 24t96.5 -25t64.5 -69t23 -101v-275h-31zM80 0v460h31v-460h-31zM254 -254l-24 13l46 95l14 2q-2 -7 -8 -11.5t-16 -4.5q-15 0 -26.5 11t-11.5 27q0 17 12.5 29
t29.5 12q16 0 28 -12t12 -29q0 -7 -1.5 -16.5t-9.5 -25.5z" />
    <glyph glyph-name="Ncaron" unicode="&#x147;" horiz-adv-x="689" 
d="M99 0v676h24l8 -42v-634h-32zM566 0l-450 633l7 43l450 -633zM566 0l-8 42v634h32v-676h-24zM484 920l13 -13l-137 -154h-30l-137 154l13 13l149 -138h-20z" />
    <glyph glyph-name="ncaron" unicode="&#x148;" horiz-adv-x="537" 
d="M436 0v275q0 75 -43 121t-115 46q-49 0 -86.5 -21.5t-59 -58.5t-21.5 -86l-21 12q0 52 25.5 93t69 65t98.5 24t96.5 -25t64.5 -69t23 -101v-275h-31zM80 0v460h31v-460h-31zM408 704l13 -13l-137 -154h-30l-137 154l13 13l149 -138h-20z" />
    <glyph glyph-name="Eng" unicode="&#x14a;" horiz-adv-x="689" 
d="M99 0v676h24l8 -42v-634h-32zM566 0l-450 633l7 43l450 -633zM566 0l-8 42v634h32v-676h-24zM460 -206q-31 0 -58.5 11.5t-47.5 32.5l21 21q19 -19 40.5 -28t45.5 -9q41 0 69.5 24t28.5 77v537h31v-536q0 -43 -18 -72t-47.5 -43.5t-64.5 -14.5z" />
    <glyph glyph-name="eng" unicode="&#x14b;" horiz-adv-x="537" 
d="M337 -206q-31 0 -58.5 11.5t-47.5 32.5l21 21q19 -19 40.5 -28t45.5 -9q41 0 69.5 24t28.5 77v278h31v-277q0 -43 -18 -72t-47.5 -43.5t-64.5 -14.5zM436 0v275q0 75 -43 121t-115 46q-49 0 -86.5 -21.5t-59 -58.5t-21.5 -86l-21 12q0 52 25.5 93t69 65t98.5 24t96.5 -25
t64.5 -69t23 -101v-275h-31zM80 0v460h31v-460h-31z" />
    <glyph glyph-name="Omacron" unicode="&#x14c;" horiz-adv-x="793" 
d="M398 -10q-71 0 -131.5 26.5t-105.5 74.5t-70 111.5t-25 136.5q0 74 24.5 137t69.5 110t105 73.5t131 26.5t131.5 -26.5t105 -73.5t69.5 -110.5t25 -137.5q0 -73 -24.5 -136.5t-69.5 -111t-104.5 -74t-130.5 -26.5zM396 21q85 0 152 42t106 114t39 162q0 67 -22.5 124.5
t-62.5 100.5t-94 67t-118 24q-85 0 -152 -41.5t-105.5 -113t-38.5 -161.5q0 -67 22.5 -125t62.5 -101.5t94 -67.5t117 -24zM242 807h310v-27h-310v27z" />
    <glyph glyph-name="omacron" unicode="&#x14d;" horiz-adv-x="573" 
d="M287 -10q-67 0 -120.5 32t-85 87t-31.5 123q0 67 31.5 121t85 85.5t120.5 31.5q66 0 119.5 -31.5t85 -85.5t31.5 -121q0 -69 -31.5 -123.5t-85 -86.5t-119.5 -32zM287 19q58 0 104 28t73 76.5t27 109.5q0 59 -27 106t-73 74.5t-104 27.5t-104.5 -27.5t-73.5 -74.5
t-27 -107q0 -61 27 -109t73.5 -76t104.5 -28zM132 591h310v-27h-310v27z" />
    <glyph glyph-name="Ohungarumlaut" unicode="&#x150;" horiz-adv-x="793" 
d="M398 -10q-71 0 -131.5 26.5t-105.5 74.5t-70 111.5t-25 136.5q0 74 24.5 137t69.5 110t105 73.5t131 26.5t131.5 -26.5t105 -73.5t69.5 -110.5t25 -137.5q0 -73 -24.5 -136.5t-69.5 -111t-104.5 -74t-130.5 -26.5zM396 21q85 0 152 42t106 114t39 162q0 67 -22.5 124.5
t-62.5 100.5t-94 67t-118 24q-85 0 -152 -41.5t-105.5 -113t-38.5 -161.5q0 -67 22.5 -125t62.5 -101.5t94 -67.5t117 -24zM306 732l-17 6l59 198l36 -13zM421 732l-17 6l59 198l36 -13z" />
    <glyph glyph-name="ohungarumlaut" unicode="&#x151;" horiz-adv-x="573" 
d="M287 -10q-67 0 -120.5 32t-85 87t-31.5 123q0 67 31.5 121t85 85.5t120.5 31.5q66 0 119.5 -31.5t85 -85.5t31.5 -121q0 -69 -31.5 -123.5t-85 -86.5t-119.5 -32zM287 19q58 0 104 28t73 76.5t27 109.5q0 59 -27 106t-73 74.5t-104 27.5t-104.5 -27.5t-73.5 -74.5
t-27 -107q0 -61 27 -109t73.5 -76t104.5 -28zM196 516l-17 6l59 198l36 -13zM311 516l-17 6l59 198l36 -13z" />
    <glyph glyph-name="OE" unicode="&#x152;" horiz-adv-x="1182" 
d="M398 -10q-71 0 -131.5 26.5t-105.5 74.5t-70 111.5t-25 136.5q0 74 24.5 137t69.5 110t105 73.5t131 26.5q75 0 134.5 -26.5t102 -73.5t65 -110.5t22.5 -137.5q0 -73 -22.5 -136.5t-64.5 -111t-101.5 -74t-133.5 -26.5zM396 21q90 0 157 42t103.5 114t36.5 162
q0 89 -36.5 160.5t-103.5 113.5t-157 42q-85 0 -152 -41.5t-105.5 -113t-38.5 -161.5q0 -67 22.5 -125t62.5 -101.5t94 -67.5t117 -24zM693 0v676h32v-676h-32zM711 0v29h417v-29h-417zM711 333v28h387v-28h-387zM711 647v29h411v-29h-411z" />
    <glyph glyph-name="oe" unicode="&#x153;" horiz-adv-x="983" 
d="M287 -10q-67 0 -120.5 32t-85 87t-31.5 123q0 67 31.5 121t85 85.5t120.5 31.5q66 0 119.5 -31.5t85 -85.5t31.5 -121q0 -69 -31.5 -123.5t-85 -86.5t-119.5 -32zM287 19q58 0 104 28t73 76.5t27 109.5q0 59 -27 106t-73 74.5t-104 27.5t-104.5 -27.5t-73.5 -74.5
t-27 -107q0 -61 27 -109t73.5 -76t104.5 -28zM732 -10q-69 0 -123.5 31.5t-86 86t-31.5 123.5q0 68 30.5 122t84 85.5t120.5 31.5q62 0 109.5 -27.5t74.5 -76.5t27 -113q0 -4 -0.5 -12.5t-2.5 -21.5h-421v29h401l-9 -7q4 59 -18 104t-63.5 70.5t-98.5 25.5
q-60 0 -105.5 -26.5t-71 -73t-25.5 -108.5q0 -64 26.5 -112t74.5 -75t112 -27q48 0 88.5 18t68.5 54l21 -21q-31 -37 -78.5 -58.5t-103.5 -21.5z" />
    <glyph glyph-name="Racute" unicode="&#x154;" horiz-adv-x="637" 
d="M115 318v29h222q83 0 126 41.5t43 108.5q0 68 -43 109t-126 41h-222v29h217q67 0 113 -22.5t70 -63t24 -93.5t-24 -93.5t-70 -63t-113 -22.5h-217zM99 0v676h32v-676h-32zM547 0l-271 332l35 6l279 -338h-43zM217 753l-13 13l137 154l27 -27z" />
    <glyph glyph-name="racute" unicode="&#x155;" horiz-adv-x="402" 
d="M80 0v460h31v-460h-31zM111 281l-21 6q0 88 46.5 135.5t116.5 47.5q34 0 63.5 -12t54.5 -38l-21 -23q-21 23 -45.5 33t-56.5 10q-61 0 -99 -41.5t-38 -117.5zM133 537l-13 13l137 154l27 -27z" />
    <glyph glyph-name="uni0156" unicode="&#x156;" horiz-adv-x="637" 
d="M115 318v29h222q83 0 126 41.5t43 108.5q0 68 -43 109t-126 41h-222v29h217q67 0 113 -22.5t70 -63t24 -93.5t-24 -93.5t-70 -63t-113 -22.5h-217zM99 0v676h32v-676h-32zM547 0l-271 332l35 6l279 -338h-43zM291 -254l-24 13l46 95l14 2q-2 -7 -8 -11.5t-16 -4.5
q-15 0 -26.5 11t-11.5 27q0 17 12.5 29t29.5 12q16 0 28 -12t12 -29q0 -7 -1.5 -16.5t-9.5 -25.5z" />
    <glyph glyph-name="uni0157" unicode="&#x157;" horiz-adv-x="402" 
d="M80 0v460h31v-460h-31zM111 281l-21 6q0 88 46.5 135.5t116.5 47.5q34 0 63.5 -12t54.5 -38l-21 -23q-21 23 -45.5 33t-56.5 10q-61 0 -99 -41.5t-38 -117.5zM80 -254l-24 13l46 95l14 2q-2 -7 -8 -11.5t-16 -4.5q-15 0 -26.5 11t-11.5 27q0 17 12.5 29t29.5 12
q16 0 28 -12t12 -29q0 -7 -1.5 -16.5t-9.5 -25.5z" />
    <glyph glyph-name="Rcaron" unicode="&#x158;" horiz-adv-x="637" 
d="M115 318v29h222q83 0 126 41.5t43 108.5q0 68 -43 109t-126 41h-222v29h217q67 0 113 -22.5t70 -63t24 -93.5t-24 -93.5t-70 -63t-113 -22.5h-217zM99 0v676h32v-676h-32zM547 0l-271 332l35 6l279 -338h-43zM425 920l13 -13l-137 -154h-30l-137 154l13 13l149 -138h-20z
" />
    <glyph glyph-name="rcaron" unicode="&#x159;" horiz-adv-x="402" 
d="M80 0v460h31v-460h-31zM111 281l-21 6q0 88 46.5 135.5t116.5 47.5q34 0 63.5 -12t54.5 -38l-21 -23q-21 23 -45.5 33t-56.5 10q-61 0 -99 -41.5t-38 -117.5zM341 704l13 -13l-137 -154h-30l-137 154l13 13l149 -138h-20z" />
    <glyph glyph-name="Sacute" unicode="&#x15a;" horiz-adv-x="552" 
d="M285 -10q-78 0 -136 30.5t-99 83.5l23 22q42 -57 95 -81.5t119 -24.5q74 0 121 36t47 100q0 48 -19.5 78.5t-51.5 49.5t-70 33.5l-76 29t-70 36t-51.5 55t-19.5 85.5q0 49 23.5 85.5t65.5 57t98 20.5q65 0 116 -25t87 -72l-23 -22q-34 43 -77.5 66t-102.5 23
q-68 0 -111 -35t-43 -97q0 -45 19.5 -73.5t51.5 -47t70 -32t76 -28.5t70 -37t51.5 -56.5t19.5 -87.5q0 -85 -54.5 -128.5t-148.5 -43.5zM215 753l-13 13l137 154l27 -27z" />
    <glyph glyph-name="sacute" unicode="&#x15b;" horiz-adv-x="417" 
d="M212 -10q-37 0 -69.5 10.5t-58.5 29t-46 42.5l21 22q30 -39 69 -57.5t85 -18.5q57 0 91 24.5t34 67.5q0 38 -19.5 60t-50.5 34t-65.5 22t-65.5 23.5t-50.5 38t-19.5 66.5q0 34 18 60t51 41t78 15q49 0 90 -17.5t64 -50.5l-21 -21q-20 28 -56 44.5t-80 16.5q-56 0 -85 -25
t-29 -62q0 -35 19.5 -55t50.5 -31t65.5 -20.5t65.5 -24t50.5 -40t19.5 -70.5q0 -57 -42.5 -90.5t-113.5 -33.5zM145 537l-13 13l137 154l27 -27z" />
    <glyph glyph-name="Scedilla" unicode="&#x15e;" horiz-adv-x="552" 
d="M285 -10q-78 0 -136 30.5t-99 83.5l23 22q42 -57 95 -81.5t119 -24.5q74 0 121 36t47 100q0 48 -19.5 78.5t-51.5 49.5t-70 33.5l-76 29t-70 36t-51.5 55t-19.5 85.5q0 49 23.5 85.5t65.5 57t98 20.5q65 0 116 -25t87 -72l-23 -22q-34 43 -77.5 66t-102.5 23
q-68 0 -111 -35t-43 -97q0 -45 19.5 -73.5t51.5 -47t70 -32t76 -28.5t70 -37t51.5 -56.5t19.5 -87.5q0 -85 -54.5 -128.5t-148.5 -43.5zM277 -206q-29 0 -58.5 10.5t-52.5 29.5l26 22q16 -15 38 -23.5t47 -8.5q39 0 60.5 14t21.5 39t-23.5 38.5t-67.5 13.5h-20l24 79h35
l-21 -69l-14 17q59 0 90.5 -21t31.5 -59q0 -39 -30.5 -60.5t-86.5 -21.5z" />
    <glyph glyph-name="scedilla" unicode="&#x15f;" horiz-adv-x="417" 
d="M212 -10q-37 0 -69.5 10.5t-58.5 29t-46 42.5l21 22q30 -39 69 -57.5t85 -18.5q57 0 91 24.5t34 67.5q0 38 -19.5 60t-50.5 34t-65.5 22t-65.5 23.5t-50.5 38t-19.5 66.5q0 34 18 60t51 41t78 15q49 0 90 -17.5t64 -50.5l-21 -21q-20 28 -56 44.5t-80 16.5q-56 0 -85 -25
t-29 -62q0 -35 19.5 -55t50.5 -31t65.5 -20.5t65.5 -24t50.5 -40t19.5 -70.5q0 -57 -42.5 -90.5t-113.5 -33.5zM204 -206q-29 0 -58.5 10.5t-52.5 29.5l26 22q16 -15 38 -23.5t47 -8.5q39 0 60.5 14t21.5 39t-23.5 38.5t-67.5 13.5h-20l24 79h35l-21 -69l-14 17
q59 0 90.5 -21t31.5 -59q0 -39 -30.5 -60.5t-86.5 -21.5z" />
    <glyph glyph-name="Scaron" unicode="&#x160;" horiz-adv-x="552" 
d="M285 -10q-78 0 -136 30.5t-99 83.5l23 22q42 -57 95 -81.5t119 -24.5q74 0 121 36t47 100q0 48 -19.5 78.5t-51.5 49.5t-70 33.5l-76 29t-70 36t-51.5 55t-19.5 85.5q0 49 23.5 85.5t65.5 57t98 20.5q65 0 116 -25t87 -72l-23 -22q-34 43 -77.5 66t-102.5 23
q-68 0 -111 -35t-43 -97q0 -45 19.5 -73.5t51.5 -47t70 -32t76 -28.5t70 -37t51.5 -56.5t19.5 -87.5q0 -85 -54.5 -128.5t-148.5 -43.5zM423 920l13 -13l-137 -154h-30l-137 154l13 13l149 -138h-20z" />
    <glyph glyph-name="scaron" unicode="&#x161;" horiz-adv-x="417" 
d="M212 -10q-37 0 -69.5 10.5t-58.5 29t-46 42.5l21 22q30 -39 69 -57.5t85 -18.5q57 0 91 24.5t34 67.5q0 38 -19.5 60t-50.5 34t-65.5 22t-65.5 23.5t-50.5 38t-19.5 66.5q0 34 18 60t51 41t78 15q49 0 90 -17.5t64 -50.5l-21 -21q-20 28 -56 44.5t-80 16.5q-56 0 -85 -25
t-29 -62q0 -35 19.5 -55t50.5 -31t65.5 -20.5t65.5 -24t50.5 -40t19.5 -70.5q0 -57 -42.5 -90.5t-113.5 -33.5zM353 704l13 -13l-137 -154h-30l-137 154l13 13l149 -138h-20z" />
    <glyph glyph-name="Tcaron" unicode="&#x164;" horiz-adv-x="644" 
d="M306 0v657h32v-657h-32zM49 647v29h546v-29h-546zM461 920l13 -13l-137 -154h-30l-137 154l13 13l149 -138h-20z" />
    <glyph glyph-name="tcaron" unicode="&#x165;" horiz-adv-x="396" 
d="M153 0v656h31v-656h-31zM31 433v27h274v-27h-274zM237 495l-24 13l46 95l14 2q-2 -7 -8 -11.5t-16 -4.5q-15 0 -26.5 11t-11.5 27q0 17 12.5 29t29.5 12q16 0 28 -12t12 -29q0 -7 -1.5 -16.5t-9.5 -25.5z" />
    <glyph glyph-name="Umacron" unicode="&#x16a;" horiz-adv-x="662" 
d="M331 -10q-69 0 -123.5 31t-86 85t-31.5 122v448h32v-442q0 -65 27.5 -113t75 -74t106.5 -26q60 0 107 26t74.5 74t27.5 112v443h32v-449q0 -68 -31.5 -121.5t-86 -84.5t-123.5 -31zM176 807h310v-27h-310v27z" />
    <glyph glyph-name="umacron" unicode="&#x16b;" horiz-adv-x="512" 
d="M256 -10q-54 0 -96.5 25.5t-66.5 71t-24 105.5v268h31v-267q0 -51 19.5 -90.5t55 -62t81.5 -22.5q70 0 113 49t43 126v267h31v-268q0 -59 -24 -105t-66 -71.5t-97 -25.5zM101 591h310v-27h-310v27z" />
    <glyph glyph-name="Ubreve" unicode="&#x16c;" horiz-adv-x="662" 
d="M331 -10q-69 0 -123.5 31t-86 85t-31.5 122v448h32v-442q0 -65 27.5 -113t75 -74t106.5 -26q60 0 107 26t74.5 74t27.5 112v443h32v-449q0 -68 -31.5 -121.5t-86 -84.5t-123.5 -31zM483 886q0 -43 -19.5 -78t-53 -55t-77.5 -20q-45 0 -80 20t-54.5 55t-19.5 78h29
q0 -55 34.5 -91t92.5 -36q33 0 60.5 16.5t43.5 45.5t16 65h28z" />
    <glyph glyph-name="ubreve" unicode="&#x16d;" horiz-adv-x="512" 
d="M256 -10q-54 0 -96.5 25.5t-66.5 71t-24 105.5v268h31v-267q0 -51 19.5 -90.5t55 -62t81.5 -22.5q70 0 113 49t43 126v267h31v-268q0 -59 -24 -105t-66 -71.5t-97 -25.5zM408 670q0 -43 -19.5 -78t-53 -55t-77.5 -20q-45 0 -80 20t-54.5 55t-19.5 78h29q0 -55 34.5 -91
t92.5 -36q33 0 60.5 16.5t43.5 45.5t16 65h28z" />
    <glyph glyph-name="Uring" unicode="&#x16e;" horiz-adv-x="662" 
d="M331 -10q-69 0 -123.5 31t-86 85t-31.5 122v448h32v-442q0 -65 27.5 -113t75 -74t106.5 -26q60 0 107 26t74.5 74t27.5 112v443h32v-449q0 -68 -31.5 -121.5t-86 -84.5t-123.5 -31zM332 733q-30 0 -53.5 13.5t-36.5 36.5t-13 52t13 52t36.5 36.5t53.5 13.5
q29 0 51.5 -13.5t35.5 -36.5t13 -52t-13 -52t-35.5 -36.5t-51.5 -13.5zM333 760q29 0 50 21.5t21 53.5t-21 53.5t-50 21.5q-34 0 -54.5 -21.5t-20.5 -53.5t20.5 -53.5t54.5 -21.5z" />
    <glyph glyph-name="uring" unicode="&#x16f;" horiz-adv-x="512" 
d="M256 -10q-54 0 -96.5 25.5t-66.5 71t-24 105.5v268h31v-267q0 -51 19.5 -90.5t55 -62t81.5 -22.5q70 0 113 49t43 126v267h31v-268q0 -59 -24 -105t-66 -71.5t-97 -25.5zM257 517q-30 0 -53.5 13.5t-36.5 36.5t-13 52t13 52t36.5 36.5t53.5 13.5q29 0 51.5 -13.5
t35.5 -36.5t13 -52t-13 -52t-35.5 -36.5t-51.5 -13.5zM258 544q29 0 50 21.5t21 53.5t-21 53.5t-50 21.5q-34 0 -54.5 -21.5t-20.5 -53.5t20.5 -53.5t54.5 -21.5z" />
    <glyph glyph-name="Uhungarumlaut" unicode="&#x170;" horiz-adv-x="662" 
d="M331 -10q-69 0 -123.5 31t-86 85t-31.5 122v448h32v-442q0 -65 27.5 -113t75 -74t106.5 -26q60 0 107 26t74.5 74t27.5 112v443h32v-449q0 -68 -31.5 -121.5t-86 -84.5t-123.5 -31zM240 732l-17 6l59 198l36 -13zM355 732l-17 6l59 198l36 -13z" />
    <glyph glyph-name="uhungarumlaut" unicode="&#x171;" horiz-adv-x="512" 
d="M256 -10q-54 0 -96.5 25.5t-66.5 71t-24 105.5v268h31v-267q0 -51 19.5 -90.5t55 -62t81.5 -22.5q70 0 113 49t43 126v267h31v-268q0 -59 -24 -105t-66 -71.5t-97 -25.5zM165 516l-17 6l59 198l36 -13zM280 516l-17 6l59 198l36 -13z" />
    <glyph glyph-name="Uogonek" unicode="&#x172;" horiz-adv-x="662" 
d="M331 -10q-69 0 -123.5 31t-86 85t-31.5 122v448h32v-442q0 -65 27.5 -113t75 -74t106.5 -26q60 0 107 26t74.5 74t27.5 112v443h32v-449q0 -68 -31.5 -121.5t-86 -84.5t-123.5 -31zM413 -196q-35 0 -59 21t-24 60q0 32 24 71t55 69l22 -15q-35 -34 -54.5 -63.5
t-19.5 -61.5q0 -31 15.5 -44.5t42.5 -13.5q14 0 25 4t24 12l12 -17q-14 -11 -30 -16.5t-33 -5.5z" />
    <glyph glyph-name="uogonek" unicode="&#x173;" horiz-adv-x="512" 
d="M256 -10q-54 0 -96.5 25.5t-66.5 71t-24 105.5v268h31v-267q0 -51 19.5 -90.5t55 -62t81.5 -22.5q70 0 113 49t43 126v267h31v-268q0 -59 -24 -105t-66 -71.5t-97 -25.5zM324 -196q-35 0 -59 21t-24 60q0 32 24 71t55 69l22 -15q-35 -34 -54.5 -63.5t-19.5 -61.5
q0 -31 15.5 -44.5t42.5 -13.5q14 0 25 4t24 12l12 -17q-14 -11 -30 -16.5t-33 -5.5z" />
    <glyph glyph-name="Wcircumflex" unicode="&#x174;" horiz-adv-x="976" 
d="M266 0l-215 676h34l201 -646h-15l201 646h31l202 -646h-16l202 646h34l-215 -676h-28l-201 644h13l-200 -644h-28zM349 753l-13 13l137 154h30l137 -154l-13 -13l-149 138h20z" />
    <glyph glyph-name="wcircumflex" unicode="&#x175;" horiz-adv-x="738" 
d="M203 0l-170 460h33l155 -432h-18l157 432h18l157 -432h-18l155 432h33l-170 -460h-19l-159 438h24l-159 -438h-19zM230 537l-13 13l137 154h30l137 -154l-13 -13l-149 138h20z" />
    <glyph glyph-name="Ycircumflex" unicode="&#x176;" horiz-adv-x="645" 
d="M321 288l-273 388h39l241 -343h-10l244 343h36l-275 -388h-2zM307 0v321h32v-321h-32zM184 753l-13 13l137 154h30l137 -154l-13 -13l-149 138h20z" />
    <glyph glyph-name="ycircumflex" unicode="&#x177;" horiz-adv-x="502" 
d="M240 0l-208 460h34l192 -432h-23l201 432h34l-218 -460h-12zM126 -196l110 226l16 -30l-93 -196h-33zM112 537l-13 13l137 154h30l137 -154l-13 -13l-149 138h20z" />
    <glyph glyph-name="Ydieresis" unicode="&#x178;" horiz-adv-x="645" 
d="M321 288l-273 388h39l241 -343h-10l244 343h36l-275 -388h-2zM307 0v321h32v-321h-32zM237 761q-13 0 -22 10t-9 23q0 14 9 23t22 9q14 0 23.5 -9t9.5 -23q0 -13 -9.5 -23t-23.5 -10zM407 761q-13 0 -22 10t-9 23q0 14 9 23t22 9q14 0 23.5 -9t9.5 -23q0 -13 -9.5 -23
t-23.5 -10z" />
    <glyph glyph-name="Zacute" unicode="&#x179;" horiz-adv-x="565" 
d="M52 18l422 640h38l-422 -640h-38zM52 0v18l26 11h427v-29h-453zM67 647v29h445v-18l-27 -11h-418zM222 753l-13 13l137 154l27 -27z" />
    <glyph glyph-name="zacute" unicode="&#x17a;" horiz-adv-x="433" 
d="M35 17l325 426h37l-325 -426h-37zM35 0v17l21 10h336v-27h-357zM51 433v27h346v-17l-31 -10h-315zM161 537l-13 13l137 154l27 -27z" />
    <glyph glyph-name="Zdotaccent" unicode="&#x17b;" horiz-adv-x="565" 
d="M52 18l422 640h38l-422 -640h-38zM52 0v18l26 11h427v-29h-453zM67 647v29h445v-18l-27 -11h-418zM290 761q-13 0 -22 10t-9 23q0 14 9 23t22 9q14 0 23.5 -9t9.5 -23q0 -13 -9.5 -23t-23.5 -10z" />
    <glyph glyph-name="zdotaccent" unicode="&#x17c;" horiz-adv-x="433" 
d="M35 17l325 426h37l-325 -426h-37zM35 0v17l21 10h336v-27h-357zM51 433v27h346v-17l-31 -10h-315zM229 545q-13 0 -22 10t-9 23q0 14 9 23t22 9q14 0 23.5 -9t9.5 -23q0 -13 -9.5 -23t-23.5 -10z" />
    <glyph glyph-name="Zcaron" unicode="&#x17d;" horiz-adv-x="565" 
d="M52 18l422 640h38l-422 -640h-38zM52 0v18l26 11h427v-29h-453zM67 647v29h445v-18l-27 -11h-418zM430 920l13 -13l-137 -154h-30l-137 154l13 13l149 -138h-20z" />
    <glyph glyph-name="zcaron" unicode="&#x17e;" horiz-adv-x="433" 
d="M35 17l325 426h37l-325 -426h-37zM35 0v17l21 10h336v-27h-357zM51 433v27h346v-17l-31 -10h-315zM369 704l13 -13l-137 -154h-30l-137 154l13 13l149 -138h-20z" />
    <glyph glyph-name="uni01CD" unicode="&#x1cd;" horiz-adv-x="678" 
d="M50 0l275 676h30l273 -676h-35l-261 648h15l-263 -648h-34zM165 223v29h349v-29h-349zM478 920l13 -13l-137 -154h-30l-137 154l13 13l149 -138h-20z" />
    <glyph glyph-name="uni01CE" unicode="&#x1ce;" 
d="M287 -10q-68 0 -121.5 31.5t-84.5 85.5t-31 122t31 122.5t84 86.5t120 32q53 0 95.5 -19.5t71 -55.5t39.5 -86v-157q-12 -50 -40.5 -86.5t-70 -56t-93.5 -19.5zM291 19q86 0 137 57.5t51 152.5q0 64 -23.5 111.5t-66.5 74t-100 26.5q-60 0 -106.5 -27.5t-73.5 -75
t-27 -108.5t27 -108.5t74.5 -75t107.5 -27.5zM478 0v123l9 114l-9 111v112h31v-460h-31zM443 704l13 -13l-137 -154h-30l-137 154l13 13l149 -138h-20z" />
    <glyph glyph-name="uni0218" unicode="&#x218;" horiz-adv-x="552" 
d="M285 -10q-78 0 -136 30.5t-99 83.5l23 22q42 -57 95 -81.5t119 -24.5q74 0 121 36t47 100q0 48 -19.5 78.5t-51.5 49.5t-70 33.5l-76 29t-70 36t-51.5 55t-19.5 85.5q0 49 23.5 85.5t65.5 57t98 20.5q65 0 116 -25t87 -72l-23 -22q-34 43 -77.5 66t-102.5 23
q-68 0 -111 -35t-43 -97q0 -45 19.5 -73.5t51.5 -47t70 -32t76 -28.5t70 -37t51.5 -56.5t19.5 -87.5q0 -85 -54.5 -128.5t-148.5 -43.5zM272 -254l-24 13l46 95l14 2q-2 -7 -8 -11.5t-16 -4.5q-15 0 -26.5 11t-11.5 27q0 17 12.5 29t29.5 12q16 0 28 -12t12 -29
q0 -7 -1.5 -16.5t-9.5 -25.5z" />
    <glyph glyph-name="uni0219" unicode="&#x219;" horiz-adv-x="417" 
d="M212 -10q-37 0 -69.5 10.5t-58.5 29t-46 42.5l21 22q30 -39 69 -57.5t85 -18.5q57 0 91 24.5t34 67.5q0 38 -19.5 60t-50.5 34t-65.5 22t-65.5 23.5t-50.5 38t-19.5 66.5q0 34 18 60t51 41t78 15q49 0 90 -17.5t64 -50.5l-21 -21q-20 28 -56 44.5t-80 16.5q-56 0 -85 -25
t-29 -62q0 -35 19.5 -55t50.5 -31t65.5 -20.5t65.5 -24t50.5 -40t19.5 -70.5q0 -57 -42.5 -90.5t-113.5 -33.5zM199 -254l-24 13l46 95l14 2q-2 -7 -8 -11.5t-16 -4.5q-15 0 -26.5 11t-11.5 27q0 17 12.5 29t29.5 12q16 0 28 -12t12 -29q0 -7 -1.5 -16.5t-9.5 -25.5z" />
    <glyph glyph-name="uni021A" unicode="&#x21a;" horiz-adv-x="644" 
d="M306 0v657h32v-657h-32zM49 647v29h546v-29h-546zM307 -254l-24 13l46 95l14 2q-2 -7 -8 -11.5t-16 -4.5q-15 0 -26.5 11t-11.5 27q0 17 12.5 29t29.5 12q16 0 28 -12t12 -29q0 -7 -1.5 -16.5t-9.5 -25.5z" />
    <glyph glyph-name="uni021B" unicode="&#x21b;" horiz-adv-x="336" 
d="M153 0v656h31v-656h-31zM31 433v27h274v-27h-274zM154 -254l-24 13l46 95l14 2q-2 -7 -8 -11.5t-16 -4.5q-15 0 -26.5 11t-11.5 27q0 17 12.5 29t29.5 12q16 0 28 -12t12 -29q0 -7 -1.5 -16.5t-9.5 -25.5z" />
    <glyph glyph-name="uni0237" unicode="&#x237;" horiz-adv-x="193" 
d="M-17 -206q-31 0 -58.5 11.5t-47.5 32.5l21 21q19 -19 40.5 -28t45.5 -9q41 0 69.5 24t28.5 77v537h31v-536q0 -43 -18 -72t-47.5 -43.5t-64.5 -14.5z" />
    <glyph glyph-name="apostrophe" unicode="&#x2bc;" horiz-adv-x="243" 
d="M72 546l66 95l14 2q-2 -7 -8 -11.5t-16 -4.5q-15 0 -26.5 11t-11.5 27q0 17 12.5 29t29.5 12q16 0 28 -12t12 -29q0 -7 -2.5 -17.5t-12.5 -24.5l-61 -90z" />
    <glyph glyph-name="circumflex" unicode="&#x2c6;" horiz-adv-x="384" 
d="M53 537l-13 13l137 154h30l137 -154l-13 -13l-149 138h20z" />
    <glyph glyph-name="caron" unicode="&#x2c7;" horiz-adv-x="384" 
d="M331 704l13 -13l-137 -154h-30l-137 154l13 13l149 -138h-20z" />
    <glyph glyph-name="breve" unicode="&#x2d8;" horiz-adv-x="384" 
d="M344 670q0 -43 -19.5 -78t-53 -55t-77.5 -20q-45 0 -80 20t-54.5 55t-19.5 78h29q0 -55 34.5 -91t92.5 -36q33 0 60.5 16.5t43.5 45.5t16 65h28z" />
    <glyph glyph-name="dotaccent" unicode="&#x2d9;" horiz-adv-x="244" 
d="M121 545q-13 0 -22 10t-9 23q0 14 9 23t22 9q14 0 23.5 -9t9.5 -23q0 -13 -9.5 -23t-23.5 -10z" />
    <glyph glyph-name="ring" unicode="&#x2da;" horiz-adv-x="283" 
d="M143 517q-30 0 -53.5 13.5t-36.5 36.5t-13 52t13 52t36.5 36.5t53.5 13.5q29 0 51.5 -13.5t35.5 -36.5t13 -52t-13 -52t-35.5 -36.5t-51.5 -13.5zM144 544q29 0 50 21.5t21 53.5t-21 53.5t-50 21.5q-34 0 -54.5 -21.5t-20.5 -53.5t20.5 -53.5t54.5 -21.5z" />
    <glyph glyph-name="ogonek" unicode="&#x2db;" horiz-adv-x="222" 
d="M119 -206q-35 0 -59 21t-24 60q0 32 24 71t55 69l22 -15q-35 -34 -54.5 -63.5t-19.5 -61.5q0 -31 15.5 -44.5t42.5 -13.5q14 0 25 4t24 12l12 -17q-14 -11 -30 -16.5t-33 -5.5z" />
    <glyph glyph-name="tilde" unicode="&#x2dc;" horiz-adv-x="394" 
d="M271 546q-30 0 -51.5 11t-42.5 21.5t-48 10.5q-28 0 -43 -10.5t-27 -28.5l-19 16q14 22 34.5 36t54.5 14q33 0 55.5 -10.5t42.5 -21.5t44 -11q23 0 37.5 10.5t26.5 28.5l19 -16q-14 -22 -34 -36t-49 -14z" />
    <glyph glyph-name="hungarumlaut" unicode="&#x2dd;" horiz-adv-x="290" 
d="M57 516l-17 6l59 198l36 -13zM172 516l-17 6l59 198l36 -13z" />
    <glyph glyph-name="gravecomb" unicode="&#x300;" horiz-adv-x="0" 
d="M191 537l-151 140l27 27l137 -154z" />
    <glyph glyph-name="acutecomb" unicode="&#x301;" horiz-adv-x="0" 
d="M53 537l-13 13l137 154l27 -27z" />
    <glyph glyph-name="uni0302" unicode="&#x302;" horiz-adv-x="0" 
d="M53 537l-13 13l137 154h30l137 -154l-13 -13l-149 138h20z" />
    <glyph glyph-name="tildecomb" unicode="&#x303;" horiz-adv-x="0" 
d="M271 546q-30 0 -51.5 11t-42.5 21.5t-48 10.5q-28 0 -43 -10.5t-27 -28.5l-19 16q14 22 34.5 36t54.5 14q33 0 55.5 -10.5t42.5 -21.5t44 -11q23 0 37.5 10.5t26.5 28.5l19 -16q-14 -22 -34 -36t-49 -14z" />
    <glyph glyph-name="uni0304" unicode="&#x304;" horiz-adv-x="0" 
d="M40 591h310v-27h-310v27z" />
    <glyph glyph-name="uni0306" unicode="&#x306;" horiz-adv-x="0" 
d="M344 670q0 -43 -19.5 -78t-53 -55t-77.5 -20q-45 0 -80 20t-54.5 55t-19.5 78h29q0 -55 34.5 -91t92.5 -36q33 0 60.5 16.5t43.5 45.5t16 65h28z" />
    <glyph glyph-name="uni0307" unicode="&#x307;" horiz-adv-x="0" 
d="M121 545q-13 0 -22 10t-9 23q0 14 9 23t22 9q14 0 23.5 -9t9.5 -23q0 -13 -9.5 -23t-23.5 -10z" />
    <glyph glyph-name="uni0308" unicode="&#x308;" horiz-adv-x="0" 
d="M91 545q-13 0 -22 10t-9 23q0 14 9 23t22 9q14 0 23.5 -9t9.5 -23q0 -13 -9.5 -23t-23.5 -10zM261 545q-13 0 -22 10t-9 23q0 14 9 23t22 9q14 0 23.5 -9t9.5 -23q0 -13 -9.5 -23t-23.5 -10z" />
    <glyph glyph-name="uni030A" unicode="&#x30a;" horiz-adv-x="0" 
d="M143 517q-30 0 -53.5 13.5t-36.5 36.5t-13 52t13 52t36.5 36.5t53.5 13.5q29 0 51.5 -13.5t35.5 -36.5t13 -52t-13 -52t-35.5 -36.5t-51.5 -13.5zM144 544q29 0 50 21.5t21 53.5t-21 53.5t-50 21.5q-34 0 -54.5 -21.5t-20.5 -53.5t20.5 -53.5t54.5 -21.5z" />
    <glyph glyph-name="uni030B" unicode="&#x30b;" horiz-adv-x="0" 
d="M57 516l-17 6l59 198l36 -13zM172 516l-17 6l59 198l36 -13z" />
    <glyph glyph-name="uni030C" unicode="&#x30c;" horiz-adv-x="0" 
d="M331 704l13 -13l-137 -154h-30l-137 154l13 13l149 -138h-20z" />
    <glyph glyph-name="uni0312" unicode="&#x312;" horiz-adv-x="0" 
d="M120 697l-46 -95l-14 -2q2 7 8 11.5t16 4.5q15 0 26.5 -10.5t11.5 -27.5t-12.5 -29t-29.5 -12q-16 0 -28 12t-12 29q0 7 2 16.5t9 25.5l45 90z" />
    <glyph glyph-name="uni0326" unicode="&#x326;" horiz-adv-x="0" 
d="M66 -254l-24 13l46 95l14 2q-2 -7 -8 -11.5t-16 -4.5q-15 0 -26.5 11t-11.5 27q0 17 12.5 29t29.5 12q16 0 28 -12t12 -29q0 -7 -1.5 -16.5t-9.5 -25.5z" />
    <glyph glyph-name="uni0327" unicode="&#x327;" horiz-adv-x="0" 
d="M133 -206q-29 0 -58.5 10.5t-52.5 29.5l26 22q16 -15 38 -23.5t47 -8.5q39 0 60.5 14t21.5 39t-23.5 38.5t-67.5 13.5h-20l24 79h35l-21 -69l-14 17q59 0 90.5 -21t31.5 -59q0 -39 -30.5 -60.5t-86.5 -21.5z" />
    <glyph glyph-name="uni0328" unicode="&#x328;" horiz-adv-x="0" 
d="M119 -206q-35 0 -59 21t-24 60q0 32 24 71t55 69l22 -15q-35 -34 -54.5 -63.5t-19.5 -61.5q0 -31 15.5 -44.5t42.5 -13.5q14 0 25 4t24 12l12 -17q-14 -11 -30 -16.5t-33 -5.5z" />
    <glyph glyph-name="Wgrave" unicode="&#x1e80;" horiz-adv-x="976" 
d="M266 0l-215 676h34l201 -646h-15l201 646h31l202 -646h-16l202 646h34l-215 -676h-28l-201 644h13l-200 -644h-28zM527 753l-151 140l27 27l137 -154z" />
    <glyph glyph-name="wgrave" unicode="&#x1e81;" horiz-adv-x="738" 
d="M203 0l-170 460h33l155 -432h-18l157 432h18l157 -432h-18l155 432h33l-170 -460h-19l-159 438h24l-159 -438h-19zM408 537l-151 140l27 27l137 -154z" />
    <glyph glyph-name="Wacute" unicode="&#x1e82;" horiz-adv-x="976" 
d="M266 0l-215 676h34l201 -646h-15l201 646h31l202 -646h-16l202 646h34l-215 -676h-28l-201 644h13l-200 -644h-28zM419 753l-13 13l137 154l27 -27z" />
    <glyph glyph-name="wacute" unicode="&#x1e83;" horiz-adv-x="738" 
d="M203 0l-170 460h33l155 -432h-18l157 432h18l157 -432h-18l155 432h33l-170 -460h-19l-159 438h24l-159 -438h-19zM300 537l-13 13l137 154l27 -27z" />
    <glyph glyph-name="Wdieresis" unicode="&#x1e84;" horiz-adv-x="976" 
d="M266 0l-215 676h34l201 -646h-15l201 646h31l202 -646h-16l202 646h34l-215 -676h-28l-201 644h13l-200 -644h-28zM402 761q-13 0 -22 10t-9 23q0 14 9 23t22 9q14 0 23.5 -9t9.5 -23q0 -13 -9.5 -23t-23.5 -10zM572 761q-13 0 -22 10t-9 23q0 14 9 23t22 9q14 0 23.5 -9
t9.5 -23q0 -13 -9.5 -23t-23.5 -10z" />
    <glyph glyph-name="wdieresis" unicode="&#x1e85;" horiz-adv-x="738" 
d="M203 0l-170 460h33l155 -432h-18l157 432h18l157 -432h-18l155 432h33l-170 -460h-19l-159 438h24l-159 -438h-19zM283 545q-13 0 -22 10t-9 23q0 14 9 23t22 9q14 0 23.5 -9t9.5 -23q0 -13 -9.5 -23t-23.5 -10zM453 545q-13 0 -22 10t-9 23q0 14 9 23t22 9q14 0 23.5 -9
t9.5 -23q0 -13 -9.5 -23t-23.5 -10z" />
    <glyph glyph-name="uni1E9E" unicode="&#x1e9e;" horiz-adv-x="709" 
d="M353 400l256 231l26 -16l-250 -224l-32 -13v22zM423 0q-63 0 -115.5 26t-87.5 75l21 21q29 -44 76.5 -68.5t105.5 -24.5q56 0 98 22t66 62.5t24 93.5q0 54 -24 94.5t-66.5 63t-99.5 22.5q-16 0 -32 -2t-36 -7l6 16q12 11 29 15.5t42 4.5q61 0 109 -27t76 -74t28 -106
q0 -61 -28.5 -107.5t-78 -73t-113.5 -26.5zM378 686q63 0 111 -6.5t80.5 -15.5t49 -15.5l16.5 -6.5v-28l-12 4t-34.5 10.5t-54.5 12.5t-71 10t-85 4q-74 0 -130 -21.5t-87 -60.5t-31 -90v-483h-31v484q0 60 35 105.5t98 71t146 25.5z" />
    <glyph glyph-name="Ygrave" unicode="&#x1ef2;" horiz-adv-x="645" 
d="M321 288l-273 388h39l241 -343h-10l244 343h36l-275 -388h-2zM307 0v321h32v-321h-32zM362 753l-151 140l27 27l137 -154z" />
    <glyph glyph-name="ygrave" unicode="&#x1ef3;" horiz-adv-x="502" 
d="M240 0l-208 460h34l192 -432h-23l201 432h34l-218 -460h-12zM126 -196l110 226l16 -30l-93 -196h-33zM290 537l-151 140l27 27l137 -154z" />
    <glyph glyph-name="endash" unicode="&#x2013;" horiz-adv-x="536" 
d="M80 239v26h376v-26h-376z" />
    <glyph glyph-name="emdash" unicode="&#x2014;" horiz-adv-x="825" 
d="M80 239v26h665v-26h-665z" />
    <glyph glyph-name="quoteleft" unicode="&#x2018;" horiz-adv-x="240" 
d="M156 693l-46 -95l-14 -2q2 7 8 11.5t16 4.5q15 0 26.5 -10.5t11.5 -27.5t-12.5 -29t-29.5 -12q-16 0 -28 12t-12 29q0 7 2 16.5t9 25.5l45 90z" />
    <glyph glyph-name="quoteright" unicode="&#x2019;" horiz-adv-x="239" 
d="M84 526l46 95l14 2q-2 -7 -8 -11.5t-16 -4.5q-15 0 -26.5 11t-11.5 27q0 17 12.5 29t29.5 12q16 0 28 -12t12 -29q0 -7 -1.5 -16.5t-9.5 -25.5l-45 -90z" />
    <glyph glyph-name="quotesinglbase" unicode="&#x201a;" horiz-adv-x="271" 
d="M100 -89l46 95l14 2q-2 -7 -8 -11.5t-16 -4.5q-15 0 -26.5 11t-11.5 27q0 17 12.5 29t29.5 12q16 0 28 -12t12 -29q0 -7 -1.5 -16.5t-9.5 -25.5l-45 -90z" />
    <glyph glyph-name="quotedblleft" unicode="&#x201c;" horiz-adv-x="364" 
d="M156 693l-46 -95l-14 -2q2 7 8 11.5t16 4.5q15 0 26.5 -10.5t11.5 -27.5t-12.5 -29t-29.5 -12q-16 0 -28 12t-12 29q0 7 2 16.5t9 25.5l45 90zM280 693l-46 -95l-14 -2q2 7 8 11.5t16 4.5q15 0 26.5 -10.5t11.5 -27.5t-12.5 -29t-29.5 -12q-16 0 -28 12t-12 29
q0 7 2 16.5t9 25.5l45 90z" />
    <glyph glyph-name="quotedblright" unicode="&#x201d;" horiz-adv-x="363" 
d="M208 526l46 95l14 2q-2 -7 -8 -11.5t-16 -4.5q-15 0 -26.5 11t-11.5 27q0 17 12.5 29t29.5 12q16 0 28 -12t12 -29q0 -7 -1.5 -16.5t-9.5 -25.5l-45 -90zM84 526l46 95l14 2q-2 -7 -8 -11.5t-16 -4.5q-15 0 -26.5 11t-11.5 27q0 17 12.5 29t29.5 12q16 0 28 -12t12 -29
q0 -7 -1.5 -16.5t-9.5 -25.5l-45 -90z" />
    <glyph glyph-name="quotedblbase" unicode="&#x201e;" horiz-adv-x="395" 
d="M224 -89l46 95l14 2q-2 -7 -8 -11.5t-16 -4.5q-15 0 -26.5 11t-11.5 27q0 17 12.5 29t29.5 12q16 0 28 -12t12 -29q0 -7 -1.5 -16.5t-9.5 -25.5l-45 -90zM100 -89l46 95l14 2q-2 -7 -8 -11.5t-16 -4.5q-15 0 -26.5 11t-11.5 27q0 17 12.5 29t29.5 12q16 0 28 -12t12 -29
q0 -7 -1.5 -16.5t-9.5 -25.5l-45 -90z" />
    <glyph glyph-name="bullet" unicode="&#x2022;" horiz-adv-x="293" 
d="M147 281q-22 0 -38 10t-25.5 27t-9.5 37t9.5 36.5t25.5 26.5t38 10q21 0 37.5 -10t25.5 -26.5t9 -36.5t-9 -37t-25.5 -27t-37.5 -10z" />
    <glyph glyph-name="ellipsis" unicode="&#x2026;" horiz-adv-x="688" 
d="M344 -10q-17 0 -28.5 12.5t-11.5 28.5q0 17 11.5 28.5t28.5 11.5t28.5 -11.5t11.5 -28.5q0 -16 -11.5 -28.5t-28.5 -12.5zM544 -10q-17 0 -28.5 12.5t-11.5 28.5q0 17 11.5 28.5t28.5 11.5t28.5 -11.5t11.5 -28.5q0 -16 -11.5 -28.5t-28.5 -12.5zM144 -10
q-17 0 -28.5 12.5t-11.5 28.5q0 17 11.5 28.5t28.5 11.5t28.5 -11.5t11.5 -28.5q0 -16 -11.5 -28.5t-28.5 -12.5z" />
    <glyph glyph-name="guilsinglleft" unicode="&#x2039;" horiz-adv-x="265" 
d="M177 83l-124 151l124 151h36l-126 -151l126 -151h-36z" />
    <glyph glyph-name="guilsinglright" unicode="&#x203a;" horiz-adv-x="265" 
d="M52 83l126 151l-126 151h36l124 -151l-124 -151h-36z" />
    <glyph glyph-name="fraction" unicode="&#x2044;" horiz-adv-x="590" 
d="M255 295l15 -10l-181 -295l-33 24zM335 381l-15 10l181 295l33 -24z" />
    <glyph glyph-name="uni2074" unicode="&#x2074;" horiz-adv-x="351" 
d="M48 444l130 232h31l-133 -232h-28zM48 426v18l11 7h245v-25h-256zM225 335v230h26v-230h-26z" />
    <glyph glyph-name="Euro" unicode="&#x20ac;" horiz-adv-x="740" 
d="M414 -10q-70 0 -127.5 26.5t-99.5 74.5t-64.5 111.5t-22.5 136.5q0 74 22.5 137t63.5 110t98.5 73.5t126.5 26.5q75 0 133.5 -28t104.5 -78l-23 -23q-40 46 -93 72t-122 26q-83 0 -145.5 -41.5t-97 -113t-34.5 -161.5t35 -162t97.5 -114t144.5 -42q72 0 126 26.5t94 72.5
l23 -23q-45 -50 -103.5 -78.5t-136.5 -28.5zM34 412v28h462l-9 -28h-453zM34 238v28h421l-9 -28h-412z" />
    <glyph glyph-name="uni2120" unicode="&#x2120;" horiz-adv-x="623" 
d="M142 314q-39 0 -68.5 15t-49.5 42l12 11q21 -28 47.5 -40.5t59.5 -12.5q37 0 60.5 18t23.5 50q0 24 -9.5 39t-25.5 25t-35.5 17t-38.5 14.5t-35 18t-25.5 27t-9.5 43.5q0 24 11.5 42.5t32.5 28.5t49 10q33 0 58.5 -12.5t43.5 -35.5l-11 -11q-17 21 -39 32.5t-52 11.5
q-34 0 -55.5 -17.5t-21.5 -48.5q0 -22 10 -36.5t26 -23.5t35 -16t38 -14.5t35 -18.5t26 -28t10 -44q0 -42 -27.5 -64t-74.5 -22zM282 319v338h12l152 -248h-11l152 248h12v-338h-16v311l4 -1l-140 -229h-13l-140 229l4 1v-311h-16z" />
    <glyph glyph-name="trademark" unicode="&#x2122;" horiz-adv-x="667" 
d="M152 319v329h16v-329h-16zM24 643v14h273v-14h-273zM326 319v338h12l152 -248h-11l152 248h12v-338h-16v311l4 -1l-140 -229h-13l-140 229l4 1v-311h-16z" />
    <glyph glyph-name="arrowleft" unicode="&#x2190;" horiz-adv-x="658" 
d="M74 323v30h515v-30h-515zM321 568l-230 -230l230 -230h-42l-230 230l230 230h42z" />
    <glyph glyph-name="arrowup" unicode="&#x2191;" horiz-adv-x="658" 
d="M314 593h30v-515h-30v515zM559 346l-230 230l-230 -230v42l230 230l230 -230v-42z" />
    <glyph glyph-name="arrowright" unicode="&#x2192;" horiz-adv-x="658" 
d="M584 353v-30h-515v30h515zM337 108l230 230l-230 230h42l230 -230l-230 -230h-42z" />
    <glyph glyph-name="arrowdown" unicode="&#x2193;" horiz-adv-x="658" 
d="M344 83h-30v515h30v-515zM99 330l230 -230l230 230v-42l-230 -230l-230 230v42z" />
    <glyph glyph-name="uni2196" unicode="&#x2196;" horiz-adv-x="658" 
d="M106 539l22 22l431 -432l-21 -21zM454 538h-325v-325l-30 29v326h326z" />
    <glyph glyph-name="uni2197" unicode="&#x2197;" horiz-adv-x="658" 
d="M530 561l22 -22l-432 -431l-21 21zM529 213v325h-325l29 30h326v-326z" />
    <glyph glyph-name="uni2198" unicode="&#x2198;" horiz-adv-x="658" 
d="M552 137l-22 -22l-431 432l21 21zM204 138h325v325l30 -29v-326h-326z" />
    <glyph glyph-name="uni2199" unicode="&#x2199;" horiz-adv-x="658" 
d="M128 115l-22 22l432 431l21 -21zM129 463v-325h325l-29 -30h-326v326z" />
    <glyph glyph-name="minus" unicode="&#x2212;" horiz-adv-x="526" 
d="M75 319v26h376v-26h-376z" />
    <glyph glyph-name="uni2215" unicode="&#x2215;" horiz-adv-x="358" 
d="M30 -40l269 750h29l-269 -750h-29z" />
    <glyph glyph-name="uni2713" unicode="&#x2713;" horiz-adv-x="715" 
d="M253 100l-221 214l19 21l220 -216h-25l416 436l21 -20l-417 -435h-13z" />
    <glyph glyph-name="T_T" horiz-adv-x="1106" 
d="M306 0v657h32v-657h-32zM49 647v29h546v-29h-546zM768 0v657h32v-657h-32zM511 647v29h546v-29h-546z" />
    <glyph glyph-name="T_h" horiz-adv-x="1096" 
d="M306 0v657h32v-657h-32zM49 647v29h596v-29h-596zM996 0v275q0 75 -43.5 121t-115.5 46q-49 0 -86.5 -21.5t-59 -58.5t-21.5 -86l-21 12q0 52 25.5 93t69 65t98.5 24t96.5 -25t64.5 -69t23 -101v-275h-30zM639 0v676h31v-676h-31z" />
    <glyph glyph-name="T_l" horiz-adv-x="750" 
d="M306 0v657h32v-657h-32zM49 647v29h606v-29h-606zM639 0v676h31v-676h-31z" />
    <glyph glyph-name="ae.ss01" horiz-adv-x="930" 
d="M716 -10q-67 0 -120.5 32t-85 87t-31.5 123q0 67 31.5 121t85 85.5t120.5 31.5q53 0 99 -21t77 -58l-325 -325l-19 22l311 311l-1 -18q-25 28 -61.5 44t-80.5 16q-58 0 -104.5 -27.5t-73.5 -74.5t-27 -107q0 -61 27 -109t73.5 -76t104.5 -28q51 0 87.5 15.5t66.5 45.5
l21 -21q-34 -34 -76.5 -51.5t-98.5 -17.5zM287 -10q-68 0 -121.5 31.5t-84.5 85.5t-31 122t31 122.5t84 86.5t120 32q53 0 95.5 -19.5t71 -55.5t39.5 -86v-157q-12 -50 -40.5 -86.5t-70 -56t-93.5 -19.5zM291 19q86 0 137 57.5t51 152.5q0 64 -23.5 111.5t-66.5 74
t-100 26.5q-60 0 -106.5 -27.5t-73.5 -75t-27 -108.5t27 -108.5t74.5 -75t107.5 -27.5zM478 0v123l9 114l-9 111v112h31v-460h-31z" />
    <glyph glyph-name="e.ss01" horiz-adv-x="501" 
d="M287 -10q-67 0 -120.5 32t-85 87t-31.5 123q0 67 31.5 121t85 85.5t120.5 31.5q53 0 99 -21t77 -58l-325 -325l-19 22l311 311l-1 -18q-25 28 -61.5 44t-80.5 16q-58 0 -104.5 -27.5t-73.5 -74.5t-27 -107q0 -61 27 -109t73.5 -76t104.5 -28q51 0 87.5 15.5t66.5 45.5
l21 -21q-34 -34 -76.5 -51.5t-98.5 -17.5z" />
    <glyph glyph-name="eacute.ss01" horiz-adv-x="501" 
d="M287 -10q-67 0 -120.5 32t-85 87t-31.5 123q0 67 31.5 121t85 85.5t120.5 31.5q53 0 99 -21t77 -58l-325 -325l-19 22l311 311l-1 -18q-25 28 -61.5 44t-80.5 16q-58 0 -104.5 -27.5t-73.5 -74.5t-27 -107q0 -61 27 -109t73.5 -76t104.5 -28q51 0 87.5 15.5t66.5 45.5
l21 -21q-34 -34 -76.5 -51.5t-98.5 -17.5zM216 537l-13 13l137 154l27 -27z" />
    <glyph glyph-name="ecaron.ss01" horiz-adv-x="501" 
d="M287 -10q-67 0 -120.5 32t-85 87t-31.5 123q0 67 31.5 121t85 85.5t120.5 31.5q53 0 99 -21t77 -58l-325 -325l-19 22l311 311l-1 -18q-25 28 -61.5 44t-80.5 16q-58 0 -104.5 -27.5t-73.5 -74.5t-27 -107q0 -61 27 -109t73.5 -76t104.5 -28q51 0 87.5 15.5t66.5 45.5
l21 -21q-34 -34 -76.5 -51.5t-98.5 -17.5zM424 704l13 -13l-137 -154h-30l-137 154l13 13l149 -138h-20z" />
    <glyph glyph-name="ecircumflex.ss01" horiz-adv-x="501" 
d="M287 -10q-67 0 -120.5 32t-85 87t-31.5 123q0 67 31.5 121t85 85.5t120.5 31.5q53 0 99 -21t77 -58l-325 -325l-19 22l311 311l-1 -18q-25 28 -61.5 44t-80.5 16q-58 0 -104.5 -27.5t-73.5 -74.5t-27 -107q0 -61 27 -109t73.5 -76t104.5 -28q51 0 87.5 15.5t66.5 45.5
l21 -21q-34 -34 -76.5 -51.5t-98.5 -17.5zM146 537l-13 13l137 154h30l137 -154l-13 -13l-149 138h20z" />
    <glyph glyph-name="edieresis.ss01" horiz-adv-x="501" 
d="M287 -10q-67 0 -120.5 32t-85 87t-31.5 123q0 67 31.5 121t85 85.5t120.5 31.5q53 0 99 -21t77 -58l-325 -325l-19 22l311 311l-1 -18q-25 28 -61.5 44t-80.5 16q-58 0 -104.5 -27.5t-73.5 -74.5t-27 -107q0 -61 27 -109t73.5 -76t104.5 -28q51 0 87.5 15.5t66.5 45.5
l21 -21q-34 -34 -76.5 -51.5t-98.5 -17.5zM199 545q-13 0 -22 10t-9 23q0 14 9 23t22 9q14 0 23.5 -9t9.5 -23q0 -13 -9.5 -23t-23.5 -10zM369 545q-13 0 -22 10t-9 23q0 14 9 23t22 9q14 0 23.5 -9t9.5 -23q0 -13 -9.5 -23t-23.5 -10z" />
    <glyph glyph-name="edotaccent.ss01" horiz-adv-x="501" 
d="M287 -10q-67 0 -120.5 32t-85 87t-31.5 123q0 67 31.5 121t85 85.5t120.5 31.5q53 0 99 -21t77 -58l-325 -325l-19 22l311 311l-1 -18q-25 28 -61.5 44t-80.5 16q-58 0 -104.5 -27.5t-73.5 -74.5t-27 -107q0 -61 27 -109t73.5 -76t104.5 -28q51 0 87.5 15.5t66.5 45.5
l21 -21q-34 -34 -76.5 -51.5t-98.5 -17.5zM284 545q-13 0 -22 10t-9 23q0 14 9 23t22 9q14 0 23.5 -9t9.5 -23q0 -13 -9.5 -23t-23.5 -10z" />
    <glyph glyph-name="egrave.ss01" horiz-adv-x="501" 
d="M287 -10q-67 0 -120.5 32t-85 87t-31.5 123q0 67 31.5 121t85 85.5t120.5 31.5q53 0 99 -21t77 -58l-325 -325l-19 22l311 311l-1 -18q-25 28 -61.5 44t-80.5 16q-58 0 -104.5 -27.5t-73.5 -74.5t-27 -107q0 -61 27 -109t73.5 -76t104.5 -28q51 0 87.5 15.5t66.5 45.5
l21 -21q-34 -34 -76.5 -51.5t-98.5 -17.5zM324 537l-151 140l27 27l137 -154z" />
    <glyph glyph-name="emacron.ss01" horiz-adv-x="501" 
d="M287 -10q-67 0 -120.5 32t-85 87t-31.5 123q0 67 31.5 121t85 85.5t120.5 31.5q53 0 99 -21t77 -58l-325 -325l-19 22l311 311l-1 -18q-25 28 -61.5 44t-80.5 16q-58 0 -104.5 -27.5t-73.5 -74.5t-27 -107q0 -61 27 -109t73.5 -76t104.5 -28q51 0 87.5 15.5t66.5 45.5
l21 -21q-34 -34 -76.5 -51.5t-98.5 -17.5zM130 591h310v-27h-310v27z" />
    <glyph glyph-name="eogonek.ss01" horiz-adv-x="501" 
d="M287 -10q-67 0 -120.5 32t-85 87t-31.5 123q0 67 31.5 121t85 85.5t120.5 31.5q53 0 99 -21t77 -58l-325 -325l-19 22l311 311l-1 -18q-25 28 -61.5 44t-80.5 16q-58 0 -104.5 -27.5t-73.5 -74.5t-27 -107q0 -61 27 -109t73.5 -76t104.5 -28q51 0 87.5 15.5t66.5 45.5
l21 -21q-34 -34 -76.5 -51.5t-98.5 -17.5zM372 -196q-35 0 -59 21t-24 60q0 32 24 71t55 69l22 -15q-35 -34 -54.5 -63.5t-19.5 -61.5q0 -31 15.5 -44.5t42.5 -13.5q14 0 25 4t24 12l12 -17q-14 -11 -30 -16.5t-33 -5.5z" />
    <glyph glyph-name="g.ss01" horiz-adv-x="478" 
d="M237 -206q-59 0 -104 22t-70.5 60.5t-25.5 89.5q0 38 13.5 68t39.5 55l21 -21q-21 -19 -32 -42.5t-11 -52.5q0 -70 46.5 -110.5t121.5 -40.5t121.5 40.5t46.5 106.5q0 45 -22 80t-59.5 55t-85.5 20q-47 0 -86.5 23t-62.5 62t-23 87t24 87.5t64 63t88 23.5
q47 0 86.5 -23.5t63 -62.5t23.5 -86q0 -45 -23 -84t-61 -62.5t-83 -23.5l-8 19q58 0 102 -22.5t69 -62.5t25 -93q0 -52 -24.5 -91.5t-69 -61.5t-104.5 -22zM240 152q40 0 72.5 19.5t51.5 52.5t19 73q0 41 -19 73.5t-51.5 52t-72.5 19.5q-41 0 -73.5 -19t-51.5 -52t-19 -74
q0 -40 19 -73t52 -52.5t73 -19.5zM362 397l-17 18l96 96l18 -18z" />
    <glyph glyph-name="k.ss01" horiz-adv-x="444" 
d="M392 -10l-288 247l271 233l19 -22l-257 -220l-1 20l276 -235zM80 0v696h31v-696h-31z" />
    <glyph glyph-name="uni0137.ss01" horiz-adv-x="444" 
d="M392 -10l-288 247l271 233l19 -22l-257 -220l-1 20l276 -235zM80 0v696h31v-696h-31zM230 -254l-24 13l46 95l14 2q-2 -7 -8 -11.5t-16 -4.5q-15 0 -26.5 11t-11.5 27q0 17 12.5 29t29.5 12q16 0 28 -12t12 -29q0 -7 -1.5 -16.5t-9.5 -25.5z" />
    <glyph glyph-name="m.ss01" horiz-adv-x="825" 
d="M70 0v283q0 60 23.5 101.5t64.5 63.5t91 22q63 0 107.5 -34t57.5 -96h-5q15 63 60 96.5t107 33.5q51 0 91.5 -22t64 -63.5t23.5 -101.5v-283h-31v282q0 77 -42 118.5t-106 41.5t-106 -41.5t-42 -118.5v-282h-31v282q0 77 -42 118.5t-106 41.5t-106 -41.5t-42 -118.5v-282
h-31z" />
    <glyph glyph-name="n.ss01" horiz-adv-x="522" 
d="M69 0v268q0 60 24 105.5t67.5 71t100.5 25.5q58 0 101 -25.5t67 -71t24 -105.5v-268h-31v267q0 77 -43.5 126t-117.5 49q-73 0 -117 -49t-44 -126v-267h-31z" />
    <glyph glyph-name="nacute.ss01" horiz-adv-x="522" 
d="M69 0v268q0 60 24 105.5t67.5 71t100.5 25.5q58 0 101 -25.5t67 -71t24 -105.5v-268h-31v267q0 77 -43.5 126t-117.5 49q-73 0 -117 -49t-44 -126v-267h-31zM192 537l-13 13l137 154l27 -27z" />
    <glyph glyph-name="ncaron.ss01" horiz-adv-x="522" 
d="M69 0v268q0 60 24 105.5t67.5 71t100.5 25.5q58 0 101 -25.5t67 -71t24 -105.5v-268h-31v267q0 77 -43.5 126t-117.5 49q-73 0 -117 -49t-44 -126v-267h-31zM400 704l13 -13l-137 -154h-30l-137 154l13 13l149 -138h-20z" />
    <glyph glyph-name="uni0146.ss01" horiz-adv-x="522" 
d="M69 0v268q0 60 24 105.5t67.5 71t100.5 25.5q58 0 101 -25.5t67 -71t24 -105.5v-268h-31v267q0 77 -43.5 126t-117.5 49q-73 0 -117 -49t-44 -126v-267h-31zM246 -254l-24 13l46 95l14 2q-2 -7 -8 -11.5t-16 -4.5q-15 0 -26.5 11t-11.5 27q0 17 12.5 29t29.5 12
q16 0 28 -12t12 -29q0 -7 -1.5 -16.5t-9.5 -25.5z" />
    <glyph glyph-name="ntilde.ss01" horiz-adv-x="522" 
d="M69 0v268q0 60 24 105.5t67.5 71t100.5 25.5q58 0 101 -25.5t67 -71t24 -105.5v-268h-31v267q0 77 -43.5 126t-117.5 49q-73 0 -117 -49t-44 -126v-267h-31zM335 546q-30 0 -51.5 11t-42.5 21.5t-48 10.5q-28 0 -43 -10.5t-27 -28.5l-19 16q14 22 34.5 36t54.5 14
q33 0 55.5 -10.5t42.5 -21.5t44 -11q23 0 37.5 10.5t26.5 28.5l19 -16q-14 -22 -34 -36t-49 -14z" />
    <glyph glyph-name="eng.ss01" horiz-adv-x="522" 
d="M323 -206q-31 0 -58.5 11.5t-47.5 32.5l21 21q19 -19 40.5 -28t45.5 -9q41 0 69.5 24t28.5 77v278h31v-277q0 -43 -18 -72t-47.5 -43.5t-64.5 -14.5zM69 0v268q0 60 24 105.5t67.5 71t100.5 25.5q58 0 101 -25.5t67 -71t24 -105.5v-268h-31v267q0 77 -43.5 126t-117.5 49
q-73 0 -117 -49t-44 -126v-267h-31z" />
    <glyph glyph-name="oe.ss01" horiz-adv-x="942" 
d="M287 -10q-67 0 -120.5 32t-85 87t-31.5 123q0 67 31.5 121t85 85.5t120.5 31.5q66 0 119.5 -31.5t85 -85.5t31.5 -121q0 -69 -31.5 -123.5t-85 -86.5t-119.5 -32zM287 19q58 0 104 28t73 76.5t27 109.5q0 59 -27 106t-73 74.5t-104 27.5t-104.5 -27.5t-73.5 -74.5
t-27 -107q0 -61 27 -109t73.5 -76t104.5 -28zM728 -10q-67 0 -120.5 32t-85 87t-31.5 123q0 67 31.5 121t85 85.5t120.5 31.5q53 0 99 -21t77 -58l-325 -325l-19 22l311 311l-1 -18q-25 28 -61.5 44t-80.5 16q-58 0 -104.5 -27.5t-73.5 -74.5t-27 -107q0 -61 27 -109
t73.5 -76t104.5 -28q51 0 87.5 15.5t66.5 45.5l21 -21q-34 -34 -76.5 -51.5t-98.5 -17.5z" />
    <glyph glyph-name="t.ss01" horiz-adv-x="420" 
d="M280 -10q-38 0 -67 15.5t-44.5 45t-15.5 71.5v534h32v-530q0 -52 23 -80t71 -28q24 0 44.5 9t39.5 28l21 -21q-20 -21 -46 -32.5t-58 -11.5zM31 433v27h343v-27h-343z" />
    <glyph glyph-name="tcaron.ss01" horiz-adv-x="420" 
d="M280 -10q-38 0 -67 15.5t-44.5 45t-15.5 71.5v534h32v-530q0 -52 23 -80t71 -28q24 0 44.5 9t39.5 28l21 -21q-20 -21 -46 -32.5t-58 -11.5zM31 433v27h343v-27h-343zM259 495l-24 13l46 95l14 2q-2 -7 -8 -11.5t-16 -4.5q-15 0 -26.5 11t-11.5 27q0 17 12.5 29t29.5 12
q16 0 28 -12t12 -29q0 -7 -1.5 -16.5t-9.5 -25.5z" />
    <glyph glyph-name="uni021B.ss01" horiz-adv-x="420" 
d="M280 -10q-38 0 -67 15.5t-44.5 45t-15.5 71.5v534h32v-530q0 -52 23 -80t71 -28q24 0 44.5 9t39.5 28l21 -21q-20 -21 -46 -32.5t-58 -11.5zM31 433v27h343v-27h-343zM223 -254l-24 13l46 95l14 2q-2 -7 -8 -11.5t-16 -4.5q-15 0 -26.5 11t-11.5 27q0 17 12.5 29t29.5 12
q16 0 28 -12t12 -29q0 -7 -1.5 -16.5t-9.5 -25.5z" />
    <glyph glyph-name="f_t" horiz-adv-x="599" 
d="M153 0v556q0 44 18.5 77.5t51.5 52.5t75 19l-1 -28q-53 0 -82.5 -34t-29.5 -91v-552h-32zM31 433v27h537v-27h-537zM415 0v656h32v-656h-32z" />
    <glyph glyph-name="r_f" horiz-adv-x="669" 
d="M80 0v460h31v-460h-31zM436 0v556q0 44 19 77.5t51.5 52.5t74.5 19q32 0 59 -11.5t47 -32.5l-21 -21q-19 20 -40.5 28.5t-45.5 8.5q-53 0 -82.5 -34t-29.5 -91v-552h-32zM111 271l-21 6q0 88 50.5 135.5t142.5 47.5h354v-27h-359q-83 0 -125 -43t-42 -119z" />
    <glyph glyph-name="r_t" horiz-adv-x="620" 
d="M80 0v460h31v-460h-31zM111 271l-21 6q0 88 50.5 135.5t142.5 47.5h306v-27h-311q-83 0 -125 -43t-42 -119zM436 0v656h32v-656h-32z" />
    <glyph glyph-name="t_f" horiz-adv-x="648" 
d="M153 0v656h32v-656h-32zM31 433v27h585v-27h-585zM415 0v556q0 44 19 77.5t51.5 52.5t74.5 19q32 0 59 -11.5t47 -32.5l-21 -21q-19 20 -40.5 28.5t-45.5 8.5q-53 0 -82.5 -34t-29.5 -91v-552h-32z" />
    <glyph glyph-name="one.ss01" horiz-adv-x="321" 
d="M190 0v647l14 29h17v-676h-31zM68 498l-19 19l155 159l-13 -49z" />
    <glyph glyph-name="zero.tf" horiz-adv-x="590" 
d="M296 -10q-70 0 -127.5 43t-92 121.5t-34.5 184.5q0 107 34 184.5t91.5 120t127.5 42.5t127.5 -42.5t91.5 -120.5t34 -185q0 -106 -34 -184.5t-91 -121t-127 -42.5zM295 20q62 0 112 38.5t79.5 110t29.5 170.5q0 98 -29.5 169t-79.5 109.5t-112 38.5t-112 -38.5
t-79.5 -109.5t-29.5 -169q0 -99 29.5 -170.5t79.5 -110t112 -38.5z" />
    <glyph glyph-name="one.tf" horiz-adv-x="590" 
d="M306 0v676h31v-676h-31zM88 648v28h234v-28h-234zM88 0v28h424v-28h-424z" />
    <glyph glyph-name="two.tf" horiz-adv-x="590" 
d="M67 22l259 258q59 59 88.5 96t40 66t10.5 62q0 71 -45 111.5t-122 40.5q-64 0 -111.5 -27.5t-84.5 -80.5l-24 23q41 56 95 85.5t125 29.5q61 0 105.5 -22.5t69 -63.5t24.5 -98q0 -38 -12 -70.5t-42.5 -71.5t-88.5 -96l-241 -239zM67 0v22l21 6h430v-28h-451z" />
    <glyph glyph-name="three.tf" horiz-adv-x="590" 
d="M280 -10q-65 0 -119.5 26t-91.5 75l21 21q31 -44 80 -68.5t110 -24.5q58 0 102 22t69 62.5t25 93.5q0 54 -25 94.5t-69.5 63t-103.5 22.5q-16 0 -33.5 -2t-37.5 -7l6 16q12 11 30 15.5t43 4.5q64 0 114 -27t79 -74t29 -106q0 -61 -29.5 -107.5t-81 -73t-117.5 -26.5z
M207 368v22l259 272l34 -8l-261 -273zM96 648v28h404v-22l-29 -6h-375z" />
    <glyph glyph-name="four.tf" horiz-adv-x="590" 
d="M48 206l262 470h35l-266 -470h-31zM48 184v22l13 6h482v-28h-495zM406 0v460h31v-460h-31z" />
    <glyph glyph-name="five.tf" horiz-adv-x="590" 
d="M279 -10q-65 0 -118 26t-90 75l21 21q31 -44 78.5 -68.5t108.5 -24.5q58 0 102.5 23t70 64t25.5 96q0 56 -24.5 98t-68.5 65.5t-101 23.5q-46 0 -88 -14t-71 -40l-6 23q21 20 47 32.5t55.5 19t62.5 6.5q67 0 117.5 -27.5t79.5 -76t29 -111.5q0 -62 -30 -109.5t-82 -74.5
t-118 -27zM124 335l-15 16l30 325h31l-32 -325zM157 648l-18 28h346v-28h-328z" />
    <glyph glyph-name="six.tf" horiz-adv-x="590" 
d="M294 -10q-63 0 -115 30t-82.5 81t-30.5 114q0 80 55 150l245 311h39l-226 -280l-10 5q18 13 39 22t44.5 14t46.5 5q62 0 113 -31t81.5 -82t30.5 -113t-31 -113.5t-83 -82t-116 -30.5zM295 17q54 0 98.5 27.5t71.5 72.5t27 99t-27 99.5t-71.5 72.5t-98.5 27t-99 -26.5
t-71.5 -71.5t-26.5 -101q0 -55 26.5 -100.5t71.5 -72t99 -26.5z" />
    <glyph glyph-name="seven.tf" horiz-adv-x="590" 
d="M209 0l284 664l28 -10l-279 -654h-33zM66 648v28h455v-22l-15 -6h-440z" />
    <glyph glyph-name="eight.tf" horiz-adv-x="590" 
d="M295 -10q-63 0 -113.5 26t-80 70.5t-29.5 100.5q0 44 18.5 82.5t51.5 65t76 35.5l19 -10q-40 11 -69.5 34t-45.5 55.5t-16 70.5q0 49 24.5 86t67 58.5t97.5 21.5t97.5 -21.5t67 -58.5t24.5 -86q0 -38 -16 -70.5t-45 -55.5t-70 -34l19 10q43 -9 76 -35.5t51.5 -65
t18.5 -82.5q0 -56 -29.5 -100.5t-79.5 -70.5t-114 -26zM295 17q56 0 99 21.5t67.5 60t24.5 88.5q0 49 -24.5 87t-67.5 60t-99 22q-55 0 -98.5 -22t-68 -60t-24.5 -87q0 -50 24.5 -88.5t67.5 -60t99 -21.5zM295 379q69 0 113 39t44 102q0 62 -44 100.5t-113 38.5t-113 -38.5
t-44 -100.5q0 -63 44 -102t113 -39z" />
    <glyph glyph-name="nine.tf" horiz-adv-x="590" 
d="M185 0l226 280l10 -5q-18 -13 -39 -22t-44 -14t-47 -5q-61 0 -112.5 31t-82 82.5t-30.5 112.5q0 63 31 114t83.5 81.5t115.5 30.5q64 0 115.5 -30t82 -81t30.5 -114q0 -80 -55 -150l-245 -311h-39zM295 261q55 0 99.5 26.5t71 72t26.5 100.5q0 56 -26.5 101t-71 71.5
t-99.5 26.5q-54 0 -98.5 -27t-71.5 -72.5t-27 -99.5t27 -99t71.5 -72.5t98.5 -27.5z" />
    <glyph glyph-name="ampersand.ss01" horiz-adv-x="606" 
d="M294 -10q-70 0 -122 25.5t-80.5 70t-28.5 101.5q0 68 40.5 118.5t112.5 68.5l16 -12q-35 3 -66 24t-50.5 56t-19.5 78q0 47 23.5 84.5t67 59.5t103.5 22q61 0 104 -26.5t69 -67.5l-20 -20q-25 38 -62.5 62.5t-89.5 24.5q-78 0 -120.5 -39.5t-42.5 -100.5q0 -35 17 -67.5
t47.5 -52.5t70.5 -20v-23q-46 0 -84 -21.5t-61 -60t-23 -89.5q0 -49 25.5 -87t70.5 -59.5t103 -21.5q59 0 103.5 21.5t70 59.5t25.5 87q0 51 -22.5 88t-58.5 57.5t-78 19.5l42 23q48 -13 81 -39.5t50.5 -63.5t17.5 -83q0 -57 -28.5 -101.5t-80.5 -70t-122 -25.5zM334 350v29
h239v-29h-239z" />
    <glyph glyph-name="uni030C.alt" horiz-adv-x="0" 
d="M116 287l-24 13l46 95l14 2q-2 -7 -8 -11.5t-16 -4.5q-15 0 -26.5 11t-11.5 27q0 17 12.5 29t29.5 12q16 0 28 -12t12 -29q0 -7 -1.5 -16.5t-9.5 -25.5z" />
    </font>
</defs>
</svg>
