<?xml version="1.0" standalone="no"?>
<!DOCTYPE svg PUBLIC "-//W3C//DTD SVG 1.1//EN" "http://www.w3.org/Graphics/SVG/1.1/DTD/svg11.dtd" >
<svg xmlns="http://www.w3.org/2000/svg" xmlns:xlink="http://www.w3.org/1999/xlink" version="1.1">
<metadata>
Created by FontForge 20201107 at Fri Mar 17 16:10:02 2023
 By 
Copyright 2021 The Outfit Project Authors (https://github.com/Outfitio/Outfit-Fonts)
</metadata>
<defs>
<font id="Outfit-SemiBold" horiz-adv-x="0" >
  <font-face 
    font-family="Outfit SemiBold"
    font-weight="600"
    font-stretch="normal"
    units-per-em="1000"
    panose-1="0 0 0 0 0 0 0 0 0 0"
    ascent="800"
    descent="-200"
    x-height="483"
    cap-height="703"
    bbox="-130 -382 3739 1009"
    underline-thickness="50"
    underline-position="-125"
    unicode-range="U+000D-FB02"
  />
<missing-glyph horiz-adv-x="683" 
d="M71 0v703h540v-703h-540zM187 116h307v471h-307v-471zM211 431l51 52l210 -210l-52 -52zM424 488l53 -53l-219 -219l-53 53z" />
    <glyph glyph-name="fi" unicode="fi" horiz-adv-x="615" 
d="M122 0v550q0 52 23 93.5t64.5 66t98.5 24.5q36 0 64.5 -11t54.5 -32l-75 -92q-9 7 -19.5 10.5t-24.5 3.5q-26 0 -40.5 -15.5t-14.5 -42.5v-555h-131zM10 368v115h479v-115h-479zM426 0v483h131v-483h-131zM491 522q-31 0 -51.5 21t-20.5 52t20.5 52t51.5 21q32 0 52 -21
t20 -52t-20 -52t-52 -21z" />
    <glyph glyph-name="fl" unicode="fl" horiz-adv-x="610" 
d="M122 0v528q0 55 25.5 102t74 75.5t115.5 28.5l-1 -121q-40 0 -61.5 -24t-21.5 -58v-531h-131zM10 368v115h467v-115h-467zM421 0v723h131v-723h-131z" />
    <glyph glyph-name="f_f" unicode="ff" horiz-adv-x="718" 
d="M122 0v514q0 61 25.5 108t73 74.5t111.5 27.5t105.5 -27t62 -71.5t20.5 -98.5l-99 -8q0 42 -21.5 65.5t-62.5 23.5t-62.5 -23t-21.5 -63v-522h-131zM10 368v115h685v-115h-685zM421 0v535q0 57 25 102t71 71t108 26q47 0 81 -16t61 -44l-83 -84q-11 11 -24 17t-33 6
q-36 0 -55.5 -19.5t-19.5 -55.5v-538h-131z" />
    <glyph glyph-name="f_j" unicode="fj" horiz-adv-x="612" 
d="M122 0v550q0 52 23 93.5t64.5 66t98.5 24.5q36 0 64.5 -11t54.5 -32l-75 -92q-9 7 -19.5 10.5t-24.5 3.5q-26 0 -40.5 -15.5t-14.5 -42.5v-555h-131zM10 368v115h479v-115h-479zM376 -214q-52 0 -86.5 17t-62.5 48l83 83q12 -15 25.5 -21.5t31.5 -6.5q25 0 42 15t17 44
v518h131v-516q0 -57 -24.5 -97.5t-65 -62t-91.5 -21.5zM491 522q-31 0 -51.5 21t-20.5 52t20.5 52t51.5 21q32 0 52 -21t20 -52t-20 -52t-52 -21z" />
    <glyph glyph-name="o_u_t_f_i_t" unicode="outfit" horiz-adv-x="2390" 
d="M285 -10q-73 0 -131.5 33.5t-93 91t-34.5 128.5t34 127.5t93 90t131 33.5q74 0 132.5 -33.5t92.5 -90t34 -127.5t-34 -128.5t-92.5 -91t-131.5 -33.5zM284 112q37 0 65.5 16.5t44 46t15.5 67.5t-16 67t-44 45.5t-65 16.5q-36 0 -64 -16.5t-44 -45.5t-16 -67t16 -67.5
t44 -46t64 -16.5zM833 -10q-64 0 -113.5 27t-77 75t-27.5 111v280h131v-277q0 -30 10.5 -51.5t30 -32.5t46.5 -11q41 0 64 25t23 70v277h131v-280q0 -64 -27.5 -112t-76.5 -74.5t-114 -26.5zM994 368v115h1380v-115h-1380zM1205 0v684h132v-684h-132zM1504 0v550
q0 52 23 93.5t65.5 66t98.5 24.5q36 0 64 -11t54 -32l-74 -92q-10 7 -20.5 10.5t-23.5 3.5q-27 0 -41 -15.5t-14 -42.5v-555h-132zM1808 0v483h132v-483h-132zM1874 520q-30 0 -50 21t-20 50q0 30 20 50.5t50 20.5t50 -20.5t20 -50.5q0 -29 -20 -50t-50 -21zM2107 0v684h132
v-684h-132z" />
    <glyph glyph-name="o_u_t_f_i_t_t_e_d" unicode="outfitted" horiz-adv-x="3796" 
d="M285 -10q-73 0 -131.5 33.5t-93 91t-34.5 128.5t34 127.5t93 90t131 33.5q74 0 132.5 -33.5t92.5 -90t34 -127.5t-34 -128.5t-92.5 -91t-131.5 -33.5zM284 112q37 0 65.5 16.5t44 46t15.5 67.5t-16 67t-44 45.5t-65 16.5q-36 0 -64 -16.5t-44 -45.5t-16 -67t16 -67.5
t44 -46t64 -16.5zM833 -10q-64 0 -113.5 27t-77 75t-27.5 111v280h131v-277q0 -30 10.5 -51.5t30 -32.5t46.5 -11q41 0 64 25t23 70v277h131v-280q0 -64 -27.5 -112t-76.5 -74.5t-114 -26.5zM1205 0v684h132v-684h-132zM1504 0v550q0 52 23 93.5t65.5 66t98.5 24.5
q36 0 64 -11t54 -32l-74 -92q-10 7 -20.5 10.5t-23.5 3.5q-27 0 -41 -15.5t-14 -42.5v-555h-132zM1808 0v483h132v-483h-132zM994 368v115h1679v-115h-1679zM1874 520q-30 0 -50 21t-20 50q0 30 20 50.5t50 20.5t50 -20.5t20 -50.5q0 -29 -20 -50t-50 -21zM2107 0v684h132
v-684h-132zM2406 0v684h132v-684h-132zM2957 -10q-76 0 -135 32.5t-93.5 89.5t-34.5 130q0 72 33.5 128.5t91.5 90t129 33.5q70 0 123.5 -31.5t84 -86t30.5 -123.5q0 -13 -1.5 -26.5t-5.5 -30.5l-406 -1v98l345 1l-53 -41q-2 43 -15.5 72t-39 44.5t-62.5 15.5
q-39 0 -68 -17.5t-44.5 -49t-15.5 -74.5q0 -44 16.5 -76.5t47.5 -50t72 -17.5q37 0 67 12.5t52 37.5l77 -77q-35 -41 -85.5 -62t-109.5 -21zM3470 -10q-67 0 -120 33t-83.5 90t-30.5 128q0 72 30.5 129t83.5 90t120 33q53 0 94.5 -21t67 -58.5t27.5 -84.5v-172
q-2 -47 -27 -85t-67 -60t-95 -22zM3493 111q37 0 64.5 16.5t42.5 46t15 68.5q0 38 -15 67.5t-42.5 46t-64.5 16.5q-36 0 -63.5 -16.5t-43.5 -46t-16 -67.5q0 -39 16 -68.5t43.5 -46t63.5 -16.5zM3609 0v130l21 118l-23 116v359h132v-723h-130z" />
    <glyph glyph-name="o_u_t_f_i_t_t_e_r" unicode="outfitter" horiz-adv-x="3643" 
d="M285 -10q-73 0 -131.5 33.5t-93 91t-34.5 128.5t34 127.5t93 90t131 33.5q74 0 132.5 -33.5t92.5 -90t34 -127.5t-34 -128.5t-92.5 -91t-131.5 -33.5zM284 112q37 0 65.5 16.5t44 46t15.5 67.5t-16 67t-44 45.5t-65 16.5q-36 0 -64 -16.5t-44 -45.5t-16 -67t16 -67.5
t44 -46t64 -16.5zM833 -10q-64 0 -113.5 27t-77 75t-27.5 111v280h131v-277q0 -30 10.5 -51.5t30 -32.5t46.5 -11q41 0 64 25t23 70v277h131v-280q0 -64 -27.5 -112t-76.5 -74.5t-114 -26.5zM1205 0v684h132v-684h-132zM1504 0v550q0 52 23 93.5t65.5 66t98.5 24.5
q36 0 64 -11t54 -32l-74 -92q-10 7 -20.5 10.5t-23.5 3.5q-27 0 -41 -15.5t-14 -42.5v-555h-132zM1808 0v483h132v-483h-132zM994 368v115h1679v-115h-1679zM1874 520q-30 0 -50 21t-20 50q0 30 20 50.5t50 20.5t50 -20.5t20 -50.5q0 -29 -20 -50t-50 -21zM2107 0v684h132
v-684h-132zM2406 0v684h132v-684h-132zM2957 -10q-76 0 -135 32.5t-93.5 89.5t-34.5 130q0 72 33.5 128.5t91.5 90t129 33.5q70 0 123.5 -31.5t84 -86t30.5 -123.5q0 -13 -1.5 -26.5t-5.5 -30.5l-406 -1v98l345 1l-53 -41q-2 43 -15.5 72t-39 44.5t-62.5 15.5
q-39 0 -68 -17.5t-44.5 -49t-15.5 -74.5q0 -44 16.5 -76.5t47.5 -50t72 -17.5q37 0 67 12.5t52 37.5l77 -77q-35 -41 -85.5 -62t-109.5 -21zM3266 0v483h132v-483h-132zM3398 267l-51 34q9 89 52 140.5t124 51.5q35 0 63 -11.5t50 -37.5l-81 -94q-12 12 -27 18t-36 6
q-42 0 -68 -26t-26 -81z" />
    <glyph glyph-name="t_t" unicode="tt" horiz-adv-x="688" 
d="M129 0v684h131v-684h-131zM16 368v115h656v-115h-656zM428 0v684h131v-684h-131z" />
    <glyph glyph-name=".notdef" horiz-adv-x="683" 
d="M71 0v703h540v-703h-540zM187 116h307v471h-307v-471zM211 431l51 52l210 -210l-52 -52zM424 488l53 -53l-219 -219l-53 53z" />
    <glyph glyph-name=".null" 
 />
    <glyph glyph-name="nonmarkingreturn" horiz-adv-x="333" 
 />
    <glyph glyph-name="CR" unicode="&#xd;" horiz-adv-x="600" 
 />
    <glyph glyph-name="space" unicode=" " horiz-adv-x="195" 
 />
    <glyph glyph-name="exclam" unicode="!" horiz-adv-x="274" 
d="M84 245l-20 478h140l-20 -478h-100zM134 -10q-36 0 -59 24t-23 59t23 59t59 24t59 -24t23 -59t-23 -59t-59 -24z" />
    <glyph glyph-name="quotedbl" unicode="&#x22;" horiz-adv-x="441" 
d="M277 442l-26 281h133l-26 -281h-81zM83 442l-26 281h134l-27 -281h-81z" />
    <glyph glyph-name="numbersign" unicode="#" horiz-adv-x="652" 
d="M322 0l114 703h108l-113 -703h-109zM39 206v98h541v-98h-541zM101 0l114 703h108l-113 -703h-109zM71 414v98h542v-98h-542z" />
    <glyph glyph-name="dollar" unicode="$" horiz-adv-x="594" 
d="M286 -10q-79 0 -137.5 29t-106.5 87l88 89q31 -41 70.5 -65.5t92.5 -24.5q54 0 85 22t31 62q0 32 -18 52t-47.5 34t-64.5 25.5t-70 26.5t-64.5 37.5t-47 58t-17.5 89.5q0 64 30.5 109t84 69t121.5 24q66 0 122 -27t93 -70l-89 -89q-30 34 -61.5 52t-67.5 18
q-49 0 -76 -18.5t-27 -56.5q0 -29 18 -47t47.5 -31t65 -25t71 -27t65 -39t47.5 -61.5t18 -92.5q0 -98 -68.5 -154t-187.5 -56zM262 -100v904h95v-904h-95z" />
    <glyph glyph-name="percent" unicode="%" horiz-adv-x="671" 
d="M56 0l436 703h124l-436 -703h-124zM489 -10q-40 0 -73 19.5t-52.5 52t-19.5 73.5t19.5 73t52 51.5t73.5 19.5t74 -19.5t52.5 -51.5t19.5 -73t-19.5 -73.5t-52 -52t-74.5 -19.5zM489 85q22 0 36 14t14 36q0 21 -14.5 35t-35.5 14t-34.5 -14t-13.5 -35q0 -22 13.5 -36
t34.5 -14zM181 424q-39 0 -72.5 19.5t-52.5 52.5t-19 73q0 41 19 73t52 51.5t73 19.5q41 0 74.5 -19.5t52.5 -51.5t19 -73q0 -40 -19.5 -73t-52 -52.5t-74.5 -19.5zM181 519q23 0 36 14t13 36t-13.5 36t-35.5 14q-21 0 -34 -14t-13 -36t13 -36t34 -14z" />
    <glyph glyph-name="ampersand" unicode="&#x26;" horiz-adv-x="680" 
d="M518 0l-328 360q-37 41 -55 78.5t-18 82.5q0 53 26.5 97t73 70t106.5 26q47 0 84 -14.5t64.5 -37.5t44.5 -49l-90 -84q-21 29 -45 45.5t-56 16.5q-34 0 -57 -20t-23 -50q0 -28 12 -47.5t33 -44.5l383 -429h-155zM283 -10q-72 0 -125.5 28t-83 76.5t-29.5 110.5
q0 64 34.5 115t102.5 83l59 -84q-34 -16 -51.5 -42.5t-17.5 -65.5q0 -30 14 -52.5t40 -35t60 -12.5q43 0 72 18t46 46l88 -96q-20 -24 -52 -44t-72 -32.5t-85 -12.5z" />
    <glyph glyph-name="quotesingle" unicode="'" horiz-adv-x="246" 
d="M83 442l-27 281h134l-27 -281h-80z" />
    <glyph glyph-name="parenleft" unicode="(" horiz-adv-x="304" 
d="M211 -123q-54 48 -93.5 116.5t-60.5 150t-21 169.5q0 89 21 170.5t60.5 150t93.5 116.5l74 -68q-65 -62 -100.5 -156t-35.5 -213q0 -118 35.5 -212t100.5 -156z" />
    <glyph glyph-name="parenright" unicode=")" horiz-adv-x="304" 
d="M93 -123l-73 68q65 62 100 156t35 212q0 119 -35 213t-100 156l73 68q55 -48 94 -116.5t60.5 -150t21.5 -170.5q0 -88 -21.5 -169.5t-60.5 -150t-94 -116.5z" />
    <glyph glyph-name="asterisk" unicode="*" horiz-adv-x="490" 
d="M217 318l-3 158l-126 -88l-51 99l144 51l-120 91l79 79l91 -120l50 145l100 -51l-88 -127l156 -3l-18 -111l-148 46l45 -150z" />
    <glyph glyph-name="plus" unicode="+" horiz-adv-x="555" 
d="M51 278v114h453v-114h-453zM220 573h116v-475h-116v475z" />
    <glyph glyph-name="comma" unicode="," horiz-adv-x="280" 
d="M57 -119l71 132l41 11q-7 -13 -16 -22t-21 -9q-25 0 -47 22t-22 55q0 36 24 61t60 25q33 0 58 -25t25 -61q0 -14 -6 -33.5t-22 -49.5l-77 -142z" />
    <glyph glyph-name="hyphen" unicode="-" horiz-adv-x="462" 
d="M58 196v119h346v-119h-346z" />
    <glyph glyph-name="period" unicode="." horiz-adv-x="295" 
d="M148 -10q-36 0 -59 24t-23 59t23 59t59 24q35 0 58 -24t23 -59t-23 -59t-58 -24z" />
    <glyph glyph-name="slash" unicode="/" horiz-adv-x="393" 
d="M6 -47l263 795h118l-263 -795h-118z" />
    <glyph glyph-name="zero" unicode="0" horiz-adv-x="660" 
d="M332 -10q-83 0 -150 45t-106.5 127t-39.5 191t39 190t105.5 126t148.5 45q84 0 150.5 -45t105.5 -126.5t39 -191.5q0 -109 -39 -190.5t-105 -126t-148 -44.5zM330 113q48 0 83 27t54.5 80t19.5 132t-19.5 132t-55 79.5t-83.5 26.5q-47 0 -82 -26.5t-54.5 -79
t-19.5 -131.5q0 -80 19.5 -133t54.5 -80t83 -27z" />
    <glyph glyph-name="one" unicode="1" horiz-adv-x="367" 
d="M161 0v703h134v-703h-134zM23 585v118h262v-118h-262z" />
    <glyph glyph-name="two" unicode="2" horiz-adv-x="553" 
d="M26 78l265 277q28 30 45.5 53.5t25.5 45t8 43.5q0 44 -28.5 69t-73.5 25q-46 0 -81.5 -24t-66.5 -76l-93 79q42 71 104.5 107.5t143.5 36.5q69 0 120.5 -27t79.5 -75t28 -112q0 -43 -10.5 -78t-35 -69.5t-67.5 -77.5l-193 -197h-171zM26 0v78l116 40h376v-118h-492z" />
    <glyph glyph-name="three" unicode="3" horiz-adv-x="550" 
d="M249 -10q-71 0 -130 25.5t-99 73.5l90 89q20 -30 57 -48t80 -18q40 0 69 14.5t45.5 41t16.5 61.5q0 37 -16.5 63t-47.5 40t-74 14q-19 0 -39 -2.5t-34 -7.5l60 76q25 8 49.5 13.5t45.5 5.5q54 0 97.5 -25.5t69 -72t25.5 -109.5q0 -70 -33 -122.5t-92.5 -82t-139.5 -29.5z
M167 336v78l180 209l156 2l-186 -213zM59 585v118h444v-78l-111 -40h-333z" />
    <glyph glyph-name="four" unicode="4" horiz-adv-x="604" 
d="M25 248l240 455h150l-246 -455h-144zM25 168v80l50 39h504v-119h-554zM357 0v448h134v-448h-134z" />
    <glyph glyph-name="five" unicode="5" horiz-adv-x="553" 
d="M250 -10q-73 0 -133 25.5t-100 73.5l90 89q20 -30 57.5 -48t82.5 -18q41 0 71.5 15t48 42.5t17.5 64.5q0 39 -17.5 66t-46.5 41t-65 14q-38 0 -68.5 -9.5t-58.5 -30.5l8 86q19 20 40 32.5t47.5 19t62.5 6.5q77 0 128.5 -31.5t78.5 -84t27 -115.5q0 -69 -34 -123
t-94.5 -84.5t-141.5 -30.5zM128 315l-65 64l32 324h123l-36 -329zM116 585l-21 118h386v-118h-365z" />
    <glyph glyph-name="six" unicode="6" horiz-adv-x="568" 
d="M284 -10q-72 0 -129.5 32.5t-91 88t-33.5 123.5q0 93 64 187l195 282h156l-213 -298l-50 -14q11 23 26.5 40t40.5 26t63 9q63 0 114 -29.5t82 -81t31 -118.5q0 -69 -34 -125t-92 -89t-129 -33zM284 112q35 0 62 16.5t43 45t16 64.5t-16 64.5t-43 44.5t-62 16t-62.5 -16.5
t-43 -44.5t-15.5 -64t15.5 -64.5t43 -45t62.5 -16.5z" />
    <glyph glyph-name="seven" unicode="7" horiz-adv-x="525" 
d="M120 0l247 624h134l-240 -624h-141zM23 585v118h478v-79l-51 -39h-427z" />
    <glyph glyph-name="eight" unicode="8" horiz-adv-x="555" 
d="M278 -10q-75 0 -129.5 26t-85 73t-30.5 106q0 49 19 89t54.5 67.5t83.5 38.5l-3 -33q-40 10 -68 35t-42 59.5t-14 71.5q0 57 27.5 100t76 67t111.5 24t111 -24t75.5 -67t27.5 -100q0 -37 -14 -71.5t-41.5 -59.5t-68.5 -35l-3 33q49 -11 84 -38.5t54 -67.5t19 -89
q0 -59 -30 -106t-85 -73t-129 -26zM278 109q33 0 59 13.5t40.5 37.5t14.5 54q0 31 -14.5 54.5t-40.5 37t-59 13.5q-34 0 -59.5 -13.5t-40.5 -37t-15 -54.5q0 -30 15 -54t40.5 -37.5t59.5 -13.5zM278 422q39 0 64 25t25 64q0 40 -25 65t-64 25t-64.5 -25t-25.5 -64
q0 -40 25.5 -65t64.5 -25z" />
    <glyph glyph-name="nine" unicode="9" horiz-adv-x="568" 
d="M123 0l214 298l49 15q-12 -23 -27.5 -40.5t-39.5 -26.5t-63 -9q-62 0 -113.5 29.5t-82.5 81.5t-31 119q0 68 34 124.5t92 89.5t129 33q72 0 129.5 -33t91 -88t33.5 -123q0 -93 -65 -188l-195 -282h-155zM284 341q35 0 62 16t42.5 44.5t15.5 63.5q0 37 -15.5 65
t-42.5 44.5t-62 16.5t-62.5 -16.5t-43 -44.5t-15.5 -65q0 -36 15.5 -64t43.5 -44t62 -16z" />
    <glyph glyph-name="colon" unicode=":" horiz-adv-x="281" 
d="M140 -10q-36 0 -59 24t-23 58q0 36 23 60t59 24t59 -24t23 -60q0 -34 -23 -58t-59 -24zM140 292q-36 0 -59 24t-23 59q0 36 23 59.5t59 23.5t59 -23.5t23 -59.5q0 -35 -23 -59t-59 -24z" />
    <glyph glyph-name="semicolon" unicode=";" horiz-adv-x="275" 
d="M53 -119l70 132l41 11q-6 -13 -15 -22t-21 -9q-26 0 -48 22t-22 55q0 35 24.5 60.5t59.5 25.5q33 0 58 -25t25 -61q0 -14 -5.5 -33.5t-21.5 -49.5l-78 -142zM138 292q-35 0 -58.5 24t-23.5 59q0 36 23.5 59.5t58.5 23.5q36 0 59 -23.5t23 -59.5q0 -35 -23 -59t-59 -24z
" />
    <glyph glyph-name="less" unicode="&#x3c;" horiz-adv-x="555" 
d="M505 93l-454 196v92l454 196v-125l-352 -142v50l352 -142v-125z" />
    <glyph glyph-name="equal" unicode="=" horiz-adv-x="555" 
d="M51 394v114h453v-114h-453zM51 159v114h453v-114h-453z" />
    <glyph glyph-name="greater" unicode="&#x3e;" horiz-adv-x="555" 
d="M51 452v125l454 -196v-92l-454 -196v125l351 142v-50z" />
    <glyph glyph-name="question" unicode="?" horiz-adv-x="503" 
d="M207 244l-4 192h35q29 0 50.5 10.5t33.5 30.5t12 46t-11.5 45t-32.5 29.5t-50 10.5q-40 0 -72 -22.5t-51 -63.5l-89 78q30 63 86.5 98.5t132.5 35.5q64 0 113.5 -26.5t77 -72t27.5 -103.5q0 -56 -24 -98t-66 -69t-98 -38l47 54l-9 -137h-108zM260 -10q-35 0 -58.5 24
t-23.5 59t23.5 59t58.5 24q36 0 59 -24t23 -59t-23 -59t-59 -24z" />
    <glyph glyph-name="at" unicode="@" horiz-adv-x="747" 
d="M377 -102q-71 0 -132.5 25t-107.5 70.5t-71.5 106t-25.5 131.5q0 72 26 133t73 106.5t109.5 71t134.5 25.5q95 0 168 -42t114 -116.5t41 -171.5q0 -46 -8.5 -82.5t-28.5 -66.5l-105 2q15 19 24.5 42t14.5 50.5t5 59.5q0 75 -26.5 126t-76.5 77.5t-120 26.5
q-72 0 -126.5 -29t-84.5 -83t-30 -130q0 -73 29 -126.5t81 -82t121 -28.5q48 0 87 13t70 39l67 -68q-45 -39 -101.5 -59t-120.5 -20zM357 83q-38 0 -70.5 19.5t-52.5 53.5t-20 75q0 43 20 77t52.5 54.5t70.5 20.5q48 0 77 -22t29 -71v-115q0 -48 -28.5 -70t-77.5 -22z
M364 166q28 0 44.5 19t16.5 47q0 30 -16.5 48t-44.5 18t-45 -18.5t-17 -47.5q0 -28 17 -47t45 -19zM477 88v78h192v-78h-192zM436 88v77l11 71l-11 69v71h85v-288h-85z" />
    <glyph glyph-name="A" unicode="A" horiz-adv-x="715" 
d="M20 0l283 703h111l282 -703h-145l-218 577h50l-221 -577h-142zM170 131v114h378v-114h-378z" />
    <glyph glyph-name="B" unicode="B" horiz-adv-x="631" 
d="M172 0v111h183q49 0 76.5 30t27.5 71q0 28 -12 51t-35.5 36.5t-56.5 13.5h-183v110h168q42 0 67.5 21t25.5 63q0 43 -25.5 64t-67.5 21h-168v111h184q70 0 117.5 -25.5t71.5 -67t24 -90.5q0 -60 -36.5 -103.5t-106.5 -64.5l6 44q78 -22 120.5 -72.5t42.5 -121.5
q0 -56 -27.5 -101.5t-80 -73t-127.5 -27.5h-188zM72 0v703h135v-703h-135z" />
    <glyph glyph-name="C" unicode="C" horiz-adv-x="686" 
d="M398 -10q-77 0 -143 27.5t-115.5 77t-76 115.5t-26.5 142t26.5 142t76 115t115 77t143.5 28q84 0 148 -27.5t113 -75.5l-92 -92q-29 32 -71 50t-98 18q-49 0 -89.5 -16.5t-70.5 -48t-46 -75t-16 -95.5q0 -53 16 -96t46 -74.5t70.5 -48.5t89.5 -17q59 0 101.5 18t71.5 51
l92 -92q-49 -49 -114 -76t-151 -27z" />
    <glyph glyph-name="D" unicode="D" horiz-adv-x="747" 
d="M165 0v121h179q68 0 119 28.5t79.5 80.5t28.5 123q0 69 -29 120.5t-80 80t-118 28.5h-182v121h184q78 0 144.5 -26t116 -73.5t77 -111.5t27.5 -140t-27.5 -140.5t-76.5 -112t-115.5 -73.5t-143.5 -26h-183zM72 0v703h136v-703h-136z" />
    <glyph glyph-name="E" unicode="E" horiz-adv-x="602" 
d="M72 0v703h136v-703h-136zM172 0v120h389v-120h-389zM172 301v116h354v-116h-354zM172 583v120h384v-120h-384z" />
    <glyph glyph-name="F" unicode="F" horiz-adv-x="578" 
d="M72 0v703h136v-703h-136zM172 288v121h354v-121h-354zM172 583v120h371v-120h-371z" />
    <glyph glyph-name="G" unicode="G" horiz-adv-x="778" 
d="M397 -10q-75 0 -140.5 27.5t-115 77.5t-77 115.5t-27.5 141.5q0 77 28 142.5t78 115t117 77t145 27.5q87 0 160 -32.5t121 -91.5l-92 -92q-33 43 -82 66t-108 23q-67 0 -118.5 -29.5t-80.5 -82t-29 -122.5t28.5 -123.5t78 -83.5t113.5 -30q66 0 113 24.5t72 72t25 116.5
l89 -61l-307 3v118h358v-19q0 -126 -45 -210.5t-123.5 -127t-180.5 -42.5z" />
    <glyph glyph-name="H" unicode="H" horiz-adv-x="721" 
d="M72 0v703h136v-703h-136zM513 0v703h136v-703h-136zM158 303v120h393v-120h-393z" />
    <glyph glyph-name="I" unicode="I" horiz-adv-x="280" 
d="M72 0v703h136v-703h-136z" />
    <glyph glyph-name="J" unicode="J" horiz-adv-x="513" 
d="M212 -10q-64 0 -112.5 24.5t-80.5 66.5l92 88q18 -26 43.5 -39.5t56.5 -13.5t54.5 13t36 38t12.5 61v475h137v-467q0 -74 -29.5 -129.5t-83 -86t-126.5 -30.5z" />
    <glyph glyph-name="K" unicode="K" horiz-adv-x="688" 
d="M497 0l-305 367l297 336h170l-331 -365v63l342 -401h-173zM72 0v703h136v-703h-136z" />
    <glyph glyph-name="L" unicode="L" horiz-adv-x="556" 
d="M72 0v703h136v-703h-136zM172 0v121h358v-121h-358z" />
    <glyph glyph-name="M" unicode="M" horiz-adv-x="850" 
d="M72 0v703h96l285 -456h-55l284 456h96v-703h-135v470l26 -8l-198 -318h-92l-198 318l27 8v-470h-136z" />
    <glyph glyph-name="N" unicode="N" horiz-adv-x="727" 
d="M72 0v703h95l41 -136v-567h-136zM558 0l-417 540l26 163l417 -540zM558 0l-39 132v571h137v-703h-98z" />
    <glyph glyph-name="O" unicode="O" horiz-adv-x="800" 
d="M401 -11q-77 0 -143.5 28t-116 77.5t-77.5 116t-28 142.5t27.5 141.5t77 115t115.5 77t143 27.5q78 0 144 -27.5t115.5 -77t77.5 -115.5t28 -142t-28 -142t-77.5 -115.5t-115 -77.5t-142.5 -28zM399 116q68 0 118 30t78.5 83t28.5 124q0 52 -16 95t-46 74.5t-71 48.5
t-92 17q-66 0 -116.5 -29.5t-79 -82.5t-28.5 -123q0 -53 16.5 -97t46 -75t71 -48t90.5 -17z" />
    <glyph glyph-name="P" unicode="P" horiz-adv-x="616" 
d="M172 261v111h163q32 0 58 13t41 37.5t15 59.5q0 34 -15 59t-41 38t-58 13h-163v111h177q67 0 120.5 -27t84.5 -76.5t31 -117.5t-31 -117.5t-84.5 -76.5t-120.5 -27h-177zM72 0v703h136v-703h-136z" />
    <glyph glyph-name="Q" unicode="Q" horiz-adv-x="820" 
d="M402 -11q-77 0 -143.5 28t-116.5 77.5t-77.5 116t-27.5 142.5t27.5 141.5t77 115t115.5 77t143 27.5t143 -27.5t116 -77t77.5 -115.5t27.5 -142t-27.5 -142t-77 -115.5t-115.5 -77.5t-142 -28zM719 -52l-322 322l82 83l323 -323zM400 116q67 0 117.5 30t79 83t28.5 124
q0 52 -16.5 95t-46.5 74.5t-71 48.5t-91 17q-66 0 -116.5 -29.5t-79 -82.5t-28.5 -123q0 -53 16.5 -97t46 -75t71 -48t90.5 -17z" />
    <glyph glyph-name="R" unicode="R" horiz-adv-x="640" 
d="M172 294v106h163q50 0 77.5 25.5t27.5 70.5q0 41 -27.5 68.5t-77.5 27.5h-163v111h175q68 0 119.5 -26.5t80 -72.5t28.5 -106q0 -62 -28.5 -107.5t-80.5 -71t-121 -25.5h-173zM72 0v703h136v-703h-136zM456 0l-232 304l125 39l272 -343h-165z" />
    <glyph glyph-name="S" unicode="S" horiz-adv-x="569" 
d="M276 -10q-85 0 -145.5 29t-109.5 87l90 90q31 -41 72 -63.5t100 -22.5q53 0 84.5 21t31.5 58q0 32 -18 52t-47.5 34t-65 25.5t-71 26.5t-65 37.5t-47.5 58t-18 89.5q0 64 31 109t85 69t122 24q72 0 130 -27t95 -70l-90 -90q-31 34 -63.5 50t-73.5 16q-47 0 -74 -18
t-27 -52q0 -29 18 -47t47.5 -31t65 -25t71 -27t65 -39t47.5 -61.5t18 -92.5q0 -98 -69 -154t-189 -56z" />
    <glyph glyph-name="T" unicode="T" horiz-adv-x="629" 
d="M246 0v688h137v-688h-137zM22 582v121h585v-121h-585z" />
    <glyph glyph-name="U" unicode="U" horiz-adv-x="696" 
d="M349 -10q-83 0 -147.5 36.5t-101.5 100.5t-37 145v431h136v-435q0 -47 19.5 -81t54 -52.5t76.5 -18.5q43 0 76 18.5t52.5 52.5t19.5 80v436h137v-432q0 -81 -37 -144.5t-100.5 -100t-147.5 -36.5z" />
    <glyph glyph-name="V" unicode="V" horiz-adv-x="705" 
d="M297 0l-277 703h147l214 -569h-57l216 569h145l-280 -703h-108z" />
    <glyph glyph-name="W" unicode="W" horiz-adv-x="992" 
d="M250 0l-228 703h134l169 -541h-45l166 541h101l166 -541h-46l170 541h134l-229 -703h-101l-167 540h44l-166 -540h-102z" />
    <glyph glyph-name="X" unicode="X" horiz-adv-x="707" 
d="M528 0l-202 313h-20l-274 390h161l201 -295h20l273 -408h-159zM20 0l263 376l100 -67l-209 -309h-154zM421 334l-100 67l200 302h154z" />
    <glyph glyph-name="Y" unicode="Y" horiz-adv-x="679" 
d="M290 271l-272 432h157l211 -346h-90l211 346h155l-275 -432h-97zM272 0v344h137v-344h-137z" />
    <glyph glyph-name="Z" unicode="Z" horiz-adv-x="598" 
d="M32 95l369 513h162l-369 -513h-162zM32 0v95l102 25h421v-120h-523zM53 583v120h510v-95l-103 -25h-407z" />
    <glyph glyph-name="bracketleft" unicode="[" horiz-adv-x="345" 
d="M69 -96v819h108v-819h-108zM122 -96v100h191v-100h-191zM122 624v99h191v-99h-191z" />
    <glyph glyph-name="backslash" unicode="\" horiz-adv-x="393" 
d="M269 -47l-263 795h118l263 -795h-118z" />
    <glyph glyph-name="bracketright" unicode="]" horiz-adv-x="345" 
d="M168 -96v819h108v-819h-108zM32 -96v100h191v-100h-191zM32 624v99h191v-99h-191z" />
    <glyph glyph-name="asciicircum" unicode="^" horiz-adv-x="459" 
d="M315 455l-111 206h52l-112 -206h-105l149 268h82l149 -268h-104z" />
    <glyph glyph-name="underscore" unicode="_" horiz-adv-x="493" 
d="M0 -147v107h493v-107h-493z" />
    <glyph glyph-name="grave" unicode="`" horiz-adv-x="308" 
d="M218 540l-178 116l85 102l143 -156z" />
    <glyph glyph-name="a" unicode="a" horiz-adv-x="588" 
d="M260 -10q-66 0 -119 33t-83 90t-30 128q0 72 30 129t83 90t119 33q52 0 93 -21t65.5 -58.5t26.5 -84.5v-174q-2 -48 -26.5 -85t-65.5 -58.5t-93 -21.5zM284 111q55 0 89 36.5t34 94.5q0 38 -15.5 67.5t-43 46t-64.5 16.5q-36 0 -63.5 -16.5t-43 -46t-15.5 -67.5
q0 -39 15.5 -68.5t43 -46t63.5 -16.5zM400 0v130l21 118l-21 116v119h130v-483h-130z" />
    <glyph glyph-name="b" unicode="b" horiz-adv-x="588" 
d="M326 -10q-52 0 -94 22t-67 60t-27 85v172q2 47 27.5 84.5t67.5 58.5t93 21q67 0 120 -33t83.5 -90t30.5 -129q0 -71 -30.5 -128t-83.5 -90t-120 -33zM58 0v723h131v-359l-22 -116l21 -118v-130h-130zM304 111q36 0 63.5 16.5t43 46t15.5 68.5q0 38 -15.5 67.5t-43.5 46
t-64 16.5t-63.5 -16.5t-43 -46t-15.5 -67.5q0 -39 15.5 -68.5t43.5 -46t64 -16.5z" />
    <glyph glyph-name="c" unicode="c" horiz-adv-x="492" 
d="M286 -10q-74 0 -133 33t-93 90t-34 128q0 72 34 129t93.5 90.5t132.5 33.5q57 0 105 -21t83 -60l-84 -85q-19 21 -45.5 32t-58.5 11q-36 0 -64.5 -16.5t-45 -45t-16.5 -67.5q0 -38 16.5 -67.5t45 -46t64.5 -16.5q33 0 59.5 11.5t45.5 33.5l85 -85q-37 -40 -85 -61
t-105 -21z" />
    <glyph glyph-name="d" unicode="d" horiz-adv-x="588" 
d="M262 -10q-67 0 -120 33t-83.5 90t-30.5 128q0 72 30.5 129t83 90t120.5 33q52 0 93.5 -21t67 -58.5t27.5 -84.5v-172q-2 -47 -27 -85t-67 -60t-94 -22zM284 111q37 0 64.5 16.5t43 46t15.5 68.5q0 38 -15.5 67.5t-43 46t-63.5 16.5q-37 0 -64.5 -17t-43 -46t-15.5 -67
q0 -39 15.5 -68.5t43.5 -46t63 -16.5zM530 0h-130v130l21 118l-22 116v359h131v-723z" />
    <glyph glyph-name="e" unicode="e" horiz-adv-x="541" 
d="M289 -10q-76 0 -135 32.5t-93.5 89.5t-34.5 130q0 72 33.5 128.5t91.5 90t129 33.5q70 0 123.5 -31.5t84 -86t30.5 -123.5q0 -13 -1.5 -26.5t-5.5 -30.5l-406 -1v98l345 1l-53 -41q-2 43 -15.5 72t-39 44.5t-62.5 15.5q-39 0 -68 -17.5t-44.5 -49t-15.5 -74.5
q0 -44 16.5 -76.5t47.5 -50t72 -17.5q37 0 67 12.5t52 37.5l77 -77q-35 -41 -85.5 -62t-109.5 -21z" />
    <glyph glyph-name="f" unicode="f" horiz-adv-x="419" 
d="M122 0v535q0 58 25 102.5t71 70.5t108 26q47 0 81 -16t61 -44l-83 -84q-11 11 -24 17t-33 6q-36 0 -55.5 -19.5t-19.5 -55.5v-538h-131zM10 368v115h386v-115h-386z" />
    <glyph glyph-name="g" unicode="g" horiz-adv-x="579" 
d="M260 -214q-77 0 -136 27.5t-94 77.5l83 83q28 -33 62.5 -50.5t83.5 -17.5q61 0 96.5 31t35.5 86v121l22 106l-21 106v127h130v-458q0 -72 -33.5 -125.5t-92.5 -83.5t-136 -30zM254 13q-65 0 -117 31.5t-81.5 86.5t-29.5 123t29.5 122t81.5 85.5t117 31.5q54 0 95.5 -21
t65.5 -57.5t26 -85.5v-152q-2 -48 -26.5 -85.5t-66 -58t-94.5 -20.5zM280 132q36 0 62.5 15.5t41.5 43t15 62.5q0 36 -15 63t-41.5 42.5t-62.5 15.5t-63 -15.5t-42 -43t-15 -62.5q0 -34 15 -61.5t42 -43.5t63 -16z" />
    <glyph glyph-name="h" unicode="h" horiz-adv-x="562" 
d="M383 0v277q0 43 -27 70t-70 27q-28 0 -50 -12t-34.5 -34t-12.5 -51l-51 26q0 57 24 99.5t66.5 66.5t97.5 24t97.5 -24t66.5 -66t24 -97v-306h-131zM58 0v723h131v-723h-131z" />
    <glyph glyph-name="i" unicode="i" horiz-adv-x="248" 
d="M58 0v483h132v-483h-132zM124 561q-32 0 -53 21.5t-21 53.5q0 31 21 53t53 22q33 0 53.5 -22t20.5 -53q0 -32 -20.5 -53.5t-53.5 -21.5z" />
    <glyph glyph-name="j" unicode="j" horiz-adv-x="257" 
d="M19 -214q-52 0 -86.5 17t-62.5 48l83 83q12 -15 25.5 -21.5t31.5 -6.5q25 0 42 15t17 44v518h131v-516q0 -57 -24.5 -97.5t-65 -62t-91.5 -21.5zM136 561q-32 0 -53 21.5t-21 53.5q0 31 21 53t53 22q33 0 53.5 -22t20.5 -53q0 -32 -20.5 -53.5t-53.5 -21.5z" />
    <glyph glyph-name="k" unicode="k" horiz-adv-x="528" 
d="M366 0l-187 249l186 234h151l-218 -264l5 64l223 -283h-160zM58 0v723h131v-723h-131z" />
    <glyph glyph-name="l" unicode="l" horiz-adv-x="247" 
d="M58 0v723h131v-723h-131z" />
    <glyph glyph-name="m" unicode="m" horiz-adv-x="867" 
d="M58 0v483h131v-483h-131zM373 0v285q0 42 -26.5 65.5t-65.5 23.5q-26 0 -47 -10.5t-33 -30.5t-12 -48l-51 25q0 56 24.5 97t66.5 63.5t95 22.5q50 0 91 -22.5t65 -63t24 -97.5v-310h-131zM688 0v285q0 42 -26.5 65.5t-65.5 23.5q-25 0 -46.5 -10.5t-33.5 -30.5t-12 -48
l-75 18q4 58 31 100.5t71 66t98 23.5t97 -22.5t68 -64.5t25 -100v-306h-131z" />
    <glyph glyph-name="n" unicode="n" horiz-adv-x="562" 
d="M383 0v277q0 43 -27 70t-70 27q-28 0 -50 -12t-34.5 -34t-12.5 -51l-51 26q0 57 24.5 99.5t68 66.5t98.5 24q53 0 95 -26.5t66 -69t24 -91.5v-306h-131zM58 0v483h131v-483h-131z" />
    <glyph glyph-name="o" unicode="o" horiz-adv-x="569" 
d="M285 -10q-73 0 -131.5 33.5t-93 91t-34.5 128.5t34 127.5t93 90t131 33.5q74 0 132.5 -33.5t92.5 -90t34 -127.5t-34 -128.5t-92.5 -91t-131.5 -33.5zM284 112q37 0 65.5 16.5t44 46t15.5 67.5t-16 67t-44 45.5t-65 16.5q-36 0 -64 -16.5t-44 -45.5t-16 -67t16 -67.5
t44 -46t64 -16.5z" />
    <glyph glyph-name="p" unicode="p" horiz-adv-x="588" 
d="M326 -10q-52 0 -94 21.5t-67 58.5t-27 85v171q2 48 27.5 85.5t67 59.5t93.5 22q67 0 120 -33t83.5 -90t30.5 -129q0 -71 -30.5 -128t-83.5 -90t-120 -33zM58 -202v685h131v-127l-22 -117l21 -117v-324h-130zM303 111q36 0 64 16.5t43.5 46t15.5 68.5q0 38 -15.5 67.5
t-43.5 46t-64 16.5q-35 0 -63 -16.5t-43.5 -46t-15.5 -67.5q0 -39 15.5 -68.5t43 -46t63.5 -16.5z" />
    <glyph glyph-name="q" unicode="q" horiz-adv-x="588" 
d="M260 -10q-66 0 -119 33t-83 90t-30 128q0 72 30 129t83 90t119 33q52 0 93 -21t65.5 -58.5t26.5 -84.5v-174q-2 -48 -26.5 -85t-65.5 -58.5t-93 -21.5zM284 111q55 0 89 36.5t34 94.5q0 38 -15.5 67.5t-43 46t-64.5 16.5q-36 0 -63.5 -16.5t-43 -46t-15.5 -67.5
q0 -39 15.5 -68.5t43 -46t63.5 -16.5zM400 -202v324l21 117l-21 117v127h130v-685h-130z" />
    <glyph glyph-name="r" unicode="r" horiz-adv-x="434" 
d="M58 0v483h131v-483h-131zM189 267l-51 34q9 89 52 140.5t124 51.5q35 0 63 -11.5t51 -37.5l-82 -94q-11 12 -26.5 18t-35.5 6q-42 0 -68.5 -26.5t-26.5 -80.5z" />
    <glyph glyph-name="s" unicode="s" horiz-adv-x="444" 
d="M224 -11q-41 0 -80.5 11t-72.5 30.5t-57 47.5l78 79q25 -28 58 -42t73 -14q32 0 48.5 9t16.5 27q0 20 -17.5 31t-45.5 18.5t-58.5 17t-58.5 25t-45.5 43t-17.5 71.5q0 46 22.5 80t64.5 53t99 19q60 0 108.5 -21t80.5 -63l-79 -79q-22 27 -49.5 39t-59.5 12
q-29 0 -44.5 -9t-15.5 -25q0 -18 17.5 -28t45.5 -17.5t58.5 -17t58 -26.5t45 -45t17.5 -72q0 -71 -51 -112.5t-139 -41.5z" />
    <glyph glyph-name="t" unicode="t" horiz-adv-x="389" 
d="M129 0v684h131v-684h-131zM16 368v115h357v-115h-357z" />
    <glyph glyph-name="u" unicode="u" horiz-adv-x="528" 
d="M264 -10q-64 0 -113.5 27t-77.5 75t-28 111v280h132v-277q0 -30 10 -51.5t30 -32.5t47 -11q41 0 64 25t23 70v277h131v-280q0 -64 -27.5 -112t-77 -74.5t-113.5 -26.5z" />
    <glyph glyph-name="v" unicode="v" horiz-adv-x="523" 
d="M215 0l-213 483h144l153 -398h-71l154 398h139l-212 -483h-94z" />
    <glyph glyph-name="w" unicode="w" horiz-adv-x="769" 
d="M187 0l-181 483h132l118 -351l-40 -1l121 352h95l121 -352l-40 1l118 351h132l-180 -483h-95l-122 334h37l-122 -334h-94z" />
    <glyph glyph-name="x" unicode="x" horiz-adv-x="523" 
d="M360 0l-127 196l-27 20l-188 267h155l117 -177l25 -19l199 -287h-154zM8 0l197 276l75 -89l-124 -187h-148zM320 217l-77 88l115 178h147z" />
    <glyph glyph-name="y" unicode="y" horiz-adv-x="526" 
d="M210 -4l-202 487h142l134 -372h-48l139 372h143l-215 -487h-93zM76 -202l147 311l80 -113l-88 -198h-139z" />
    <glyph glyph-name="z" unicode="z" horiz-adv-x="466" 
d="M24 75l256 333h158l-256 -333h-158zM24 0v75l104 39h304v-114h-408zM42 369v114h396v-75l-105 -39h-291z" />
    <glyph glyph-name="braceleft" unicode="{" horiz-adv-x="334" 
d="M244 -96q-84 0 -126 44t-34 131l11 125q3 33 -7 47.5t-38 14.5h-28v98h28q28 0 38 15t7 47l-11 122q-8 86 34 130.5t126 44.5h58v-99h-43q-42 0 -56 -18t-11 -56l9 -105q4 -42 -3.5 -71t-32 -48t-70.5 -31v38q46 -10 70.5 -28.5t32 -47.5t3.5 -71l-9 -108
q-2 -39 11.5 -56.5t55.5 -17.5h43v-100h-58z" />
    <glyph glyph-name="bar" unicode="|" horiz-adv-x="291" 
d="M86 -130v903h119v-903h-119z" />
    <glyph glyph-name="braceright" unicode="}" horiz-adv-x="334" 
d="M88 -96h-59v100h43q42 0 56 17.5t11 56.5l-9 108q-3 42 4.5 71t31.5 47.5t70 28.5v-38q-46 12 -70 31t-31.5 48t-4.5 71l9 105q4 38 -10.5 56t-56.5 18h-43v99h59q84 0 126 -44.5t34 -130.5l-12 -122q-3 -32 7.5 -47t38.5 -15h28v-98h-28q-28 0 -38.5 -14.5t-7.5 -47.5
l11 -125q8 -87 -33.5 -131t-125.5 -44z" />
    <glyph glyph-name="asciitilde" unicode="~" horiz-adv-x="555" 
d="M362 268q-30 0 -52 7.5t-40 17.5t-35.5 17.5t-39.5 7.5q-24 0 -44.5 -10.5t-39.5 -31.5l-71 71q32 44 69 66t83 22q30 0 52 -7.5t40 -17.5t35.5 -17.5t40.5 -7.5q24 0 45 10t40 32l71 -71q-32 -44 -69.5 -66t-84.5 -22z" />
    <glyph glyph-name="uni00A0" unicode="&#xa0;" horiz-adv-x="195" 
 />
    <glyph glyph-name="exclamdown" unicode="&#xa1;" horiz-adv-x="278" 
d="M69 -202l20 440h100l20 -440h-140zM139 327q-36 0 -59 24t-23 59q0 36 23 59.5t59 23.5t59 -23.5t23 -59.5q0 -35 -23 -59t-59 -24z" />
    <glyph glyph-name="cent" unicode="&#xa2;" horiz-adv-x="522" 
d="M299 100q-73 0 -132 33t-93 90t-34 128q0 72 34 129t93 90.5t133 33.5q56 0 104 -21t84 -60l-85 -85q-19 21 -45 32t-58 11q-37 0 -65.5 -16.5t-44.5 -45t-16 -67.5q0 -38 16 -67.5t44.5 -46t65.5 -16.5q33 0 59 11.5t45 33.5l85 -85q-36 -40 -84 -61t-106 -21zM243 10
v683h95v-683h-95z" />
    <glyph glyph-name="sterling" unicode="&#xa3;" horiz-adv-x="625" 
d="M151 0v486q0 71 30 123t82.5 80.5t118.5 28.5q71 0 119 -28.5t77 -70.5l-87 -87q-21 31 -44 47t-62 16q-29 0 -51.5 -12.5t-34.5 -35.5t-12 -56v-491h-136zM59 0v121h502v-121h-502zM59 291v103h407v-103h-407z" />
    <glyph glyph-name="currency" unicode="&#xa4;" horiz-adv-x="600" 
d="M300 147q-61 0 -109.5 27t-77 73.5t-28.5 104.5t28 103.5t76.5 72.5t110.5 27q61 0 110 -26.5t77 -72.5t28 -104t-28 -104.5t-76.5 -73.5t-110.5 -27zM126 110l-68 67l99 100l68 -68zM300 262q25 0 44.5 11.5t30.5 31.5t11 46q0 27 -11 47t-30.5 31t-44.5 11t-44.5 -11.5
t-30.5 -31.5t-11 -46t11 -46t30.5 -31.5t44.5 -11.5zM474 110l-99 99l67 68l99 -100zM157 427l-99 99l68 67l99 -99zM442 427l-67 67l99 99l67 -67z" />
    <glyph glyph-name="yen" unicode="&#xa5;" horiz-adv-x="657" 
d="M279 264l-233 439h153l168 -365h-74l168 365h150l-235 -439h-97zM261 0v329h136v-329h-136zM228 481l29 -93h-191v93h162zM66 221v92h525v-92h-525zM412 388l38 93h141v-93h-179z" />
    <glyph glyph-name="brokenbar" unicode="&#xa6;" horiz-adv-x="291" 
d="M86 396v377h119v-377h-119zM86 -130v378h119v-378h-119z" />
    <glyph glyph-name="section" unicode="&#xa7;" horiz-adv-x="527" 
d="M269 141l-1 90q37 0 58 14.5t21 41.5t-20 42.5t-50.5 25.5t-65.5 21t-65.5 29.5t-50 50t-19.5 84.5q0 52 24 91t69 60.5t107 21.5q63 0 116 -24.5t86 -72.5l-80 -81q-23 32 -54.5 47.5t-67.5 15.5q-35 0 -54 -14t-19 -38q0 -25 19.5 -39t50.5 -25t65.5 -22.5t65.5 -30
t50.5 -50t19.5 -80.5q0 -48 -26.5 -83.5t-73 -55t-105.5 -19.5zM251 -121q-64 0 -116.5 25t-86.5 72l80 81q24 -32 55.5 -47.5t67.5 -15.5q35 0 53.5 14.5t18.5 37.5q0 25 -19.5 39t-50 25t-65 22.5t-65.5 30t-50.5 50t-19.5 80.5t26.5 84t73 54.5t105.5 19.5l1 -90
q-37 0 -58 -14.5t-21 -41.5t19.5 -42.5t50.5 -25.5t65.5 -21t65.5 -29.5t50.5 -50t19.5 -84.5q0 -52 -24 -91t-69 -60.5t-107 -21.5z" />
    <glyph glyph-name="dieresis" unicode="&#xa8;" horiz-adv-x="478" 
d="M131 553q-31 0 -52 21.5t-21 53.5t21 53.5t52 21.5q33 0 53.5 -21.5t20.5 -53.5t-20.5 -53.5t-53.5 -21.5zM346 553q-31 0 -52 21.5t-21 53.5t21 53.5t52 21.5q33 0 53.5 -21.5t20.5 -53.5t-20.5 -53.5t-53.5 -21.5z" />
    <glyph glyph-name="copyright" unicode="&#xa9;" horiz-adv-x="817" 
d="M409 -10q-78 0 -143.5 28t-114 77.5t-74.5 115.5t-26 142q0 77 26 142t73.5 114.5t113 76.5t144.5 27t145 -27.5t114 -76t74 -114.5t26 -143q0 -76 -26 -142t-74 -115.5t-113.5 -77t-144.5 -27.5zM420 149q-59 0 -107 27t-76 72.5t-28 103.5t28 104t76.5 72.5t108.5 26.5
q45 0 83.5 -16t67.5 -47l-75 -76q-14 16 -33 23.5t-43 7.5q-27 0 -48 -12t-33 -33t-12 -49q0 -29 12 -50.5t33.5 -33.5t47.5 -12t45 9t32 25l75 -76q-30 -33 -69 -49.5t-85 -16.5zM408 39q91 0 160.5 41.5t108.5 113t39 159.5t-39 158t-108.5 112t-160.5 42t-160.5 -41.5
t-108 -111.5t-38.5 -159q0 -88 39 -159.5t108.5 -113t159.5 -41.5z" />
    <glyph glyph-name="ordfeminine" unicode="&#xaa;" horiz-adv-x="358" 
d="M154 405q-40 0 -71.5 20t-50 54t-18.5 78t18 78t50 54t72 20q44 0 74 -25t34 -61v-132q-4 -35 -33.5 -60.5t-74.5 -25.5zM174 490q28 0 45.5 19t17.5 48q0 30 -18 48.5t-45 18.5q-28 0 -45.5 -19t-17.5 -48t17.5 -48t45.5 -19zM233 411v78l14 71l-14 71v72h93v-292h-93z
" />
    <glyph glyph-name="guillemotleft" unicode="&#xab;" horiz-adv-x="493" 
d="M131 76l-103 167l103 167h126l-108 -167l108 -167h-126zM340 76l-103 167l103 167h126l-108 -167l108 -167h-126z" />
    <glyph glyph-name="logicalnot" unicode="&#xac;" horiz-adv-x="555" 
d="M51 331v113h453v-113h-453zM388 422h116v-249h-116v249z" />
    <glyph glyph-name="registered" unicode="&#xae;" horiz-adv-x="552" 
d="M276 269q-64 0 -113.5 29.5t-78 80.5t-28.5 113q0 63 28 113t77 79t114 29t115 -29.5t78 -79.5t28 -112q0 -63 -28 -114t-77.5 -80t-114.5 -29zM202 381v227h44v-227h-44zM325 381l-75 99l47 3l81 -102h-53zM275 306q54 0 95 24.5t64.5 66.5t23.5 95q0 52 -23.5 93.5
t-64.5 66t-95 24.5q-53 0 -94 -24.5t-64 -66t-23 -93.5q0 -53 23 -95t64 -66.5t94 -24.5zM233 476v34h53q16 0 25 8.5t9 22.5q0 13 -9 22t-25 9h-53v36h57q32 0 53 -18.5t21 -47.5q0 -30 -21 -48t-54 -18h-56z" />
    <glyph glyph-name="macron" unicode="&#xaf;" horiz-adv-x="460" 
d="M40 679h380v-102h-380v102z" />
    <glyph glyph-name="degree" unicode="&#xb0;" horiz-adv-x="394" 
d="M197 391q-48 0 -85 21.5t-58 57.5t-21 81q0 46 21 82.5t58 58t85 21.5t85 -21.5t58 -58t21 -82.5q0 -45 -21 -81t-58 -57.5t-85 -21.5zM197 489q26 0 43 18.5t17 43.5q0 28 -17 46t-43 18t-43 -18t-17 -46q0 -25 17 -43.5t43 -18.5z" />
    <glyph glyph-name="plusminus" unicode="&#xb1;" horiz-adv-x="555" 
d="M51 351v113h453v-113h-453zM220 578h116v-340h-116v340zM51 88v114h453v-114h-453z" />
    <glyph glyph-name="uni00B2" unicode="&#xb2;" horiz-adv-x="340" 
d="M29 403l144 144q11 11 15 19.5t4 17.5q0 15 -10 25t-28 10q-16 0 -29.5 -10t-30.5 -34l-70 63q23 36 59.5 53.5t79.5 17.5q63 0 99 -32t36 -88q0 -31 -12.5 -57t-40.5 -52l-88 -81zM29 346v57l90 31h186v-88h-276z" />
    <glyph glyph-name="uni00B3" unicode="&#xb3;" horiz-adv-x="336" 
d="M148 339q-38 0 -71.5 13t-56.5 36l67 67q9 -12 26.5 -19.5t33.5 -7.5q21 0 35 10.5t14 28.5t-15 28t-40 10q-11 0 -22.5 -1.5t-17.5 -3.5l48 58q24 5 36.5 7.5t20.5 2.5q40 0 67 -28t27 -76q0 -56 -41 -90.5t-111 -34.5zM101 500v58l76 88h113l-77 -88zM48 615v88h242
v-57l-78 -31h-164z" />
    <glyph glyph-name="acute" unicode="&#xb4;" horiz-adv-x="308" 
d="M90 545l-50 62l144 156l84 -102z" />
    <glyph glyph-name="uni00B5" unicode="&#xb5;" horiz-adv-x="585" 
d="M86 -192v675h132v-675h-132zM331 -10q-85 0 -128.5 54t-43.5 138l59 23q0 -50 26.5 -72t60.5 -22q36 0 61 22t25 72v278h132v-296q0 -57 -25 -101.5t-68 -70t-99 -25.5z" />
    <glyph glyph-name="paragraph" unicode="&#xb6;" horiz-adv-x="719" 
d="M390 261h-111q-66 0 -119.5 27t-84.5 76.5t-31 117.5t31 117.5t84.5 76.5t119.5 27h401v-111h-394q-33 0 -58.5 -13t-40.5 -38t-15 -59q0 -35 15 -59.5t40.5 -37.5t58.5 -13h104v-111zM427 -100h-109v803h109v-803zM602 -100h-109v803h109v-803z" />
    <glyph glyph-name="periodcentered" unicode="&#xb7;" horiz-adv-x="164" 
d="M83 286q-36 0 -59 24t-23 59t23 59t59 24q35 0 58 -24t23 -59t-23 -59t-58 -24z" />
    <glyph glyph-name="cedilla" unicode="&#xb8;" horiz-adv-x="289" 
d="M136 -212q-38 0 -66 9t-56 26l47 59q12 -9 27.5 -15t36.5 -6q23 0 33.5 6.5t10.5 15.5q0 11 -10.5 18.5t-33.5 7.5h-42l33 104h83l-25 -72l-42 33q64 1 101.5 -25.5t37.5 -67.5q0 -40 -37 -66.5t-98 -26.5z" />
    <glyph glyph-name="uni00B9" unicode="&#xb9;" horiz-adv-x="267" 
d="M89 346v357h107v-357h-107zM23 615v88h168v-88h-168z" />
    <glyph glyph-name="ordmasculine" unicode="&#xba;" horiz-adv-x="346" 
d="M173 403q-45 0 -81.5 20t-57.5 55t-21 78q0 44 21 78t57 54.5t82 20.5t82 -20t57.5 -54.5t21.5 -78.5q0 -43 -21 -77.5t-57.5 -55t-82.5 -20.5zM174 490q28 0 45.5 18.5t17.5 47.5q0 30 -18 48t-46 18t-45.5 -18.5t-17.5 -47.5t17.5 -47.5t46.5 -18.5z" />
    <glyph glyph-name="guillemotright" unicode="&#xbb;" horiz-adv-x="493" 
d="M236 76l108 167l-108 167h126l103 -167l-103 -167h-126zM27 76l108 167l-108 167h126l103 -167l-103 -167h-126z" />
    <glyph glyph-name="onequarter" unicode="&#xbc;" horiz-adv-x="692" 
d="M284 308l52 -50l-217 -272l-96 96zM390 398l-52 50l217 273l96 -96zM140 346v357h107v-357h-107zM74 615v88h168v-88h-168zM359 116l105 237h111l-106 -237h-110zM359 59v57l29 31h270v-88h-299zM528 -4v207h103v-207h-103z" />
    <glyph glyph-name="onehalf" unicode="&#xbd;" horiz-adv-x="687" 
d="M282 308l52 -50l-215 -272l-96 96zM390 398l-52 50l217 273l96 -96zM140 346v357h107v-357h-107zM74 615v88h168v-88h-168zM364 53l144 144q11 11 15 19.5t4 17.5q0 15 -10 25t-28 10q-16 0 -29.5 -10t-30.5 -34l-70 63q23 36 59.5 53.5t79.5 17.5q63 0 99 -32t36 -88
q0 -31 -12.5 -57t-40.5 -52l-88 -81zM364 -4v57l89 31h187v-88h-276z" />
    <glyph glyph-name="threequarters" unicode="&#xbe;" horiz-adv-x="687" 
d="M266 314l52 -46l-198 -282l-96 96zM421 392l-52 46l195 283l96 -96zM175 339q-38 0 -71.5 13t-56.5 36l67 67q9 -12 26.5 -19.5t33.5 -7.5q21 0 35 10.5t14 28.5t-15 28t-40 10q-11 0 -22.5 -1.5t-17.5 -3.5l48 58q24 5 36.5 7.5t20.5 2.5q40 0 67 -28t27 -76
q0 -56 -41 -90.5t-111 -34.5zM128 500v58l76 88h113l-77 -88zM75 615v88h242v-57l-78 -31h-164zM336 116l104 237h111l-106 -237h-109zM336 59v57l28 31h270v-88h-298zM505 -4v207h103v-207h-103z" />
    <glyph glyph-name="questiondown" unicode="&#xbf;" horiz-adv-x="486" 
d="M253 -213q-62 0 -110.5 25.5t-76 70t-27.5 102.5q0 55 24 96.5t67 69t99 38.5l-50 -49l10 99h108l3 -154h-34q-43 0 -69.5 -24t-26.5 -63q0 -26 11.5 -45.5t31.5 -29.5t46 -10q41 0 72.5 22.5t51.5 63.5l89 -79q-30 -61 -86.5 -97t-132.5 -36zM243 327q-35 0 -58.5 24
t-23.5 59q0 36 23.5 59.5t58.5 23.5q36 0 59 -23.5t23 -59.5q0 -35 -23 -59t-59 -24z" />
    <glyph glyph-name="Agrave" unicode="&#xc0;" horiz-adv-x="715" 
d="M20 0l283 703h111l282 -703h-145l-218 577h50l-221 -577h-142zM170 131v114h378v-114h-378zM404 760l-178 116l85 102l143 -156z" />
    <glyph glyph-name="Aacute" unicode="&#xc1;" horiz-adv-x="715" 
d="M20 0l283 703h111l282 -703h-145l-218 577h50l-221 -577h-142zM170 131v114h378v-114h-378zM293 765l-50 62l144 156l84 -102z" />
    <glyph glyph-name="Acircumflex" unicode="&#xc2;" horiz-adv-x="715" 
d="M20 0l283 703h111l282 -703h-145l-218 577h50l-221 -577h-142zM170 131v114h378v-114h-378zM224 762l-50 58l141 150h86l141 -150l-50 -58l-181 128l95 -1z" />
    <glyph glyph-name="Atilde" unicode="&#xc3;" horiz-adv-x="715" 
d="M20 0l283 703h111l282 -703h-145l-218 577h50l-221 -577h-142zM170 131v114h378v-114h-378zM431 765q-33 0 -56 12t-43 23t-43 11q-24 0 -39.5 -9t-29.5 -28l-66 66q29 38 59.5 58t71.5 20q33 0 56 -11.5t43 -23t43 -11.5q25 0 40.5 9.5t28.5 27.5l66 -65
q-29 -38 -59.5 -58.5t-71.5 -20.5z" />
    <glyph glyph-name="Adieresis" unicode="&#xc4;" horiz-adv-x="715" 
d="M20 0l283 703h111l282 -703h-145l-218 577h50l-221 -577h-142zM170 131v114h378v-114h-378zM250 773q-31 0 -52 21.5t-21 53.5t21 53.5t52 21.5q33 0 53.5 -21.5t20.5 -53.5t-20.5 -53.5t-53.5 -21.5zM465 773q-31 0 -52 21.5t-21 53.5t21 53.5t52 21.5q33 0 53.5 -21.5
t20.5 -53.5t-20.5 -53.5t-53.5 -21.5z" />
    <glyph glyph-name="Aring" unicode="&#xc5;" horiz-adv-x="715" 
d="M20 0l283 703h111l282 -703h-145l-218 577h50l-221 -577h-142zM170 131v114h378v-114h-378zM359 658q-38 0 -67 17t-46 45t-17 64t17 65t46 45.5t66 16.5t65.5 -16.5t45.5 -45t17 -64.5t-17 -65t-45.5 -45.5t-64.5 -16.5zM359 739q18 0 30.5 13t12.5 33q0 19 -12.5 32
t-30.5 13q-21 0 -33.5 -13t-12.5 -32t12.5 -32.5t33.5 -13.5z" />
    <glyph glyph-name="AE" unicode="&#xc6;" horiz-adv-x="988" 
d="M20 0l283 703h267v-120h-184l-224 -583h-142zM170 219v114h368v-114h-368zM584 0v120h363v-120h-363zM485 0v703h136v-703h-136zM584 301v116h328v-116h-328zM584 583v120h358v-120h-358z" />
    <glyph glyph-name="Ccedilla" unicode="&#xc7;" horiz-adv-x="686" 
d="M398 -10q-77 0 -143 27.5t-115.5 77t-76 115.5t-26.5 142t26.5 142t76 115t115 77t143.5 28q84 0 148 -27.5t113 -75.5l-92 -92q-29 32 -71 50t-98 18q-49 0 -89.5 -16.5t-70.5 -48t-46 -75t-16 -95.5q0 -53 16 -96t46 -74.5t70.5 -48.5t89.5 -17q59 0 101.5 18t71.5 51
l92 -92q-49 -49 -114 -76t-151 -27zM355 -212q-38 0 -66 9t-56 26l47 59q12 -9 27.5 -15t36.5 -6q23 0 33.5 6.5t10.5 15.5q0 11 -10.5 18.5t-33.5 7.5h-42l33 104h83l-25 -72l-42 33q64 1 101.5 -25.5t37.5 -67.5q0 -40 -37 -66.5t-98 -26.5z" />
    <glyph glyph-name="Egrave" unicode="&#xc8;" horiz-adv-x="602" 
d="M72 0v703h136v-703h-136zM172 0v120h389v-120h-389zM172 301v116h354v-116h-354zM172 583v120h384v-120h-384zM368 760l-178 116l85 102l143 -156z" />
    <glyph glyph-name="Eacute" unicode="&#xc9;" horiz-adv-x="602" 
d="M72 0v703h136v-703h-136zM172 0v120h389v-120h-389zM172 301v116h354v-116h-354zM172 583v120h384v-120h-384zM257 765l-50 62l144 156l84 -102z" />
    <glyph glyph-name="Ecircumflex" unicode="&#xca;" horiz-adv-x="602" 
d="M72 0v703h136v-703h-136zM172 0v120h389v-120h-389zM172 301v116h354v-116h-354zM172 583v120h384v-120h-384zM187 762l-50 58l141 150h86l141 -150l-50 -58l-181 128l95 -1z" />
    <glyph glyph-name="Edieresis" unicode="&#xcb;" horiz-adv-x="602" 
d="M72 0v703h136v-703h-136zM172 0v120h389v-120h-389zM172 301v116h354v-116h-354zM172 583v120h384v-120h-384zM214 773q-31 0 -52 21.5t-21 53.5t21 53.5t52 21.5q33 0 53.5 -21.5t20.5 -53.5t-20.5 -53.5t-53.5 -21.5zM429 773q-31 0 -52 21.5t-21 53.5t21 53.5t52 21.5
q33 0 53.5 -21.5t20.5 -53.5t-20.5 -53.5t-53.5 -21.5z" />
    <glyph glyph-name="Igrave" unicode="&#xcc;" horiz-adv-x="280" 
d="M72 0v703h136v-703h-136zM187 760l-178 116l85 102l143 -156z" />
    <glyph glyph-name="Iacute" unicode="&#xcd;" horiz-adv-x="280" 
d="M72 0v703h136v-703h-136zM76 765l-50 62l144 156l84 -102z" />
    <glyph glyph-name="Icircumflex" unicode="&#xce;" horiz-adv-x="280" 
d="M72 0v703h136v-703h-136zM6 762l-50 58l141 150h86l141 -150l-50 -58l-181 128l95 -1z" />
    <glyph glyph-name="Idieresis" unicode="&#xcf;" horiz-adv-x="280" 
d="M72 0v703h136v-703h-136zM33 773q-31 0 -52 21.5t-21 53.5t21 53.5t52 21.5q33 0 53.5 -21.5t20.5 -53.5t-20.5 -53.5t-53.5 -21.5zM248 773q-31 0 -52 21.5t-21 53.5t21 53.5t52 21.5q33 0 53.5 -21.5t20.5 -53.5t-20.5 -53.5t-53.5 -21.5z" />
    <glyph glyph-name="Eth" unicode="&#xd0;" horiz-adv-x="767" 
d="M23 408h382v-108h-382v108zM185 0v121h179q68 0 119 28.5t79.5 80.5t28.5 123q0 69 -29 120.5t-80 80t-118 28.5h-182v121h184q78 0 144.5 -26t116 -73.5t77 -111.5t27.5 -140t-27.5 -140.5t-76.5 -112t-115.5 -73.5t-143.5 -26h-183zM92 0v703h136v-703h-136z" />
    <glyph glyph-name="Ntilde" unicode="&#xd1;" horiz-adv-x="727" 
d="M72 0v703h95l41 -136v-567h-136zM558 0l-417 540l26 163l417 -540zM558 0l-39 132v571h137v-703h-98zM437 765q-33 0 -56 12t-43 23t-43 11q-24 0 -39.5 -9t-29.5 -28l-66 66q29 38 59.5 58t71.5 20q33 0 56 -11.5t43 -23t43 -11.5q25 0 40.5 9.5t28.5 27.5l66 -65
q-29 -38 -59.5 -58.5t-71.5 -20.5z" />
    <glyph glyph-name="Ograve" unicode="&#xd2;" horiz-adv-x="800" 
d="M401 -11q-77 0 -143.5 28t-116 77.5t-77.5 116t-28 142.5t27.5 141.5t77 115t115.5 77t143 27.5q78 0 144 -27.5t115.5 -77t77.5 -115.5t28 -142t-28 -142t-77.5 -115.5t-115 -77.5t-142.5 -28zM399 116q68 0 118 30t78.5 83t28.5 124q0 52 -16 95t-46 74.5t-71 48.5
t-92 17q-66 0 -116.5 -29.5t-79 -82.5t-28.5 -123q0 -53 16.5 -97t46 -75t71 -48t90.5 -17zM447 760l-178 116l85 102l143 -156z" />
    <glyph glyph-name="Oacute" unicode="&#xd3;" horiz-adv-x="800" 
d="M401 -11q-77 0 -143.5 28t-116 77.5t-77.5 116t-28 142.5t27.5 141.5t77 115t115.5 77t143 27.5q78 0 144 -27.5t115.5 -77t77.5 -115.5t28 -142t-28 -142t-77.5 -115.5t-115 -77.5t-142.5 -28zM399 116q68 0 118 30t78.5 83t28.5 124q0 52 -16 95t-46 74.5t-71 48.5
t-92 17q-66 0 -116.5 -29.5t-79 -82.5t-28.5 -123q0 -53 16.5 -97t46 -75t71 -48t90.5 -17zM336 765l-50 62l144 156l84 -102z" />
    <glyph glyph-name="Ocircumflex" unicode="&#xd4;" horiz-adv-x="800" 
d="M401 -11q-77 0 -143.5 28t-116 77.5t-77.5 116t-28 142.5t27.5 141.5t77 115t115.5 77t143 27.5q78 0 144 -27.5t115.5 -77t77.5 -115.5t28 -142t-28 -142t-77.5 -115.5t-115 -77.5t-142.5 -28zM399 116q68 0 118 30t78.5 83t28.5 124q0 52 -16 95t-46 74.5t-71 48.5
t-92 17q-66 0 -116.5 -29.5t-79 -82.5t-28.5 -123q0 -53 16.5 -97t46 -75t71 -48t90.5 -17zM266 762l-50 58l141 150h86l141 -150l-50 -58l-181 128l95 -1z" />
    <glyph glyph-name="Otilde" unicode="&#xd5;" horiz-adv-x="800" 
d="M401 -11q-77 0 -143.5 28t-116 77.5t-77.5 116t-28 142.5t27.5 141.5t77 115t115.5 77t143 27.5q78 0 144 -27.5t115.5 -77t77.5 -115.5t28 -142t-28 -142t-77.5 -115.5t-115 -77.5t-142.5 -28zM399 116q68 0 118 30t78.5 83t28.5 124q0 52 -16 95t-46 74.5t-71 48.5
t-92 17q-66 0 -116.5 -29.5t-79 -82.5t-28.5 -123q0 -53 16.5 -97t46 -75t71 -48t90.5 -17zM473 765q-33 0 -56 12t-43 23t-43 11q-24 0 -39.5 -9t-29.5 -28l-66 66q29 38 59.5 58t71.5 20q33 0 56 -11.5t43 -23t43 -11.5q25 0 40.5 9.5t28.5 27.5l66 -65
q-29 -38 -59.5 -58.5t-71.5 -20.5z" />
    <glyph glyph-name="Odieresis" unicode="&#xd6;" horiz-adv-x="800" 
d="M401 -11q-77 0 -143.5 28t-116 77.5t-77.5 116t-28 142.5t27.5 141.5t77 115t115.5 77t143 27.5q78 0 144 -27.5t115.5 -77t77.5 -115.5t28 -142t-28 -142t-77.5 -115.5t-115 -77.5t-142.5 -28zM399 116q68 0 118 30t78.5 83t28.5 124q0 52 -16 95t-46 74.5t-71 48.5
t-92 17q-66 0 -116.5 -29.5t-79 -82.5t-28.5 -123q0 -53 16.5 -97t46 -75t71 -48t90.5 -17zM292 773q-31 0 -52 21.5t-21 53.5t21 53.5t52 21.5q33 0 53.5 -21.5t20.5 -53.5t-20.5 -53.5t-53.5 -21.5zM507 773q-31 0 -52 21.5t-21 53.5t21 53.5t52 21.5q33 0 53.5 -21.5
t20.5 -53.5t-20.5 -53.5t-53.5 -21.5z" />
    <glyph glyph-name="multiply" unicode="&#xd7;" horiz-adv-x="555" 
d="M134 109l-82 82l370 370l82 -82zM413 117l-354 354l82 82l354 -354z" />
    <glyph glyph-name="Oslash" unicode="&#xd8;" horiz-adv-x="800" 
d="M679 718l87 -87l-645 -646l-87 88zM401 -11q-77 0 -143.5 28t-116 77.5t-77.5 116t-28 142.5t27.5 141.5t77 115t115.5 77t143 27.5q78 0 144 -27.5t115.5 -77t77.5 -115.5t28 -142t-28 -142t-77.5 -115.5t-115 -77.5t-142.5 -28zM399 116q68 0 118 30t78.5 83t28.5 124
q0 52 -16 95t-46 74.5t-71 48.5t-92 17q-66 0 -116.5 -29.5t-79 -82.5t-28.5 -123q0 -53 16.5 -97t46 -75t71 -48t90.5 -17z" />
    <glyph glyph-name="Ugrave" unicode="&#xd9;" horiz-adv-x="696" 
d="M349 -10q-83 0 -147.5 36.5t-101.5 100.5t-37 145v431h136v-435q0 -47 19.5 -81t54 -52.5t76.5 -18.5q43 0 76 18.5t52.5 52.5t19.5 80v436h137v-432q0 -81 -37 -144.5t-100.5 -100t-147.5 -36.5zM395 760l-178 116l85 102l143 -156z" />
    <glyph glyph-name="Uacute" unicode="&#xda;" horiz-adv-x="696" 
d="M349 -10q-83 0 -147.5 36.5t-101.5 100.5t-37 145v431h136v-435q0 -47 19.5 -81t54 -52.5t76.5 -18.5q43 0 76 18.5t52.5 52.5t19.5 80v436h137v-432q0 -81 -37 -144.5t-100.5 -100t-147.5 -36.5zM284 765l-50 62l144 156l84 -102z" />
    <glyph glyph-name="Ucircumflex" unicode="&#xdb;" horiz-adv-x="696" 
d="M349 -10q-83 0 -147.5 36.5t-101.5 100.5t-37 145v431h136v-435q0 -47 19.5 -81t54 -52.5t76.5 -18.5q43 0 76 18.5t52.5 52.5t19.5 80v436h137v-432q0 -81 -37 -144.5t-100.5 -100t-147.5 -36.5zM214 762l-50 58l141 150h86l141 -150l-50 -58l-181 128l95 -1z" />
    <glyph glyph-name="Udieresis" unicode="&#xdc;" horiz-adv-x="696" 
d="M349 -10q-83 0 -147.5 36.5t-101.5 100.5t-37 145v431h136v-435q0 -47 19.5 -81t54 -52.5t76.5 -18.5q43 0 76 18.5t52.5 52.5t19.5 80v436h137v-432q0 -81 -37 -144.5t-100.5 -100t-147.5 -36.5zM240 773q-31 0 -52 21.5t-21 53.5t21 53.5t52 21.5q33 0 53.5 -21.5
t20.5 -53.5t-20.5 -53.5t-53.5 -21.5zM455 773q-31 0 -52 21.5t-21 53.5t21 53.5t52 21.5q33 0 53.5 -21.5t20.5 -53.5t-20.5 -53.5t-53.5 -21.5z" />
    <glyph glyph-name="Yacute" unicode="&#xdd;" horiz-adv-x="679" 
d="M290 271l-272 432h157l211 -346h-90l211 346h155l-275 -432h-97zM272 0v344h137v-344h-137zM275 765l-50 62l144 156l84 -102z" />
    <glyph glyph-name="Thorn" unicode="&#xde;" horiz-adv-x="616" 
d="M172 138v111h163q32 0 58 13t41 37.5t15 59.5q0 34 -15 59t-41 38t-58 13h-163v111h177q67 0 120.5 -27t84.5 -76.5t31 -117.5t-31 -117.5t-84.5 -76.5t-120.5 -27h-177zM72 0v703h136v-703h-136z" />
    <glyph glyph-name="germandbls" unicode="&#xdf;" horiz-adv-x="585" 
d="M333 -10q-44 0 -71.5 10t-50.5 29l58 99q10 -8 23.5 -13.5t36.5 -5.5q26 0 47 12t33.5 35t12.5 54q0 30 -14.5 54t-39.5 38.5t-56 14.5h-52v110h32q25 0 44.5 11.5t30 33t10.5 50.5q0 27 -11.5 47.5t-32 32.5t-48.5 12q-43 0 -70 -25.5t-27 -69.5v-519h-130v516
q0 60 28.5 109t80 78t120.5 29q68 0 116.5 -27.5t75 -73t26.5 -99.5q0 -59 -30.5 -102t-84.5 -62l2 42q52 -10 90 -38t58.5 -70t20.5 -97q0 -45 -17 -84t-47.5 -68t-72.5 -46t-91 -17z" />
    <glyph glyph-name="agrave" unicode="&#xe0;" horiz-adv-x="588" 
d="M260 -10q-66 0 -119 33t-83 90t-30 128q0 72 30 129t83 90t119 33q52 0 93 -21t65.5 -58.5t26.5 -84.5v-174q-2 -48 -26.5 -85t-65.5 -58.5t-93 -21.5zM284 111q55 0 89 36.5t34 94.5q0 38 -15.5 67.5t-43 46t-64.5 16.5q-36 0 -63.5 -16.5t-43 -46t-15.5 -67.5
q0 -39 15.5 -68.5t43 -46t63.5 -16.5zM400 0v130l21 118l-21 116v119h130v-483h-130zM343 540l-178 116l85 102l143 -156z" />
    <glyph glyph-name="aacute" unicode="&#xe1;" horiz-adv-x="588" 
d="M260 -10q-66 0 -119 33t-83 90t-30 128q0 72 30 129t83 90t119 33q52 0 93 -21t65.5 -58.5t26.5 -84.5v-174q-2 -48 -26.5 -85t-65.5 -58.5t-93 -21.5zM284 111q55 0 89 36.5t34 94.5q0 38 -15.5 67.5t-43 46t-64.5 16.5q-36 0 -63.5 -16.5t-43 -46t-15.5 -67.5
q0 -39 15.5 -68.5t43 -46t63.5 -16.5zM400 0v130l21 118l-21 116v119h130v-483h-130zM232 545l-50 62l144 156l84 -102z" />
    <glyph glyph-name="acircumflex" unicode="&#xe2;" horiz-adv-x="588" 
d="M260 -10q-66 0 -119 33t-83 90t-30 128q0 72 30 129t83 90t119 33q52 0 93 -21t65.5 -58.5t26.5 -84.5v-174q-2 -48 -26.5 -85t-65.5 -58.5t-93 -21.5zM284 111q55 0 89 36.5t34 94.5q0 38 -15.5 67.5t-43 46t-64.5 16.5q-36 0 -63.5 -16.5t-43 -46t-15.5 -67.5
q0 -39 15.5 -68.5t43 -46t63.5 -16.5zM400 0v130l21 118l-21 116v119h130v-483h-130zM162 542l-50 58l141 150h86l141 -150l-50 -58l-181 128l95 -1z" />
    <glyph glyph-name="atilde" unicode="&#xe3;" horiz-adv-x="588" 
d="M260 -10q-66 0 -119 33t-83 90t-30 128q0 72 30 129t83 90t119 33q52 0 93 -21t65.5 -58.5t26.5 -84.5v-174q-2 -48 -26.5 -85t-65.5 -58.5t-93 -21.5zM284 111q55 0 89 36.5t34 94.5q0 38 -15.5 67.5t-43 46t-64.5 16.5q-36 0 -63.5 -16.5t-43 -46t-15.5 -67.5
q0 -39 15.5 -68.5t43 -46t63.5 -16.5zM400 0v130l21 118l-21 116v119h130v-483h-130zM369 545q-33 0 -56 12t-43 23t-43 11q-24 0 -39.5 -9t-29.5 -28l-66 66q29 38 59.5 58t71.5 20q33 0 56 -11.5t43 -23t43 -11.5q25 0 40.5 9.5t28.5 27.5l66 -65q-29 -38 -59.5 -58.5
t-71.5 -20.5z" />
    <glyph glyph-name="adieresis" unicode="&#xe4;" horiz-adv-x="588" 
d="M260 -10q-66 0 -119 33t-83 90t-30 128q0 72 30 129t83 90t119 33q52 0 93 -21t65.5 -58.5t26.5 -84.5v-174q-2 -48 -26.5 -85t-65.5 -58.5t-93 -21.5zM284 111q55 0 89 36.5t34 94.5q0 38 -15.5 67.5t-43 46t-64.5 16.5q-36 0 -63.5 -16.5t-43 -46t-15.5 -67.5
q0 -39 15.5 -68.5t43 -46t63.5 -16.5zM400 0v130l21 118l-21 116v119h130v-483h-130zM189 553q-31 0 -52 21.5t-21 53.5t21 53.5t52 21.5q33 0 53.5 -21.5t20.5 -53.5t-20.5 -53.5t-53.5 -21.5zM404 553q-31 0 -52 21.5t-21 53.5t21 53.5t52 21.5q33 0 53.5 -21.5
t20.5 -53.5t-20.5 -53.5t-53.5 -21.5z" />
    <glyph glyph-name="aring" unicode="&#xe5;" horiz-adv-x="588" 
d="M260 -10q-66 0 -119 33t-83 90t-30 128q0 72 30 129t83 90t119 33q52 0 93 -21t65.5 -58.5t26.5 -84.5v-174q-2 -48 -26.5 -85t-65.5 -58.5t-93 -21.5zM284 111q55 0 89 36.5t34 94.5q0 38 -15.5 67.5t-43 46t-64.5 16.5q-36 0 -63.5 -16.5t-43 -46t-15.5 -67.5
q0 -39 15.5 -68.5t43 -46t63.5 -16.5zM400 0v130l21 118l-21 116v119h130v-483h-130zM298 535q-38 0 -67 17t-46 45t-17 64t17 65t46 45.5t66 16.5t65.5 -16.5t45.5 -45t17 -64.5t-17 -65t-45.5 -45.5t-64.5 -16.5zM298 616q18 0 30.5 13t12.5 33q0 19 -12.5 32t-30.5 13
q-21 0 -33.5 -13t-12.5 -32t12.5 -32.5t33.5 -13.5z" />
    <glyph glyph-name="ae" unicode="&#xe6;" horiz-adv-x="927" 
d="M676 -10q-76 0 -135 32.5t-93.5 89.5t-34.5 130q0 72 33.5 128.5t91.5 90t129 33.5q70 0 123.5 -31.5t84 -86t30.5 -123.5q0 -13 -1.5 -26.5t-5.5 -30.5l-406 -1v98l345 1l-53 -41q-2 43 -15.5 72t-39 44.5t-62.5 15.5q-39 0 -68 -17.5t-44.5 -49t-15.5 -74.5
q0 -44 16.5 -76.5t47.5 -50t72 -17.5q37 0 67 12.5t52 37.5l77 -77q-35 -41 -85.5 -62t-109.5 -21zM260 -10q-66 0 -119 33t-83 90t-30 128q0 72 30 129t83 90t119 33q52 0 93 -21t65.5 -58.5t26.5 -84.5v-174q-2 -48 -26.5 -85t-65.5 -58.5t-93 -21.5zM284 111
q55 0 89 36.5t34 94.5q0 38 -15.5 67.5t-43 46t-64.5 16.5q-36 0 -63.5 -16.5t-43 -46t-15.5 -67.5q0 -39 15.5 -68.5t43 -46t63.5 -16.5zM400 0v130l21 118l-21 116v119h130v-483h-130z" />
    <glyph glyph-name="ccedilla" unicode="&#xe7;" horiz-adv-x="492" 
d="M286 -10q-74 0 -133 33t-93 90t-34 128q0 72 34 129t93.5 90.5t132.5 33.5q57 0 105 -21t83 -60l-84 -85q-19 21 -45.5 32t-58.5 11q-36 0 -64.5 -16.5t-45 -45t-16.5 -67.5q0 -38 16.5 -67.5t45 -46t64.5 -16.5q33 0 59.5 11.5t45.5 33.5l85 -85q-37 -40 -85 -61
t-105 -21zM251 -212q-38 0 -66 9t-56 26l47 59q12 -9 27.5 -15t36.5 -6q23 0 33.5 6.5t10.5 15.5q0 11 -10.5 18.5t-33.5 7.5h-42l33 104h83l-25 -72l-42 33q64 1 101.5 -25.5t37.5 -67.5q0 -40 -37 -66.5t-98 -26.5z" />
    <glyph glyph-name="egrave" unicode="&#xe8;" horiz-adv-x="541" 
d="M289 -10q-76 0 -135 32.5t-93.5 89.5t-34.5 130q0 72 33.5 128.5t91.5 90t129 33.5q70 0 123.5 -31.5t84 -86t30.5 -123.5q0 -13 -1.5 -26.5t-5.5 -30.5l-406 -1v98l345 1l-53 -41q-2 43 -15.5 72t-39 44.5t-62.5 15.5q-39 0 -68 -17.5t-44.5 -49t-15.5 -74.5
q0 -44 16.5 -76.5t47.5 -50t72 -17.5q37 0 67 12.5t52 37.5l77 -77q-35 -41 -85.5 -62t-109.5 -21zM327 540l-178 116l85 102l143 -156z" />
    <glyph glyph-name="eacute" unicode="&#xe9;" horiz-adv-x="541" 
d="M289 -10q-76 0 -135 32.5t-93.5 89.5t-34.5 130q0 72 33.5 128.5t91.5 90t129 33.5q70 0 123.5 -31.5t84 -86t30.5 -123.5q0 -13 -1.5 -26.5t-5.5 -30.5l-406 -1v98l345 1l-53 -41q-2 43 -15.5 72t-39 44.5t-62.5 15.5q-39 0 -68 -17.5t-44.5 -49t-15.5 -74.5
q0 -44 16.5 -76.5t47.5 -50t72 -17.5q37 0 67 12.5t52 37.5l77 -77q-35 -41 -85.5 -62t-109.5 -21zM216 545l-50 62l144 156l84 -102z" />
    <glyph glyph-name="ecircumflex" unicode="&#xea;" horiz-adv-x="541" 
d="M289 -10q-76 0 -135 32.5t-93.5 89.5t-34.5 130q0 72 33.5 128.5t91.5 90t129 33.5q70 0 123.5 -31.5t84 -86t30.5 -123.5q0 -13 -1.5 -26.5t-5.5 -30.5l-406 -1v98l345 1l-53 -41q-2 43 -15.5 72t-39 44.5t-62.5 15.5q-39 0 -68 -17.5t-44.5 -49t-15.5 -74.5
q0 -44 16.5 -76.5t47.5 -50t72 -17.5q37 0 67 12.5t52 37.5l77 -77q-35 -41 -85.5 -62t-109.5 -21zM146 542l-50 58l141 150h86l141 -150l-50 -58l-181 128l95 -1z" />
    <glyph glyph-name="edieresis" unicode="&#xeb;" horiz-adv-x="541" 
d="M289 -10q-76 0 -135 32.5t-93.5 89.5t-34.5 130q0 72 33.5 128.5t91.5 90t129 33.5q70 0 123.5 -31.5t84 -86t30.5 -123.5q0 -13 -1.5 -26.5t-5.5 -30.5l-406 -1v98l345 1l-53 -41q-2 43 -15.5 72t-39 44.5t-62.5 15.5q-39 0 -68 -17.5t-44.5 -49t-15.5 -74.5
q0 -44 16.5 -76.5t47.5 -50t72 -17.5q37 0 67 12.5t52 37.5l77 -77q-35 -41 -85.5 -62t-109.5 -21zM172 553q-31 0 -52 21.5t-21 53.5t21 53.5t52 21.5q33 0 53.5 -21.5t20.5 -53.5t-20.5 -53.5t-53.5 -21.5zM387 553q-31 0 -52 21.5t-21 53.5t21 53.5t52 21.5
q33 0 53.5 -21.5t20.5 -53.5t-20.5 -53.5t-53.5 -21.5z" />
    <glyph glyph-name="igrave" unicode="&#xec;" horiz-adv-x="247" 
d="M58 0v483h131v-483h-131zM170 540l-178 116l85 102l143 -156z" />
    <glyph glyph-name="iacute" unicode="&#xed;" horiz-adv-x="247" 
d="M58 0v483h131v-483h-131zM59 545l-50 62l144 156l84 -102z" />
    <glyph glyph-name="icircumflex" unicode="&#xee;" horiz-adv-x="247" 
d="M58 0v483h131v-483h-131zM-11 542l-50 58l141 150h86l141 -150l-50 -58l-181 128l95 -1z" />
    <glyph glyph-name="idieresis" unicode="&#xef;" horiz-adv-x="247" 
d="M58 0v483h131v-483h-131zM16 553q-31 0 -52 21.5t-21 53.5t21 53.5t52 21.5q33 0 53.5 -21.5t20.5 -53.5t-20.5 -53.5t-53.5 -21.5zM231 553q-31 0 -52 21.5t-21 53.5t21 53.5t52 21.5q33 0 53.5 -21.5t20.5 -53.5t-20.5 -53.5t-53.5 -21.5z" />
    <glyph glyph-name="eth" unicode="&#xf0;" horiz-adv-x="568" 
d="M285 -10q-72 0 -129.5 33t-91.5 89t-34 125q0 67 30.5 118.5t82.5 81t114 29.5q39 0 63 -9t39.5 -26t27.5 -40l-50 14l-213 298h155l195 -282q65 -94 65 -187q0 -68 -33.5 -123.5t-91 -88t-129.5 -32.5zM285 112q34 0 61.5 16.5t43 45t15.5 64.5t-15.5 64t-43 44.5
t-61.5 16.5t-62 -16t-44 -44.5t-16 -64.5t16 -64.5t43.5 -45t62.5 -16.5zM103 486l-32 83l364 134l33 -82z" />
    <glyph glyph-name="ntilde" unicode="&#xf1;" horiz-adv-x="562" 
d="M383 0v277q0 43 -27 70t-70 27q-28 0 -50 -12t-34.5 -34t-12.5 -51l-51 26q0 57 24.5 99.5t68 66.5t98.5 24q53 0 95 -26.5t66 -69t24 -91.5v-306h-131zM58 0v483h131v-483h-131zM354 545q-33 0 -56 12t-43 23t-43 11q-24 0 -39.5 -9t-29.5 -28l-66 66q29 38 59.5 58
t71.5 20q33 0 56 -11.5t43 -23t43 -11.5q25 0 40.5 9.5t28.5 27.5l66 -65q-29 -38 -59.5 -58.5t-71.5 -20.5z" />
    <glyph glyph-name="ograve" unicode="&#xf2;" horiz-adv-x="569" 
d="M285 -10q-73 0 -131.5 33.5t-93 91t-34.5 128.5t34 127.5t93 90t131 33.5q74 0 132.5 -33.5t92.5 -90t34 -127.5t-34 -128.5t-92.5 -91t-131.5 -33.5zM284 112q37 0 65.5 16.5t44 46t15.5 67.5t-16 67t-44 45.5t-65 16.5q-36 0 -64 -16.5t-44 -45.5t-16 -67t16 -67.5
t44 -46t64 -16.5zM332 540l-178 116l85 102l143 -156z" />
    <glyph glyph-name="oacute" unicode="&#xf3;" horiz-adv-x="569" 
d="M285 -10q-73 0 -131.5 33.5t-93 91t-34.5 128.5t34 127.5t93 90t131 33.5q74 0 132.5 -33.5t92.5 -90t34 -127.5t-34 -128.5t-92.5 -91t-131.5 -33.5zM284 112q37 0 65.5 16.5t44 46t15.5 67.5t-16 67t-44 45.5t-65 16.5q-36 0 -64 -16.5t-44 -45.5t-16 -67t16 -67.5
t44 -46t64 -16.5zM221 545l-50 62l144 156l84 -102z" />
    <glyph glyph-name="ocircumflex" unicode="&#xf4;" horiz-adv-x="569" 
d="M285 -10q-73 0 -131.5 33.5t-93 91t-34.5 128.5t34 127.5t93 90t131 33.5q74 0 132.5 -33.5t92.5 -90t34 -127.5t-34 -128.5t-92.5 -91t-131.5 -33.5zM284 112q37 0 65.5 16.5t44 46t15.5 67.5t-16 67t-44 45.5t-65 16.5q-36 0 -64 -16.5t-44 -45.5t-16 -67t16 -67.5
t44 -46t64 -16.5zM151 542l-50 58l141 150h86l141 -150l-50 -58l-181 128l95 -1z" />
    <glyph glyph-name="otilde" unicode="&#xf5;" horiz-adv-x="569" 
d="M285 -10q-73 0 -131.5 33.5t-93 91t-34.5 128.5t34 127.5t93 90t131 33.5q74 0 132.5 -33.5t92.5 -90t34 -127.5t-34 -128.5t-92.5 -91t-131.5 -33.5zM284 112q37 0 65.5 16.5t44 46t15.5 67.5t-16 67t-44 45.5t-65 16.5q-36 0 -64 -16.5t-44 -45.5t-16 -67t16 -67.5
t44 -46t64 -16.5zM358 545q-33 0 -56 12t-43 23t-43 11q-24 0 -39.5 -9t-29.5 -28l-66 66q29 38 59.5 58t71.5 20q33 0 56 -11.5t43 -23t43 -11.5q25 0 40.5 9.5t28.5 27.5l66 -65q-29 -38 -59.5 -58.5t-71.5 -20.5z" />
    <glyph glyph-name="odieresis" unicode="&#xf6;" horiz-adv-x="569" 
d="M285 -10q-73 0 -131.5 33.5t-93 91t-34.5 128.5t34 127.5t93 90t131 33.5q74 0 132.5 -33.5t92.5 -90t34 -127.5t-34 -128.5t-92.5 -91t-131.5 -33.5zM284 112q37 0 65.5 16.5t44 46t15.5 67.5t-16 67t-44 45.5t-65 16.5q-36 0 -64 -16.5t-44 -45.5t-16 -67t16 -67.5
t44 -46t64 -16.5zM177 553q-31 0 -52 21.5t-21 53.5t21 53.5t52 21.5q33 0 53.5 -21.5t20.5 -53.5t-20.5 -53.5t-53.5 -21.5zM392 553q-31 0 -52 21.5t-21 53.5t21 53.5t52 21.5q33 0 53.5 -21.5t20.5 -53.5t-20.5 -53.5t-53.5 -21.5z" />
    <glyph glyph-name="divide" unicode="&#xf7;" horiz-adv-x="555" 
d="M51 278v114h453v-114h-453zM278 437q-31 0 -51.5 21.5t-20.5 52.5t20.5 52.5t51.5 21.5q32 0 52 -21.5t20 -52.5t-20 -52.5t-52 -21.5zM278 86q-31 0 -51.5 21.5t-20.5 52.5t20.5 52t51.5 21q32 0 52 -21t20 -52t-20 -52.5t-52 -21.5z" />
    <glyph glyph-name="oslash" unicode="&#xf8;" horiz-adv-x="569" 
d="M87 -29l-72 72l469 469l72 -72zM284 -10q-72 0 -131 33.5t-93 91t-34 128.5t34 127.5t93 90t131 33.5q74 0 132.5 -33.5t92.5 -90t34 -127.5t-34 -128.5t-92.5 -91t-132.5 -33.5zM284 104q39 0 69 17.5t46.5 49t16.5 71.5q0 41 -17 71.5t-46.5 48t-68.5 17.5
q-38 0 -68 -17.5t-46.5 -48t-16.5 -71.5q0 -40 16.5 -71.5t46.5 -49t68 -17.5z" />
    <glyph glyph-name="ugrave" unicode="&#xf9;" horiz-adv-x="528" 
d="M264 -10q-64 0 -113.5 27t-77.5 75t-28 111v280h132v-277q0 -30 10 -51.5t30 -32.5t47 -11q41 0 64 25t23 70v277h131v-280q0 -64 -27.5 -112t-77 -74.5t-113.5 -26.5zM311 540l-178 116l85 102l143 -156z" />
    <glyph glyph-name="uacute" unicode="&#xfa;" horiz-adv-x="528" 
d="M264 -10q-64 0 -113.5 27t-77.5 75t-28 111v280h132v-277q0 -30 10 -51.5t30 -32.5t47 -11q41 0 64 25t23 70v277h131v-280q0 -64 -27.5 -112t-77 -74.5t-113.5 -26.5zM200 545l-50 62l144 156l84 -102z" />
    <glyph glyph-name="ucircumflex" unicode="&#xfb;" horiz-adv-x="528" 
d="M264 -10q-64 0 -113.5 27t-77.5 75t-28 111v280h132v-277q0 -30 10 -51.5t30 -32.5t47 -11q41 0 64 25t23 70v277h131v-280q0 -64 -27.5 -112t-77 -74.5t-113.5 -26.5zM130 542l-50 58l141 150h86l141 -150l-50 -58l-181 128l95 -1z" />
    <glyph glyph-name="udieresis" unicode="&#xfc;" horiz-adv-x="528" 
d="M264 -10q-64 0 -113.5 27t-77.5 75t-28 111v280h132v-277q0 -30 10 -51.5t30 -32.5t47 -11q41 0 64 25t23 70v277h131v-280q0 -64 -27.5 -112t-77 -74.5t-113.5 -26.5zM157 553q-31 0 -52 21.5t-21 53.5t21 53.5t52 21.5q33 0 53.5 -21.5t20.5 -53.5t-20.5 -53.5
t-53.5 -21.5zM372 553q-31 0 -52 21.5t-21 53.5t21 53.5t52 21.5q33 0 53.5 -21.5t20.5 -53.5t-20.5 -53.5t-53.5 -21.5z" />
    <glyph glyph-name="yacute" unicode="&#xfd;" horiz-adv-x="526" 
d="M210 -4l-202 487h142l134 -372h-48l139 372h143l-215 -487h-93zM76 -202l147 311l80 -113l-88 -198h-139zM199 545l-50 62l144 156l84 -102z" />
    <glyph glyph-name="thorn" unicode="&#xfe;" horiz-adv-x="588" 
d="M326 -10q-52 0 -94 21.5t-67 58.5t-27 85v171q2 48 27.5 85.5t67 59.5t93.5 22q67 0 120 -33t83.5 -90t30.5 -129q0 -71 -30.5 -128t-83.5 -90t-120 -33zM58 -202v925h131v-367l-22 -117l21 -117v-324h-130zM303 111q36 0 63.5 16.5t43.5 46t16 68.5q0 38 -15.5 67.5
t-43.5 46t-64 16.5q-35 0 -63 -16.5t-43.5 -46t-15.5 -67.5q0 -39 15.5 -68.5t43 -46t63.5 -16.5z" />
    <glyph glyph-name="ydieresis" unicode="&#xff;" horiz-adv-x="526" 
d="M210 -4l-202 487h142l134 -372h-48l139 372h143l-215 -487h-93zM76 -202l147 311l80 -113l-88 -198h-139zM155 553q-31 0 -52 21.5t-21 53.5t21 53.5t52 21.5q33 0 53.5 -21.5t20.5 -53.5t-20.5 -53.5t-53.5 -21.5zM370 553q-31 0 -52 21.5t-21 53.5t21 53.5t52 21.5
q33 0 53.5 -21.5t20.5 -53.5t-20.5 -53.5t-53.5 -21.5z" />
    <glyph glyph-name="Amacron" unicode="&#x100;" horiz-adv-x="715" 
d="M20 0l283 703h111l282 -703h-145l-218 577h50l-221 -577h-142zM170 131v114h378v-114h-378zM168 899h380v-102h-380v102z" />
    <glyph glyph-name="amacron" unicode="&#x101;" horiz-adv-x="588" 
d="M260 -10q-66 0 -119 33t-83 90t-30 128q0 72 30 129t83 90t119 33q52 0 93 -21t65.5 -58.5t26.5 -84.5v-174q-2 -48 -26.5 -85t-65.5 -58.5t-93 -21.5zM284 111q55 0 89 36.5t34 94.5q0 38 -15.5 67.5t-43 46t-64.5 16.5q-36 0 -63.5 -16.5t-43 -46t-15.5 -67.5
q0 -39 15.5 -68.5t43 -46t63.5 -16.5zM400 0v130l21 118l-21 116v119h130v-483h-130zM106 679h380v-102h-380v102z" />
    <glyph glyph-name="Abreve" unicode="&#x102;" horiz-adv-x="715" 
d="M20 0l283 703h111l282 -703h-145l-218 577h50l-221 -577h-142zM170 131v114h378v-114h-378zM542 936q0 -50 -24 -91.5t-65 -65.5t-94 -24t-94.5 24t-66 65.5t-24.5 91.5h110q0 -32 20.5 -54t54.5 -22q21 0 37.5 10t26 27.5t9.5 38.5h110z" />
    <glyph glyph-name="abreve" unicode="&#x103;" horiz-adv-x="588" 
d="M260 -10q-66 0 -119 33t-83 90t-30 128q0 72 30 129t83 90t119 33q52 0 93 -21t65.5 -58.5t26.5 -84.5v-174q-2 -48 -26.5 -85t-65.5 -58.5t-93 -21.5zM284 111q55 0 89 36.5t34 94.5q0 38 -15.5 67.5t-43 46t-64.5 16.5q-36 0 -63.5 -16.5t-43 -46t-15.5 -67.5
q0 -39 15.5 -68.5t43 -46t63.5 -16.5zM400 0v130l21 118l-21 116v119h130v-483h-130zM480 716q0 -50 -24 -91.5t-65 -65.5t-94 -24t-94.5 24t-66 65.5t-24.5 91.5h110q0 -32 20.5 -54t54.5 -22q21 0 37.5 10t26 27.5t9.5 38.5h110z" />
    <glyph glyph-name="Aogonek" unicode="&#x104;" horiz-adv-x="715" 
d="M20 0l283 703h111l282 -703h-145l-218 577h50l-221 -577h-142zM170 131v114h378v-114h-378zM630 -212q-53 0 -90 24t-37 77q0 47 30.5 82.5t87.5 54.5l75 -26q-38 -17 -60 -40t-22 -53q0 -17 9.5 -27t28.5 -10q13 0 24 4.5t19 8.5l31 -70q-17 -10 -40 -17.5t-56 -7.5z
" />
    <glyph glyph-name="aogonek" unicode="&#x105;" horiz-adv-x="588" 
d="M260 -10q-66 0 -119 33t-83 90t-30 128q0 72 30 129t83 90t119 33q52 0 93 -21t65.5 -58.5t26.5 -84.5v-174q-2 -48 -26.5 -85t-65.5 -58.5t-93 -21.5zM284 111q55 0 89 36.5t34 94.5q0 38 -15.5 67.5t-43 46t-64.5 16.5q-36 0 -63.5 -16.5t-43 -46t-15.5 -67.5
q0 -39 15.5 -68.5t43 -46t63.5 -16.5zM400 0v130l21 118l-21 116v119h130v-483h-130zM464 -212q-53 0 -90 24t-37 77q0 47 30.5 82.5t87.5 54.5l75 -26q-38 -17 -60 -40t-22 -53q0 -17 9.5 -27t28.5 -10q13 0 24 4.5t19 8.5l31 -70q-17 -10 -40 -17.5t-56 -7.5z" />
    <glyph glyph-name="Cacute" unicode="&#x106;" horiz-adv-x="686" 
d="M398 -10q-77 0 -143 27.5t-115.5 77t-76 115.5t-26.5 142t26.5 142t76 115t115 77t143.5 28q84 0 148 -27.5t113 -75.5l-92 -92q-29 32 -71 50t-98 18q-49 0 -89.5 -16.5t-70.5 -48t-46 -75t-16 -95.5q0 -53 16 -96t46 -74.5t70.5 -48.5t89.5 -17q59 0 101.5 18t71.5 51
l92 -92q-49 -49 -114 -76t-151 -27zM317 765l-50 62l144 156l84 -102z" />
    <glyph glyph-name="cacute" unicode="&#x107;" horiz-adv-x="492" 
d="M286 -10q-74 0 -133 33t-93 90t-34 128q0 72 34 129t93.5 90.5t132.5 33.5q57 0 105 -21t83 -60l-84 -85q-19 21 -45.5 32t-58.5 11q-36 0 -64.5 -16.5t-45 -45t-16.5 -67.5q0 -38 16.5 -67.5t45 -46t64.5 -16.5q33 0 59.5 11.5t45.5 33.5l85 -85q-37 -40 -85 -61
t-105 -21zM218 545l-50 62l144 156l84 -102z" />
    <glyph glyph-name="Cdotaccent" unicode="&#x10a;" horiz-adv-x="686" 
d="M398 -10q-77 0 -143 27.5t-115.5 77t-76 115.5t-26.5 142t26.5 142t76 115t115 77t143.5 28q84 0 148 -27.5t113 -75.5l-92 -92q-29 32 -71 50t-98 18q-49 0 -89.5 -16.5t-70.5 -48t-46 -75t-16 -95.5q0 -53 16 -96t46 -74.5t70.5 -48.5t89.5 -17q59 0 101.5 18t71.5 51
l92 -92q-49 -49 -114 -76t-151 -27zM382 773q-32 0 -53 21.5t-21 53.5t21 53.5t53 21.5q33 0 53.5 -21.5t20.5 -53.5t-20.5 -53.5t-53.5 -21.5z" />
    <glyph glyph-name="cdotaccent" unicode="&#x10b;" horiz-adv-x="492" 
d="M286 -10q-74 0 -133 33t-93 90t-34 128q0 72 34 129t93.5 90.5t132.5 33.5q57 0 105 -21t83 -60l-84 -85q-19 21 -45.5 32t-58.5 11q-36 0 -64.5 -16.5t-45 -45t-16.5 -67.5q0 -38 16.5 -67.5t45 -46t64.5 -16.5q33 0 59.5 11.5t45.5 33.5l85 -85q-37 -40 -85 -61
t-105 -21zM282 553q-32 0 -53 21.5t-21 53.5t21 53.5t53 21.5q33 0 53.5 -21.5t20.5 -53.5t-20.5 -53.5t-53.5 -21.5z" />
    <glyph glyph-name="Ccaron" unicode="&#x10c;" horiz-adv-x="686" 
d="M398 -10q-77 0 -143 27.5t-115.5 77t-76 115.5t-26.5 142t26.5 142t76 115t115 77t143.5 28q84 0 148 -27.5t113 -75.5l-92 -92q-29 32 -71 50t-98 18q-49 0 -89.5 -16.5t-70.5 -48t-46 -75t-16 -95.5q0 -53 16 -96t46 -74.5t70.5 -48.5t89.5 -17q59 0 101.5 18t71.5 51
l92 -92q-49 -49 -114 -76t-151 -27zM515 970l50 -58l-141 -150h-86l-141 150l50 58l181 -127h-95z" />
    <glyph glyph-name="ccaron" unicode="&#x10d;" horiz-adv-x="492" 
d="M286 -10q-74 0 -133 33t-93 90t-34 128q0 72 34 129t93.5 90.5t132.5 33.5q57 0 105 -21t83 -60l-84 -85q-19 21 -45.5 32t-58.5 11q-36 0 -64.5 -16.5t-45 -45t-16.5 -67.5q0 -38 16.5 -67.5t45 -46t64.5 -16.5q33 0 59.5 11.5t45.5 33.5l85 -85q-37 -40 -85 -61
t-105 -21zM415 750l50 -58l-141 -150h-85l-141 150l50 58l181 -127h-95z" />
    <glyph glyph-name="Dcaron" unicode="&#x10e;" horiz-adv-x="747" 
d="M165 0v121h179q68 0 119 28.5t79.5 80.5t28.5 123q0 69 -29 120.5t-80 80t-118 28.5h-182v121h184q78 0 144.5 -26t116 -73.5t77 -111.5t27.5 -140t-27.5 -140.5t-76.5 -112t-115.5 -73.5t-143.5 -26h-183zM72 0v703h136v-703h-136zM480 970l50 -58l-141 -150h-86
l-141 150l50 58l181 -127h-95z" />
    <glyph glyph-name="dcaron" unicode="&#x10f;" horiz-adv-x="793" 
d="M262 -10q-67 0 -120 33t-83.5 90t-30.5 128q0 72 30.5 129t83 90t120.5 33q52 0 93.5 -21t67 -58.5t27.5 -84.5v-172q-2 -47 -27 -85t-67 -60t-94 -22zM284 111q37 0 64.5 16.5t43 46t15.5 68.5q0 38 -15.5 67.5t-43 46t-63.5 16.5q-37 0 -64.5 -17t-43 -46t-15.5 -67
q0 -39 15.5 -68.5t43.5 -46t63 -16.5zM530 0h-130v130l21 118l-22 116v359h131v-723zM639 391l-68 37l71 131l41 12q-7 -14 -16 -22.5t-21 -8.5q-25 0 -47 21.5t-22 54.5q0 36 24 61t60 25q33 0 58 -25t25 -61q0 -14 -6 -33.5t-22 -49.5z" />
    <glyph glyph-name="Dcroat" unicode="&#x110;" horiz-adv-x="770" 
d="M0 297v109h446v-109h-446zM187 0v121h180q68 0 119 28.5t79.5 80.5t28.5 123q0 69 -29 120.5t-80 80t-118 28.5h-182v121h184q78 0 144.5 -26t115.5 -73.5t76.5 -111.5t27.5 -140t-27.5 -140.5t-76.5 -112t-115 -73.5t-143 -26h-184zM94 0v703h137v-703h-137z" />
    <glyph glyph-name="dcroat" unicode="&#x111;" horiz-adv-x="600" 
d="M254 543v119h346v-119h-346zM262 -10q-67 0 -120 33t-83.5 90t-30.5 128q0 72 30.5 129t83 90t120.5 33q52 0 93.5 -21t67 -58.5t27.5 -84.5v-172q-2 -47 -27 -85t-67 -60t-94 -22zM284 111q37 0 64.5 16.5t43 46t15.5 68.5q0 38 -15.5 67.5t-43 46t-63.5 16.5
q-37 0 -64.5 -17t-43 -46t-15.5 -67q0 -39 15.5 -68.5t43.5 -46t63 -16.5zM530 0h-130v130l21 118l-22 116v359h131v-723z" />
    <glyph glyph-name="Emacron" unicode="&#x112;" horiz-adv-x="602" 
d="M72 0v703h136v-703h-136zM172 0v120h389v-120h-389zM172 301v116h354v-116h-354zM172 583v120h384v-120h-384zM131 899h380v-102h-380v102z" />
    <glyph glyph-name="emacron" unicode="&#x113;" horiz-adv-x="541" 
d="M289 -10q-76 0 -135 32.5t-93.5 89.5t-34.5 130q0 72 33.5 128.5t91.5 90t129 33.5q70 0 123.5 -31.5t84 -86t30.5 -123.5q0 -13 -1.5 -26.5t-5.5 -30.5l-406 -1v98l345 1l-53 -41q-2 43 -15.5 72t-39 44.5t-62.5 15.5q-39 0 -68 -17.5t-44.5 -49t-15.5 -74.5
q0 -44 16.5 -76.5t47.5 -50t72 -17.5q37 0 67 12.5t52 37.5l77 -77q-35 -41 -85.5 -62t-109.5 -21zM90 679h380v-102h-380v102z" />
    <glyph glyph-name="Edotaccent" unicode="&#x116;" horiz-adv-x="602" 
d="M72 0v703h136v-703h-136zM172 0v120h389v-120h-389zM172 301v116h354v-116h-354zM172 583v120h384v-120h-384zM322 773q-32 0 -53 21.5t-21 53.5t21 53.5t53 21.5q33 0 53.5 -21.5t20.5 -53.5t-20.5 -53.5t-53.5 -21.5z" />
    <glyph glyph-name="edotaccent" unicode="&#x117;" horiz-adv-x="541" 
d="M289 -10q-76 0 -135 32.5t-93.5 89.5t-34.5 130q0 72 33.5 128.5t91.5 90t129 33.5q70 0 123.5 -31.5t84 -86t30.5 -123.5q0 -13 -1.5 -26.5t-5.5 -30.5l-406 -1v98l345 1l-53 -41q-2 43 -15.5 72t-39 44.5t-62.5 15.5q-39 0 -68 -17.5t-44.5 -49t-15.5 -74.5
q0 -44 16.5 -76.5t47.5 -50t72 -17.5q37 0 67 12.5t52 37.5l77 -77q-35 -41 -85.5 -62t-109.5 -21zM280 553q-32 0 -53 21.5t-21 53.5t21 53.5t53 21.5q33 0 53.5 -21.5t20.5 -53.5t-20.5 -53.5t-53.5 -21.5z" />
    <glyph glyph-name="Eogonek" unicode="&#x118;" horiz-adv-x="602" 
d="M72 0v703h136v-703h-136zM172 0v120h389v-120h-389zM172 301v116h354v-116h-354zM172 583v120h384v-120h-384zM495 -212q-53 0 -90 24t-37 77q0 47 30.5 82.5t87.5 54.5l75 -26q-38 -17 -60 -40t-22 -53q0 -17 9.5 -27t28.5 -10q13 0 24 4.5t19 8.5l31 -70
q-17 -10 -40 -17.5t-56 -7.5z" />
    <glyph glyph-name="eogonek" unicode="&#x119;" horiz-adv-x="541" 
d="M289 -10q-76 0 -135 32.5t-93.5 89.5t-34.5 130q0 72 33.5 128.5t91.5 90t129 33.5q70 0 123.5 -31.5t84 -86t30.5 -123.5q0 -13 -1.5 -26.5t-5.5 -30.5l-406 -1v98l345 1l-53 -41q-2 43 -15.5 72t-39 44.5t-62.5 15.5q-39 0 -68 -17.5t-44.5 -49t-15.5 -74.5
q0 -44 16.5 -76.5t47.5 -50t72 -17.5q37 0 67 12.5t52 37.5l77 -77q-35 -41 -85.5 -62t-109.5 -21zM329 -202q-53 0 -90 24t-37 77q0 47 30.5 82.5t87.5 54.5l75 -26q-38 -17 -60 -40t-22 -53q0 -17 9.5 -27t28.5 -10q13 0 24 4.5t19 8.5l31 -70q-17 -10 -40 -17.5t-56 -7.5
z" />
    <glyph glyph-name="Ecaron" unicode="&#x11a;" horiz-adv-x="602" 
d="M72 0v703h136v-703h-136zM172 0v120h389v-120h-389zM172 301v116h354v-116h-354zM172 583v120h384v-120h-384zM455 970l50 -58l-141 -150h-86l-141 150l50 58l181 -127h-95z" />
    <glyph glyph-name="ecaron" unicode="&#x11b;" horiz-adv-x="541" 
d="M289 -10q-76 0 -135 32.5t-93.5 89.5t-34.5 130q0 72 33.5 128.5t91.5 90t129 33.5q70 0 123.5 -31.5t84 -86t30.5 -123.5q0 -13 -1.5 -26.5t-5.5 -30.5l-406 -1v98l345 1l-53 -41q-2 43 -15.5 72t-39 44.5t-62.5 15.5q-39 0 -68 -17.5t-44.5 -49t-15.5 -74.5
q0 -44 16.5 -76.5t47.5 -50t72 -17.5q37 0 67 12.5t52 37.5l77 -77q-35 -41 -85.5 -62t-109.5 -21zM413 750l50 -58l-141 -150h-85l-141 150l50 58l181 -127h-95z" />
    <glyph glyph-name="Gbreve" unicode="&#x11e;" horiz-adv-x="778" 
d="M397 -10q-75 0 -140.5 27.5t-115 77.5t-77 115.5t-27.5 141.5q0 77 28 142.5t78 115t117 77t145 27.5q87 0 160 -32.5t121 -91.5l-92 -92q-33 43 -82 66t-108 23q-67 0 -118.5 -29.5t-80.5 -82t-29 -122.5t28.5 -123.5t78 -83.5t113.5 -30q66 0 113 24.5t72 72t25 116.5
l89 -61l-307 3v118h358v-19q0 -126 -45 -210.5t-123.5 -127t-180.5 -42.5zM584 936q0 -50 -24 -91.5t-65 -65.5t-94 -24t-94.5 24t-66 65.5t-24.5 91.5h110q0 -32 20.5 -54t54.5 -22q21 0 37.5 10t26 27.5t9.5 38.5h110z" />
    <glyph glyph-name="gbreve" unicode="&#x11f;" horiz-adv-x="579" 
d="M260 -214q-77 0 -136 27.5t-94 77.5l83 83q28 -33 62.5 -50.5t83.5 -17.5q61 0 96.5 31t35.5 86v121l22 106l-21 106v127h130v-458q0 -72 -33.5 -125.5t-92.5 -83.5t-136 -30zM254 13q-65 0 -117 31.5t-81.5 86.5t-29.5 123t29.5 122t81.5 85.5t117 31.5q54 0 95.5 -21
t65.5 -57.5t26 -85.5v-152q-2 -48 -26.5 -85.5t-66 -58t-94.5 -20.5zM280 132q36 0 62.5 15.5t41.5 43t15 62.5q0 36 -15 63t-41.5 42.5t-62.5 15.5t-63 -15.5t-42 -43t-15 -62.5q0 -34 15 -61.5t42 -43.5t63 -16zM480 716q0 -50 -24 -91.5t-65 -65.5t-94 -24t-94.5 24
t-66 65.5t-24.5 91.5h110q0 -32 20.5 -54t54.5 -22q21 0 37.5 10t26 27.5t9.5 38.5h110z" />
    <glyph glyph-name="Gdotaccent" unicode="&#x120;" horiz-adv-x="778" 
d="M397 -10q-75 0 -140.5 27.5t-115 77.5t-77 115.5t-27.5 141.5q0 77 28 142.5t78 115t117 77t145 27.5q87 0 160 -32.5t121 -91.5l-92 -92q-33 43 -82 66t-108 23q-67 0 -118.5 -29.5t-80.5 -82t-29 -122.5t28.5 -123.5t78 -83.5t113.5 -30q66 0 113 24.5t72 72t25 116.5
l89 -61l-307 3v118h358v-19q0 -126 -45 -210.5t-123.5 -127t-180.5 -42.5zM400 773q-32 0 -53 21.5t-21 53.5t21 53.5t53 21.5q33 0 53.5 -21.5t20.5 -53.5t-20.5 -53.5t-53.5 -21.5z" />
    <glyph glyph-name="gdotaccent" unicode="&#x121;" horiz-adv-x="579" 
d="M260 -214q-77 0 -136 27.5t-94 77.5l83 83q28 -33 62.5 -50.5t83.5 -17.5q61 0 96.5 31t35.5 86v121l22 106l-21 106v127h130v-458q0 -72 -33.5 -125.5t-92.5 -83.5t-136 -30zM254 13q-65 0 -117 31.5t-81.5 86.5t-29.5 123t29.5 122t81.5 85.5t117 31.5q54 0 95.5 -21
t65.5 -57.5t26 -85.5v-152q-2 -48 -26.5 -85.5t-66 -58t-94.5 -20.5zM280 132q36 0 62.5 15.5t41.5 43t15 62.5q0 36 -15 63t-41.5 42.5t-62.5 15.5t-63 -15.5t-42 -43t-15 -62.5q0 -34 15 -61.5t42 -43.5t63 -16zM297 553q-32 0 -53 21.5t-21 53.5t21 53.5t53 21.5
q33 0 53.5 -21.5t20.5 -53.5t-20.5 -53.5t-53.5 -21.5z" />
    <glyph glyph-name="uni0122" unicode="&#x122;" horiz-adv-x="778" 
d="M397 -10q-75 0 -140.5 27.5t-115 77.5t-77 115.5t-27.5 141.5q0 77 28 142.5t78 115t117 77t145 27.5q87 0 160 -32.5t121 -91.5l-92 -92q-33 43 -82 66t-108 23q-67 0 -118.5 -29.5t-80.5 -82t-29 -122.5t28.5 -123.5t78 -83.5t113.5 -30q66 0 113 24.5t72 72t25 116.5
l89 -61l-307 3v118h358v-19q0 -126 -45 -210.5t-123.5 -127t-180.5 -42.5zM366 -382l-64 42l80 126l42 8q-8 -13 -18 -21t-21 -7q-26 2 -45.5 25.5t-16.5 56.5q3 35 28.5 58t60.5 20q34 -3 56.5 -30t19.5 -62q-1 -15 -8.5 -33.5t-26.5 -47.5z" />
    <glyph glyph-name="uni0123" unicode="&#x123;" horiz-adv-x="579" 
d="M260 -214q-77 0 -136 27.5t-94 77.5l83 83q28 -33 62.5 -50.5t83.5 -17.5q61 0 96.5 31t35.5 86v121l22 106l-21 106v127h130v-458q0 -72 -33.5 -125.5t-92.5 -83.5t-136 -30zM254 13q-65 0 -117 31.5t-81.5 86.5t-29.5 123t29.5 122t81.5 85.5t117 31.5q54 0 95.5 -21
t65.5 -57.5t26 -85.5v-152q-2 -48 -26.5 -85.5t-66 -58t-94.5 -20.5zM280 132q36 0 62.5 15.5t41.5 43t15 62.5q0 36 -15 63t-41.5 42.5t-62.5 15.5t-63 -15.5t-42 -43t-15 -62.5q0 -34 15 -61.5t42 -43.5t63 -16zM390 787l-79 -125l-42 -8q8 13 18 21t21 7
q26 -2 45.5 -25.5t16.5 -56.5q-3 -34 -28.5 -57.5t-61.5 -20.5q-33 3 -55.5 30t-19.5 62q1 14 8.5 33t26.5 47l86 135z" />
    <glyph glyph-name="Hbar" unicode="&#x126;" horiz-adv-x="721" 
d="M0 509v106h721v-106h-721zM72 0v703h136v-703h-136zM513 0v703h136v-703h-136zM158 303v120h393v-120h-393z" />
    <glyph glyph-name="hbar" unicode="&#x127;" horiz-adv-x="562" 
d="M0 543v119h347v-119h-347zM383 0v277q0 43 -27 70t-70 27q-28 0 -50 -12t-34.5 -34t-12.5 -51l-51 26q0 57 24 99.5t66.5 66.5t97.5 24t97.5 -24t66.5 -66t24 -97v-306h-131zM58 0v723h131v-723h-131z" />
    <glyph glyph-name="Imacron" unicode="&#x12a;" horiz-adv-x="280" 
d="M-36 899h353v-102h-353v102zM72 0v703h136v-703h-136z" />
    <glyph glyph-name="imacron" unicode="&#x12b;" horiz-adv-x="247" 
d="M-53 679h353v-102h-353v102zM58 0v483h131v-483h-131z" />
    <glyph glyph-name="Iogonek" unicode="&#x12e;" horiz-adv-x="280" 
d="M72 0v703h136v-703h-136zM142 -212q-53 0 -90 24t-37 77q0 47 30.5 82.5t87.5 54.5l75 -26q-38 -17 -60 -40t-22 -53q0 -17 9.5 -27t28.5 -10q13 0 24 4.5t19 8.5l31 -70q-17 -10 -40 -17.5t-56 -7.5z" />
    <glyph glyph-name="iogonek" unicode="&#x12f;" horiz-adv-x="248" 
d="M58 0v483h132v-483h-132zM124 561q-32 0 -53 21.5t-21 53.5q0 31 21 53t53 22q33 0 53.5 -22t20.5 -53q0 -32 -20.5 -53.5t-53.5 -21.5zM123 -212q-53 0 -90 24t-37 77q0 47 30.5 82.5t87.5 54.5l75 -26q-38 -17 -60 -40t-22 -53q0 -17 9.5 -27t28.5 -10q13 0 24 4.5
t19 8.5l31 -70q-17 -10 -40 -17.5t-56 -7.5z" />
    <glyph glyph-name="Idotaccent" unicode="&#x130;" horiz-adv-x="280" 
d="M72 0v703h136v-703h-136zM141 773q-32 0 -53 21.5t-21 53.5t21 53.5t53 21.5q33 0 53.5 -21.5t20.5 -53.5t-20.5 -53.5t-53.5 -21.5z" />
    <glyph glyph-name="dotlessi" unicode="&#x131;" horiz-adv-x="247" 
d="M58 0v483h131v-483h-131z" />
    <glyph glyph-name="IJ" unicode="&#x132;" horiz-adv-x="649" 
d="M349 -10q-64 0 -112.5 24.5t-80.5 66.5l92 88q18 -26 43.5 -39.5t56.5 -13.5t54.5 13t36 38t12.5 61v475h137v-467q0 -74 -29.5 -129.5t-83 -86t-126.5 -30.5zM72 220v483h131v-483h-131z" />
    <glyph glyph-name="ij" unicode="&#x133;" horiz-adv-x="505" 
d="M58 0v483h132v-483h-132zM124 561q-32 0 -53 21.5t-21 53.5q0 31 21 53t53 22q33 0 53.5 -22t20.5 -53q0 -32 -20.5 -53.5t-53.5 -21.5zM267 -214q-52 0 -86.5 17t-62.5 48l83 83q12 -15 25.5 -21.5t31.5 -6.5q25 0 42 15t17 44v518h131v-516q0 -57 -24.5 -97.5t-65 -62
t-91.5 -21.5zM384 561q-32 0 -53 21.5t-21 53.5q0 31 21 53t53 22q33 0 53.5 -22t20.5 -53q0 -32 -20.5 -53.5t-53.5 -21.5z" />
    <glyph glyph-name="uni0136" unicode="&#x136;" horiz-adv-x="688" 
d="M497 0l-305 367l297 336h170l-331 -365v63l342 -401h-173zM72 0v703h136v-703h-136zM289 -382l-64 42l80 126l42 8q-8 -13 -18 -21t-21 -7q-26 2 -45.5 25.5t-16.5 56.5q3 35 28.5 58t60.5 20q34 -3 56.5 -30t19.5 -62q-1 -15 -8.5 -33.5t-26.5 -47.5z" />
    <glyph glyph-name="uni0137" unicode="&#x137;" horiz-adv-x="528" 
d="M366 0l-187 249l186 234h151l-218 -264l5 64l223 -283h-160zM58 0v723h131v-723h-131zM242 -382l-64 42l80 126l42 8q-8 -13 -18 -21t-21 -7q-26 2 -45.5 25.5t-16.5 56.5q3 35 28.5 58t60.5 20q34 -3 56.5 -30t19.5 -62q-1 -15 -8.5 -33.5t-26.5 -47.5z" />
    <glyph glyph-name="Lacute" unicode="&#x139;" horiz-adv-x="556" 
d="M72 0v703h136v-703h-136zM172 0v121h358v-121h-358zM237 765l-50 62l144 156l84 -102z" />
    <glyph glyph-name="lacute" unicode="&#x13a;" horiz-adv-x="247" 
d="M58 0v723h131v-723h-131zM84 765l-50 62l144 156l84 -102z" />
    <glyph glyph-name="uni013B" unicode="&#x13b;" horiz-adv-x="556" 
d="M72 0v703h136v-703h-136zM172 0v121h358v-121h-358zM267 -382l-64 42l80 126l42 8q-8 -13 -18 -21t-21 -7q-26 2 -45.5 25.5t-16.5 56.5q3 35 28.5 58t60.5 20q34 -3 56.5 -30t19.5 -62q-1 -15 -8.5 -33.5t-26.5 -47.5z" />
    <glyph glyph-name="uni013C" unicode="&#x13c;" horiz-adv-x="247" 
d="M58 0v723h131v-723h-131zM89 -382l-64 42l80 126l42 8q-8 -13 -18 -21t-21 -7q-26 2 -45.5 25.5t-16.5 56.5q3 35 28.5 58t60.5 20q34 -3 56.5 -30t19.5 -62q-1 -15 -8.5 -33.5t-26.5 -47.5z" />
    <glyph glyph-name="Lcaron" unicode="&#x13d;" horiz-adv-x="556" 
d="M72 0v703h136v-703h-136zM172 0v121h358v-121h-358zM350 392l-68 37l71 131l41 12q-7 -14 -16 -22.5t-21 -8.5q-25 0 -47 21.5t-22 54.5q0 36 24 61t60 25q33 0 58 -25t25 -61q0 -14 -6 -33.5t-22 -49.5z" />
    <glyph glyph-name="lcaron" unicode="&#x13e;" horiz-adv-x="452" 
d="M58 0v723h131v-723h-131zM298 392l-68 37l71 131l41 12q-7 -14 -16 -22.5t-21 -8.5q-25 0 -47 21.5t-22 54.5q0 36 24 61t60 25q33 0 58 -25t25 -61q0 -14 -6 -33.5t-22 -49.5z" />
    <glyph glyph-name="Lslash" unicode="&#x141;" horiz-adv-x="614" 
d="M58 341l288 167v-118l-288 -167v118zM131 0v703h136v-703h-136zM231 0v121h357v-121h-357z" />
    <glyph glyph-name="lslash" unicode="&#x142;" horiz-adv-x="393" 
d="M58 341l277 161v-118l-277 -161v118zM131 0v723h131v-723h-131z" />
    <glyph glyph-name="Nacute" unicode="&#x143;" horiz-adv-x="727" 
d="M72 0v703h95l41 -136v-567h-136zM558 0l-417 540l26 163l417 -540zM558 0l-39 132v571h137v-703h-98zM300 765l-50 62l144 156l84 -102z" />
    <glyph glyph-name="nacute" unicode="&#x144;" horiz-adv-x="562" 
d="M383 0v277q0 43 -27 70t-70 27q-28 0 -50 -12t-34.5 -34t-12.5 -51l-51 26q0 57 24.5 99.5t68 66.5t98.5 24q53 0 95 -26.5t66 -69t24 -91.5v-306h-131zM58 0v483h131v-483h-131zM217 545l-50 62l144 156l84 -102z" />
    <glyph glyph-name="uni0145" unicode="&#x145;" horiz-adv-x="727" 
d="M72 0v703h95l41 -136v-567h-136zM558 0l-417 540l26 163l417 -540zM558 0l-39 132v571h137v-703h-98zM330 -382l-64 42l80 126l42 8q-8 -13 -18 -21t-21 -7q-26 2 -45.5 25.5t-16.5 56.5q3 35 28.5 58t60.5 20q34 -3 56.5 -30t19.5 -62q-1 -15 -8.5 -33.5t-26.5 -47.5z
" />
    <glyph glyph-name="uni0146" unicode="&#x146;" horiz-adv-x="562" 
d="M383 0v277q0 43 -27 70t-70 27q-28 0 -50 -12t-34.5 -34t-12.5 -51l-51 26q0 57 24.5 99.5t68 66.5t98.5 24q53 0 95 -26.5t66 -69t24 -91.5v-306h-131zM58 0v483h131v-483h-131zM247 -382l-64 42l80 126l42 8q-8 -13 -18 -21t-21 -7q-26 2 -45.5 25.5t-16.5 56.5
q3 35 28.5 58t60.5 20q34 -3 56.5 -30t19.5 -62q-1 -15 -8.5 -33.5t-26.5 -47.5z" />
    <glyph glyph-name="Ncaron" unicode="&#x147;" horiz-adv-x="727" 
d="M72 0v703h95l41 -136v-567h-136zM558 0l-417 540l26 163l417 -540zM558 0l-39 132v571h137v-703h-98zM497 970l50 -58l-141 -150h-85l-141 150l50 58l181 -127h-95z" />
    <glyph glyph-name="ncaron" unicode="&#x148;" horiz-adv-x="562" 
d="M383 0v277q0 43 -27 70t-70 27q-28 0 -50 -12t-34.5 -34t-12.5 -51l-51 26q0 57 24.5 99.5t68 66.5t98.5 24q53 0 95 -26.5t66 -69t24 -91.5v-306h-131zM58 0v483h131v-483h-131zM415 750l50 -58l-141 -150h-86l-141 150l50 58l181 -127h-95z" />
    <glyph glyph-name="Eng" unicode="&#x14a;" horiz-adv-x="727" 
d="M72 0v703h95l41 -136v-567h-136zM558 0l-417 540l26 163l417 -540zM558 0l-39 132v571h137v-703h-98zM475 -214q-52 0 -86.5 17t-62.5 48l83 83q12 -15 25.5 -21.5t31.5 -6.5q25 0 42 15t17 44v518h131v-516q0 -57 -24.5 -97.5t-65 -62t-91.5 -21.5z" />
    <glyph glyph-name="eng" unicode="&#x14b;" horiz-adv-x="562" 
d="M333 -214q-52 0 -86.5 17t-62.5 48l83 83q12 -15 25.5 -21.5t31.5 -6.5q25 0 42 15t17 44v198h131v-196q0 -57 -24.5 -97.5t-65 -62t-91.5 -21.5zM383 0v277q0 43 -27 70t-70 27q-28 0 -50 -12t-34.5 -34t-12.5 -51l-51 26q0 57 24.5 99.5t68 66.5t98.5 24q53 0 95 -26.5
t66 -69t24 -91.5v-306h-131zM58 0v483h131v-483h-131z" />
    <glyph glyph-name="Omacron" unicode="&#x14c;" horiz-adv-x="800" 
d="M401 -11q-77 0 -143.5 28t-116 77.5t-77.5 116t-28 142.5t27.5 141.5t77 115t115.5 77t143 27.5q78 0 144 -27.5t115.5 -77t77.5 -115.5t28 -142t-28 -142t-77.5 -115.5t-115 -77.5t-142.5 -28zM399 116q68 0 118 30t78.5 83t28.5 124q0 52 -16 95t-46 74.5t-71 48.5
t-92 17q-66 0 -116.5 -29.5t-79 -82.5t-28.5 -123q0 -53 16.5 -97t46 -75t71 -48t90.5 -17zM210 899h380v-102h-380v102z" />
    <glyph glyph-name="omacron" unicode="&#x14d;" horiz-adv-x="569" 
d="M285 -10q-73 0 -131.5 33.5t-93 91t-34.5 128.5t34 127.5t93 90t131 33.5q74 0 132.5 -33.5t92.5 -90t34 -127.5t-34 -128.5t-92.5 -91t-131.5 -33.5zM284 112q37 0 65.5 16.5t44 46t15.5 67.5t-16 67t-44 45.5t-65 16.5q-36 0 -64 -16.5t-44 -45.5t-16 -67t16 -67.5
t44 -46t64 -16.5zM95 679h380v-102h-380v102z" />
    <glyph glyph-name="Ohungarumlaut" unicode="&#x150;" horiz-adv-x="800" 
d="M401 -11q-77 0 -143.5 28t-116 77.5t-77.5 116t-28 142.5t27.5 141.5t77 115t115.5 77t143 27.5q78 0 144 -27.5t115.5 -77t77.5 -115.5t28 -142t-28 -142t-77.5 -115.5t-115 -77.5t-142.5 -28zM399 116q68 0 118 30t78.5 83t28.5 124q0 52 -16 95t-46 74.5t-71 48.5
t-92 17q-66 0 -116.5 -29.5t-79 -82.5t-28.5 -123q0 -53 16.5 -97t46 -75t71 -48t90.5 -17zM282 772l-72 34l64 203l120 -58zM491 772l-72 34l64 203l120 -58z" />
    <glyph glyph-name="ohungarumlaut" unicode="&#x151;" horiz-adv-x="569" 
d="M285 -10q-73 0 -131.5 33.5t-93 91t-34.5 128.5t34 127.5t93 90t131 33.5q74 0 132.5 -33.5t92.5 -90t34 -127.5t-34 -128.5t-92.5 -91t-131.5 -33.5zM284 112q37 0 65.5 16.5t44 46t15.5 67.5t-16 67t-44 45.5t-65 16.5q-36 0 -64 -16.5t-44 -45.5t-16 -67t16 -67.5
t44 -46t64 -16.5zM167 552l-72 34l64 203l120 -58zM376 552l-72 34l64 203l120 -58z" />
    <glyph glyph-name="OE" unicode="&#x152;" horiz-adv-x="1155" 
d="M399 -11q-76 0 -142 28t-115.5 77.5t-77.5 116t-28 142.5t27.5 141.5t77 115t115 77t141.5 27.5q77 0 136.5 -27.5t101 -77t63 -115.5t21.5 -142t-21.5 -142t-62.5 -115.5t-100.5 -77.5t-135.5 -28zM399 116q68 0 118 30t78.5 83t28.5 124q0 69 -28.5 122t-79 83
t-117.5 30q-66 0 -116.5 -29.5t-79 -82.5t-28.5 -123q0 -53 16.5 -97t46 -75t71 -48t90.5 -17zM624 0v703h136v-703h-136zM724 0v120h389v-120h-389zM724 301v116h355v-116h-355zM724 583v120h384v-120h-384z" />
    <glyph glyph-name="oe" unicode="&#x153;" horiz-adv-x="932" 
d="M285 -10q-73 0 -131.5 33.5t-93 91t-34.5 128.5t34 127.5t93 90t131 33.5q74 0 132.5 -33.5t92.5 -90t34 -127.5t-34 -128.5t-92.5 -91t-131.5 -33.5zM284 112q37 0 65.5 16.5t44 46t15.5 67.5t-16 67t-44 45.5t-65 16.5q-36 0 -64 -16.5t-44 -45.5t-16 -67t16 -67.5
t44 -46t64 -16.5zM680 -10q-76 0 -135 32.5t-93.5 89.5t-34.5 130q0 72 33.5 128.5t91.5 90t129 33.5q70 0 123.5 -31.5t84 -86t30.5 -123.5q0 -13 -1.5 -26.5t-5.5 -30.5l-406 -1v98l345 1l-53 -41q-2 43 -15.5 72t-39 44.5t-62.5 15.5q-39 0 -68 -17.5t-44.5 -49
t-15.5 -74.5q0 -44 16.5 -76.5t47.5 -50t72 -17.5q37 0 67 12.5t52 37.5l77 -77q-35 -41 -85.5 -62t-109.5 -21z" />
    <glyph glyph-name="Racute" unicode="&#x154;" horiz-adv-x="640" 
d="M172 294v106h163q50 0 77.5 25.5t27.5 70.5q0 41 -27.5 68.5t-77.5 27.5h-163v111h175q68 0 119.5 -26.5t80 -72.5t28.5 -106q0 -62 -28.5 -107.5t-80.5 -71t-121 -25.5h-173zM72 0v703h136v-703h-136zM456 0l-232 304l125 39l272 -343h-165zM233 765l-50 62l144 156
l84 -102z" />
    <glyph glyph-name="racute" unicode="&#x155;" horiz-adv-x="434" 
d="M58 0v483h131v-483h-131zM189 267l-51 34q9 89 52 140.5t124 51.5q35 0 63 -11.5t51 -37.5l-82 -94q-11 12 -26.5 18t-35.5 6q-42 0 -68.5 -26.5t-26.5 -80.5zM158 545l-50 62l144 156l84 -102z" />
    <glyph glyph-name="uni0156" unicode="&#x156;" horiz-adv-x="640" 
d="M172 294v106h163q50 0 77.5 25.5t27.5 70.5q0 41 -27.5 68.5t-77.5 27.5h-163v111h175q68 0 119.5 -26.5t80 -72.5t28.5 -106q0 -62 -28.5 -107.5t-80.5 -71t-121 -25.5h-173zM72 0v703h136v-703h-136zM456 0l-232 304l125 39l272 -343h-165zM275 -382l-64 42l80 126
l42 8q-8 -13 -18 -21t-21 -7q-26 2 -45.5 25.5t-16.5 56.5q3 35 28.5 58t60.5 20q34 -3 56.5 -30t19.5 -62q-1 -15 -8.5 -33.5t-26.5 -47.5z" />
    <glyph glyph-name="uni0157" unicode="&#x157;" horiz-adv-x="434" 
d="M58 0v483h131v-483h-131zM189 267l-51 34q9 89 52 140.5t124 51.5q35 0 63 -11.5t51 -37.5l-82 -94q-11 12 -26.5 18t-35.5 6q-42 0 -68.5 -26.5t-26.5 -80.5zM89 -382l-64 42l80 126l42 8q-8 -13 -18 -21t-21 -7q-26 2 -45.5 25.5t-16.5 56.5q3 35 28.5 58t60.5 20
q34 -3 56.5 -30t19.5 -62q-1 -15 -8.5 -33.5t-26.5 -47.5z" />
    <glyph glyph-name="Rcaron" unicode="&#x158;" horiz-adv-x="640" 
d="M172 294v106h163q50 0 77.5 25.5t27.5 70.5q0 41 -27.5 68.5t-77.5 27.5h-163v111h175q68 0 119.5 -26.5t80 -72.5t28.5 -106q0 -62 -28.5 -107.5t-80.5 -71t-121 -25.5h-173zM72 0v703h136v-703h-136zM456 0l-232 304l125 39l272 -343h-165zM431 970l50 -58l-141 -150
h-86l-141 150l50 58l181 -127h-95z" />
    <glyph glyph-name="rcaron" unicode="&#x159;" horiz-adv-x="434" 
d="M58 0v483h131v-483h-131zM189 267l-51 34q9 89 52 140.5t124 51.5q35 0 63 -11.5t51 -37.5l-82 -94q-11 12 -26.5 18t-35.5 6q-42 0 -68.5 -26t-26.5 -81zM355 750l50 -58l-141 -150h-85l-141 150l50 58l181 -127h-95z" />
    <glyph glyph-name="Sacute" unicode="&#x15a;" horiz-adv-x="569" 
d="M276 -10q-85 0 -145.5 29t-109.5 87l90 90q31 -41 72 -63.5t100 -22.5q53 0 84.5 21t31.5 58q0 32 -18 52t-47.5 34t-65 25.5t-71 26.5t-65 37.5t-47.5 58t-18 89.5q0 64 31 109t85 69t122 24q72 0 130 -27t95 -70l-90 -90q-31 34 -63.5 50t-73.5 16q-47 0 -74 -18
t-27 -52q0 -29 18 -47t47.5 -31t65 -25t71 -27t65 -39t47.5 -61.5t18 -92.5q0 -98 -69 -154t-189 -56zM241 765l-50 62l144 156l84 -102z" />
    <glyph glyph-name="sacute" unicode="&#x15b;" horiz-adv-x="444" 
d="M224 -11q-41 0 -80.5 11t-72.5 30.5t-57 47.5l78 79q25 -28 58 -42t73 -14q32 0 48.5 9t16.5 27q0 20 -17.5 31t-45.5 18.5t-58.5 17t-58.5 25t-45.5 43t-17.5 71.5q0 46 22.5 80t64.5 53t99 19q60 0 108.5 -21t80.5 -63l-79 -79q-22 27 -49.5 39t-59.5 12
q-29 0 -44.5 -9t-15.5 -25q0 -18 17.5 -28t45.5 -17.5t58.5 -17t58 -26.5t45 -45t17.5 -72q0 -71 -51 -112.5t-139 -41.5zM167 545l-50 62l144 156l84 -102z" />
    <glyph glyph-name="Scedilla" unicode="&#x15e;" horiz-adv-x="569" 
d="M276 -10q-85 0 -145.5 29t-109.5 87l90 90q31 -41 72 -63.5t100 -22.5q53 0 84.5 21t31.5 58q0 32 -18 52t-47.5 34t-65 25.5t-71 26.5t-65 37.5t-47.5 58t-18 89.5q0 64 31 109t85 69t122 24q72 0 130 -27t95 -70l-90 -90q-31 34 -63.5 50t-73.5 16q-47 0 -74 -18
t-27 -52q0 -29 18 -47t47.5 -31t65 -25t71 -27t65 -39t47.5 -61.5t18 -92.5q0 -98 -69 -154t-189 -56zM259 -212q-38 0 -66 9t-56 26l47 59q12 -9 27.5 -15t36.5 -6q23 0 33.5 6.5t10.5 15.5q0 11 -10.5 18.5t-33.5 7.5h-42l33 104h83l-25 -72l-42 33q64 1 101.5 -25.5
t37.5 -67.5q0 -40 -37 -66.5t-98 -26.5z" />
    <glyph glyph-name="scedilla" unicode="&#x15f;" horiz-adv-x="444" 
d="M224 -11q-41 0 -80.5 11t-72.5 30.5t-57 47.5l78 79q25 -28 58 -42t73 -14q32 0 48.5 9t16.5 27q0 20 -17.5 31t-45.5 18.5t-58.5 17t-58.5 25t-45.5 43t-17.5 71.5q0 46 22.5 80t64.5 53t99 19q60 0 108.5 -21t80.5 -63l-79 -79q-22 27 -49.5 39t-59.5 12
q-29 0 -44.5 -9t-15.5 -25q0 -18 17.5 -28t45.5 -17.5t58.5 -17t58 -26.5t45 -45t17.5 -72q0 -71 -51 -112.5t-139 -41.5zM207 -212q-38 0 -66 9t-56 26l47 59q12 -9 27.5 -15t36.5 -6q23 0 33.5 6.5t10.5 15.5q0 11 -10.5 18.5t-33.5 7.5h-42l33 104h83l-25 -72l-42 33
q64 1 101.5 -25.5t37.5 -67.5q0 -40 -37 -66.5t-98 -26.5z" />
    <glyph glyph-name="Scaron" unicode="&#x160;" horiz-adv-x="569" 
d="M276 -10q-85 0 -145.5 29t-109.5 87l90 90q31 -41 72 -63.5t100 -22.5q53 0 84.5 21t31.5 58q0 32 -18 52t-47.5 34t-65 25.5t-71 26.5t-65 37.5t-47.5 58t-18 89.5q0 64 31 109t85 69t122 24q72 0 130 -27t95 -70l-90 -90q-31 34 -63.5 50t-73.5 16q-47 0 -74 -18
t-27 -52q0 -29 18 -47t47.5 -31t65 -25t71 -27t65 -39t47.5 -61.5t18 -92.5q0 -98 -69 -154t-189 -56zM439 970l50 -58l-141 -150h-86l-141 150l50 58l181 -127h-95z" />
    <glyph glyph-name="scaron" unicode="&#x161;" horiz-adv-x="444" 
d="M224 -11q-41 0 -80.5 11t-72.5 30.5t-57 47.5l78 79q25 -28 58 -42t73 -14q32 0 48.5 9t16.5 27q0 20 -17.5 31t-45.5 18.5t-58.5 17t-58.5 25t-45.5 43t-17.5 71.5q0 46 22.5 80t64.5 53t99 19q60 0 108.5 -21t80.5 -63l-79 -79q-22 27 -49.5 39t-59.5 12
q-29 0 -44.5 -9t-15.5 -25q0 -18 17.5 -28t45.5 -17.5t58.5 -17t58 -26.5t45 -45t17.5 -72q0 -71 -51 -112.5t-139 -41.5zM364 750l50 -58l-141 -150h-85l-141 150l50 58l181 -127h-95z" />
    <glyph glyph-name="Tcaron" unicode="&#x164;" horiz-adv-x="629" 
d="M246 0v688h137v-688h-137zM22 582v121h585v-121h-585zM448 970l50 -58l-141 -150h-85l-141 150l50 58l180 -127h-95z" />
    <glyph glyph-name="tcaron" unicode="&#x165;" horiz-adv-x="509" 
d="M129 0v684h131v-684h-131zM16 368v115h357v-115h-357zM354 512l-68 37l71 131l41 12q-7 -14 -16 -22.5t-21 -8.5q-25 0 -47 21.5t-22 54.5q0 36 24 61t60 25q33 0 58 -25t25 -61q0 -14 -6 -33.5t-22 -49.5z" />
    <glyph glyph-name="Umacron" unicode="&#x16a;" horiz-adv-x="696" 
d="M349 -10q-83 0 -147.5 36.5t-101.5 100.5t-37 145v431h136v-435q0 -47 19.5 -81t54 -52.5t76.5 -18.5q43 0 76 18.5t52.5 52.5t19.5 80v436h137v-432q0 -81 -37 -144.5t-100.5 -100t-147.5 -36.5zM158 899h380v-102h-380v102z" />
    <glyph glyph-name="umacron" unicode="&#x16b;" horiz-adv-x="528" 
d="M264 -10q-64 0 -113.5 27t-77.5 75t-28 111v280h132v-277q0 -30 10 -51.5t30 -32.5t47 -11q41 0 64 25t23 70v277h131v-280q0 -64 -27.5 -112t-77 -74.5t-113.5 -26.5zM75 679h380v-102h-380v102z" />
    <glyph glyph-name="Ubreve" unicode="&#x16c;" horiz-adv-x="696" 
d="M349 -10q-83 0 -147.5 36.5t-101.5 100.5t-37 145v431h136v-435q0 -47 19.5 -81t54 -52.5t76.5 -18.5q43 0 76 18.5t52.5 52.5t19.5 80v436h137v-432q0 -81 -37 -144.5t-100.5 -100t-147.5 -36.5zM532 936q0 -50 -24 -91.5t-65 -65.5t-94 -24t-94.5 24t-66 65.5
t-24.5 91.5h110q0 -32 20.5 -54t54.5 -22q21 0 37.5 10t26 27.5t9.5 38.5h110z" />
    <glyph glyph-name="ubreve" unicode="&#x16d;" horiz-adv-x="528" 
d="M264 -10q-64 0 -113.5 27t-77.5 75t-28 111v280h132v-277q0 -30 10 -51.5t30 -32.5t47 -11q41 0 64 25t23 70v277h131v-280q0 -64 -27.5 -112t-77 -74.5t-113.5 -26.5zM448 716q0 -50 -24 -91.5t-65 -65.5t-94 -24t-94.5 24t-66 65.5t-24.5 91.5h110q0 -32 20.5 -54
t54.5 -22q21 0 37.5 10t26 27.5t9.5 38.5h110z" />
    <glyph glyph-name="Uring" unicode="&#x16e;" horiz-adv-x="696" 
d="M349 -10q-83 0 -147.5 36.5t-101.5 100.5t-37 145v431h136v-435q0 -47 19.5 -81t54 -52.5t76.5 -18.5q43 0 76 18.5t52.5 52.5t19.5 80v436h137v-432q0 -81 -37 -144.5t-100.5 -100t-147.5 -36.5zM349 755q-38 0 -67 17t-46 45t-17 64t17 65t46 45.5t66 16.5t65.5 -16.5
t45.5 -45t17 -64.5t-17 -65t-45.5 -45.5t-64.5 -16.5zM349 836q18 0 30.5 13t12.5 33q0 19 -12.5 32t-30.5 13q-21 0 -33.5 -13t-12.5 -32t12.5 -32.5t33.5 -13.5z" />
    <glyph glyph-name="uring" unicode="&#x16f;" horiz-adv-x="528" 
d="M264 -10q-64 0 -113.5 27t-77.5 75t-28 111v280h132v-277q0 -30 10 -51.5t30 -32.5t47 -11q41 0 64 25t23 70v277h131v-280q0 -64 -27.5 -112t-77 -74.5t-113.5 -26.5zM266 535q-38 0 -67 17t-46 45t-17 64t17 65t46 45.5t66 16.5t65.5 -16.5t45.5 -45t17 -64.5t-17 -65
t-45.5 -45.5t-64.5 -16.5zM266 616q18 0 30.5 13t12.5 33q0 19 -12.5 32t-30.5 13q-21 0 -33.5 -13t-12.5 -32t12.5 -32.5t33.5 -13.5z" />
    <glyph glyph-name="Uhungarumlaut" unicode="&#x170;" horiz-adv-x="696" 
d="M349 -10q-83 0 -147.5 36.5t-101.5 100.5t-37 145v431h136v-435q0 -47 19.5 -81t54 -52.5t76.5 -18.5q43 0 76 18.5t52.5 52.5t19.5 80v436h137v-432q0 -81 -37 -144.5t-100.5 -100t-147.5 -36.5zM230 772l-72 34l64 203l120 -58zM439 772l-72 34l64 203l120 -58z" />
    <glyph glyph-name="uhungarumlaut" unicode="&#x171;" horiz-adv-x="528" 
d="M264 -10q-64 0 -113.5 27t-77.5 75t-28 111v280h132v-277q0 -30 10 -51.5t30 -32.5t47 -11q41 0 64 25t23 70v277h131v-280q0 -64 -27.5 -112t-77 -74.5t-113.5 -26.5zM147 552l-72 34l64 203l119 -58zM356 552l-72 34l64 203l119 -58z" />
    <glyph glyph-name="Uogonek" unicode="&#x172;" horiz-adv-x="696" 
d="M349 -10q-83 0 -147.5 36.5t-101.5 100.5t-37 145v431h136v-435q0 -47 19.5 -81t54 -52.5t76.5 -18.5q43 0 76 18.5t52.5 52.5t19.5 80v436h137v-432q0 -81 -37 -144.5t-100.5 -100t-147.5 -36.5zM395 -202q-53 0 -90 24t-37 77q0 47 30.5 82.5t87.5 54.5l75 -26
q-38 -17 -60 -40t-22 -53q0 -17 9.5 -27t28.5 -10q13 0 24 4.5t19 8.5l31 -70q-17 -10 -40 -17.5t-56 -7.5z" />
    <glyph glyph-name="uogonek" unicode="&#x173;" horiz-adv-x="528" 
d="M264 -10q-64 0 -113.5 27t-77.5 75t-28 111v280h132v-277q0 -30 10 -51.5t30 -32.5t47 -11q41 0 64 25t23 70v277h131v-280q0 -64 -27.5 -112t-77 -74.5t-113.5 -26.5zM297 -202q-53 0 -90 24t-37 77q0 47 30.5 82.5t87.5 54.5l75 -26q-38 -17 -60 -40t-22 -53
q0 -17 9.5 -27t28.5 -10q13 0 24 4.5t19 8.5l31 -70q-17 -10 -40 -17.5t-56 -7.5z" />
    <glyph glyph-name="Wcircumflex" unicode="&#x174;" horiz-adv-x="992" 
d="M250 0l-228 703h134l169 -541h-45l166 541h101l166 -541h-46l170 541h134l-229 -703h-101l-167 540h44l-166 -540h-102zM362 762l-50 58l141 150h86l141 -150l-50 -58l-181 128l95 -1z" />
    <glyph glyph-name="wcircumflex" unicode="&#x175;" horiz-adv-x="769" 
d="M187 0l-181 483h132l118 -351l-40 -1l121 352h95l121 -352l-40 1l118 351h132l-180 -483h-95l-122 334h37l-122 -334h-94zM251 542l-50 58l141 150h86l141 -150l-50 -58l-181 128l95 -1z" />
    <glyph glyph-name="Ycircumflex" unicode="&#x176;" horiz-adv-x="679" 
d="M290 271l-272 432h157l211 -346h-90l211 346h155l-275 -432h-97zM272 0v344h137v-344h-137zM206 762l-50 58l141 150h86l141 -150l-50 -58l-181 128l95 -1z" />
    <glyph glyph-name="ycircumflex" unicode="&#x177;" horiz-adv-x="526" 
d="M210 -4l-202 487h142l134 -372h-48l139 372h143l-215 -487h-93zM76 -202l147 311l80 -113l-88 -198h-139zM129 542l-50 58l141 150h86l141 -150l-50 -58l-181 128l95 -1z" />
    <glyph glyph-name="Ydieresis" unicode="&#x178;" horiz-adv-x="679" 
d="M290 271l-272 432h157l211 -346h-90l211 346h155l-275 -432h-97zM272 0v344h137v-344h-137zM232 773q-31 0 -52 21.5t-21 53.5t21 53.5t52 21.5q33 0 53.5 -21.5t20.5 -53.5t-20.5 -53.5t-53.5 -21.5zM447 773q-31 0 -52 21.5t-21 53.5t21 53.5t52 21.5q33 0 53.5 -21.5
t20.5 -53.5t-20.5 -53.5t-53.5 -21.5z" />
    <glyph glyph-name="Zacute" unicode="&#x179;" horiz-adv-x="598" 
d="M32 95l369 513h162l-369 -513h-162zM32 0v95l102 25h421v-120h-523zM53 583v120h510v-95l-103 -25h-407zM234 765l-50 62l144 156l84 -102z" />
    <glyph glyph-name="zacute" unicode="&#x17a;" horiz-adv-x="466" 
d="M24 75l256 333h158l-256 -333h-158zM24 0v75l104 39h304v-114h-408zM42 369v114h396v-75l-105 -39h-291zM182 545l-50 62l144 156l84 -102z" />
    <glyph glyph-name="Zdotaccent" unicode="&#x17b;" horiz-adv-x="598" 
d="M32 95l369 513h162l-369 -513h-162zM32 0v95l102 25h421v-120h-523zM53 583v120h510v-95l-103 -25h-407zM299 773q-32 0 -53 21.5t-21 53.5t21 53.5t53 21.5q33 0 53.5 -21.5t20.5 -53.5t-20.5 -53.5t-53.5 -21.5z" />
    <glyph glyph-name="zdotaccent" unicode="&#x17c;" horiz-adv-x="466" 
d="M24 75l256 333h158l-256 -333h-158zM24 0v75l104 39h304v-114h-408zM42 369v114h396v-75l-105 -39h-291zM247 553q-32 0 -53 21.5t-21 53.5t21 53.5t53 21.5q33 0 53.5 -21.5t20.5 -53.5t-20.5 -53.5t-53.5 -21.5z" />
    <glyph glyph-name="Zcaron" unicode="&#x17d;" horiz-adv-x="598" 
d="M32 95l369 513h162l-369 -513h-162zM32 0v95l102 25h421v-120h-523zM53 583v120h510v-95l-103 -25h-407zM432 970l50 -58l-141 -150h-86l-141 150l50 58l181 -127h-95z" />
    <glyph glyph-name="zcaron" unicode="&#x17e;" horiz-adv-x="466" 
d="M24 75l256 333h158l-256 -333h-158zM24 0v75l104 39h304v-114h-408zM42 369v114h396v-75l-105 -39h-291zM380 750l50 -58l-141 -150h-85l-141 150l50 58l180 -127h-95z" />
    <glyph glyph-name="uni01CD" unicode="&#x1cd;" horiz-adv-x="715" 
d="M20 0l283 703h111l282 -703h-145l-218 577h50l-221 -577h-142zM170 131v114h378v-114h-378zM491 970l50 -58l-141 -150h-85l-141 150l50 58l180 -127h-95z" />
    <glyph glyph-name="uni01CE" unicode="&#x1ce;" horiz-adv-x="588" 
d="M260 -10q-66 0 -119 33t-83 90t-30 128q0 72 30 129t83 90t119 33q52 0 93 -21t65.5 -58.5t26.5 -84.5v-174q-2 -48 -26.5 -85t-65.5 -58.5t-93 -21.5zM284 111q55 0 89 36.5t34 94.5q0 38 -15.5 67.5t-43 46t-64.5 16.5q-36 0 -63.5 -16.5t-43 -46t-15.5 -67.5
q0 -39 15.5 -68.5t43 -46t63.5 -16.5zM400 0v130l21 118l-21 116v119h130v-483h-130zM430 750l50 -58l-141 -150h-86l-141 150l50 58l181 -127h-95z" />
    <glyph glyph-name="uni0218" unicode="&#x218;" horiz-adv-x="569" 
d="M276 -10q-85 0 -145.5 29t-109.5 87l90 90q31 -41 72 -63.5t100 -22.5q53 0 84.5 21t31.5 58q0 32 -18 52t-47.5 34t-65 25.5t-71 26.5t-65 37.5t-47.5 58t-18 89.5q0 64 31 109t85 69t122 24q72 0 130 -27t95 -70l-90 -90q-31 34 -63.5 50t-73.5 16q-47 0 -74 -18
t-27 -52q0 -29 18 -47t47.5 -31t65 -25t71 -27t65 -39t47.5 -61.5t18 -92.5q0 -98 -69 -154t-189 -56zM246 -382l-64 42l80 126l42 8q-8 -13 -18 -21t-21 -7q-26 2 -45.5 25.5t-16.5 56.5q3 35 28.5 58t60.5 20q34 -3 56.5 -30t19.5 -62q-1 -15 -8.5 -33.5t-26.5 -47.5z" />
    <glyph glyph-name="uni0219" unicode="&#x219;" horiz-adv-x="444" 
d="M224 -11q-41 0 -80.5 11t-72.5 30.5t-57 47.5l78 79q25 -28 58 -42t73 -14q32 0 48.5 9t16.5 27q0 20 -17.5 31t-45.5 18.5t-58.5 17t-58.5 25t-45.5 43t-17.5 71.5q0 46 22.5 80t64.5 53t99 19q60 0 108.5 -21t80.5 -63l-79 -79q-22 27 -49.5 39t-59.5 12
q-29 0 -44.5 -9t-15.5 -25q0 -18 17.5 -28t45.5 -17.5t58.5 -17t58 -26.5t45 -45t17.5 -72q0 -71 -51 -112.5t-139 -41.5zM194 -382l-64 42l80 126l42 8q-8 -13 -18 -21t-21 -7q-26 2 -45.5 25.5t-16.5 56.5q3 35 28.5 58t60.5 20q34 -3 56.5 -30t19.5 -62
q-1 -15 -8.5 -33.5t-26.5 -47.5z" />
    <glyph glyph-name="uni021A" unicode="&#x21a;" horiz-adv-x="629" 
d="M246 0v688h137v-688h-137zM22 582v121h585v-121h-585zM281 -382l-64 42l80 126l42 8q-8 -13 -18 -21t-21 -7q-26 2 -45.5 25.5t-16.5 56.5q3 35 28.5 58t60.5 20q34 -3 56.5 -30t19.5 -62q-1 -15 -8.5 -33.5t-26.5 -47.5z" />
    <glyph glyph-name="uni021B" unicode="&#x21b;" horiz-adv-x="389" 
d="M129 0v684h131v-684h-131zM16 368v115h357v-115h-357zM160 -382l-64 42l80 126l42 8q-8 -13 -18 -21t-21 -7q-26 2 -45.5 25.5t-16.5 56.5q3 35 28.5 58t60.5 20q34 -3 56.5 -30t19.5 -62q-1 -15 -8.5 -33.5t-26.5 -47.5z" />
    <glyph glyph-name="uni0237" unicode="&#x237;" horiz-adv-x="257" 
d="M19 -214q-52 0 -86.5 17t-62.5 48l83 83q12 -15 25.5 -21.5t31.5 -6.5q25 0 42 15t17 44v518h131v-516q0 -57 -24.5 -97.5t-65 -62t-91.5 -21.5z" />
    <glyph glyph-name="apostrophe" unicode="&#x2bc;" horiz-adv-x="265" 
d="M35 459l87 132l45 11q-7 -14 -16 -22.5t-21 -8.5q-26 0 -47.5 21.5t-21.5 54.5q0 36 23.5 61t60.5 25q35 0 59 -24t24 -60q0 -15 -7 -35.5t-26 -49.5l-92 -142z" />
    <glyph glyph-name="circumflex" unicode="&#x2c6;" horiz-adv-x="448" 
d="M90 542l-50 58l141 150h86l141 -150l-50 -58l-181 128l95 -1z" />
    <glyph glyph-name="caron" unicode="&#x2c7;" horiz-adv-x="448" 
d="M358 750l50 -58l-141 -150h-86l-141 150l50 58l181 -127h-95z" />
    <glyph glyph-name="breve" unicode="&#x2d8;" horiz-adv-x="448" 
d="M408 716q0 -50 -24 -91.5t-65 -65.5t-94 -24t-94.5 24t-66 65.5t-24.5 91.5h110q0 -32 20.5 -54t54.5 -22q21 0 37.5 10t26 27.5t9.5 38.5h110z" />
    <glyph glyph-name="dotaccent" unicode="&#x2d9;" horiz-adv-x="328" 
d="M164 553q-32 0 -53 21.5t-21 53.5t21 53.5t53 21.5q33 0 53.5 -21.5t20.5 -53.5t-20.5 -53.5t-53.5 -21.5z" />
    <glyph glyph-name="ring" unicode="&#x2da;" horiz-adv-x="337" 
d="M170 535q-38 0 -67 17t-46 45t-17 64t17 65t46 45.5t66 16.5t65.5 -16.5t45.5 -45t17 -64.5t-17 -65t-45.5 -45.5t-64.5 -16.5zM170 616q18 0 30.5 13t12.5 33q0 19 -12.5 32t-30.5 13q-21 0 -33.5 -13t-12.5 -32t12.5 -32.5t33.5 -13.5z" />
    <glyph glyph-name="ogonek" unicode="&#x2db;" horiz-adv-x="303" 
d="M167 -212q-53 0 -90 24t-37 77q0 47 30.5 82.5t87.5 54.5l75 -26q-38 -17 -60 -40t-22 -53q0 -17 9.5 -27t28.5 -10q13 0 24 4.5t19 8.5l31 -70q-17 -10 -40 -17.5t-56 -7.5z" />
    <glyph glyph-name="tilde" unicode="&#x2dc;" horiz-adv-x="488" 
d="M317 545q-33 0 -56 12t-43 23t-43 11q-24 0 -39.5 -9t-29.5 -28l-66 66q29 38 59.5 58t71.5 20q33 0 56 -11.5t43 -23t43 -11.5q25 0 40.5 9.5t28.5 27.5l66 -65q-29 -38 -59.5 -58.5t-71.5 -20.5z" />
    <glyph glyph-name="hungarumlaut" unicode="&#x2dd;" horiz-adv-x="473" 
d="M112 529l-72 34l64 203l120 -58zM321 529l-72 34l64 203l120 -58z" />
    <glyph glyph-name="gravecomb" unicode="&#x300;" 
d="M218 540l-178 116l85 102l143 -156z" />
    <glyph glyph-name="acutecomb" unicode="&#x301;" 
d="M90 545l-50 62l144 156l84 -102z" />
    <glyph glyph-name="uni0302" unicode="&#x302;" 
d="M90 542l-50 58l141 150h86l141 -150l-50 -58l-181 128l95 -1z" />
    <glyph glyph-name="tildecomb" unicode="&#x303;" 
d="M317 545q-33 0 -56 12t-43 23t-43 11q-24 0 -39.5 -9t-29.5 -28l-66 66q29 38 59.5 58t71.5 20q33 0 56 -11.5t43 -23t43 -11.5q25 0 40.5 9.5t28.5 27.5l66 -65q-29 -38 -59.5 -58.5t-71.5 -20.5z" />
    <glyph glyph-name="uni0304" unicode="&#x304;" 
d="M40 679h380v-102h-380v102z" />
    <glyph glyph-name="uni0306" unicode="&#x306;" 
d="M408 716q0 -50 -24 -91.5t-65 -65.5t-94 -24t-94.5 24t-66 65.5t-24.5 91.5h110q0 -32 20.5 -54t54.5 -22q21 0 37.5 10t26 27.5t9.5 38.5h110z" />
    <glyph glyph-name="uni0307" unicode="&#x307;" 
d="M164 553q-32 0 -53 21.5t-21 53.5t21 53.5t53 21.5q33 0 53.5 -21.5t20.5 -53.5t-20.5 -53.5t-53.5 -21.5z" />
    <glyph glyph-name="uni0308" unicode="&#x308;" 
d="M131 553q-31 0 -52 21.5t-21 53.5t21 53.5t52 21.5q33 0 53.5 -21.5t20.5 -53.5t-20.5 -53.5t-53.5 -21.5zM346 553q-31 0 -52 21.5t-21 53.5t21 53.5t52 21.5q33 0 53.5 -21.5t20.5 -53.5t-20.5 -53.5t-53.5 -21.5z" />
    <glyph glyph-name="uni030A" unicode="&#x30a;" 
d="M170 535q-38 0 -67 17t-46 45t-17 64t17 65t46 45.5t66 16.5t65.5 -16.5t45.5 -45t17 -64.5t-17 -65t-45.5 -45.5t-64.5 -16.5zM170 616q18 0 30.5 13t12.5 33q0 19 -12.5 32t-30.5 13q-21 0 -33.5 -13t-12.5 -32t12.5 -32.5t33.5 -13.5z" />
    <glyph glyph-name="uni030B" unicode="&#x30b;" 
d="M112 529l-72 34l64 203l120 -58zM321 529l-72 34l64 203l120 -58z" />
    <glyph glyph-name="uni030C" unicode="&#x30c;" 
d="M358 750l50 -58l-141 -150h-86l-141 150l50 58l181 -127h-95z" />
    <glyph glyph-name="uni0312" unicode="&#x312;" 
d="M221 787l-79 -125l-42 -8q8 13 18 21t21 7q26 -2 45.5 -25.5t16.5 -56.5q-3 -34 -28.5 -57.5t-61.5 -20.5q-33 3 -55.5 30t-19.5 62q1 14 8.5 33t26.5 47l86 135z" />
    <glyph glyph-name="uni0326" unicode="&#x326;" 
d="M97 -382l-64 42l80 126l42 8q-8 -13 -18 -21t-21 -7q-26 2 -45.5 25.5t-16.5 56.5q3 35 28.5 58t60.5 20q34 -3 56.5 -30t19.5 -62q-1 -15 -8.5 -33.5t-26.5 -47.5z" />
    <glyph glyph-name="uni0327" unicode="&#x327;" 
d="M136 -212q-38 0 -66 9t-56 26l47 59q12 -9 27.5 -15t36.5 -6q23 0 33.5 6.5t10.5 15.5q0 11 -10.5 18.5t-33.5 7.5h-42l33 104h83l-25 -72l-42 33q64 1 101.5 -25.5t37.5 -67.5q0 -40 -37 -66.5t-98 -26.5z" />
    <glyph glyph-name="uni0328" unicode="&#x328;" 
d="M167 -212q-53 0 -90 24t-37 77q0 47 30.5 82.5t87.5 54.5l75 -26q-38 -17 -60 -40t-22 -53q0 -17 9.5 -27t28.5 -10q13 0 24 4.5t19 8.5l31 -70q-17 -10 -40 -17.5t-56 -7.5z" />
    <glyph glyph-name="Wgrave" unicode="&#x1e80;" horiz-adv-x="992" 
d="M250 0l-228 703h134l169 -541h-45l166 541h101l166 -541h-46l170 541h134l-229 -703h-101l-167 540h44l-166 -540h-102zM543 760l-178 116l85 102l143 -156z" />
    <glyph glyph-name="wgrave" unicode="&#x1e81;" horiz-adv-x="769" 
d="M187 0l-181 483h132l118 -351l-40 -1l121 352h95l121 -352l-40 1l118 351h132l-180 -483h-95l-122 334h37l-122 -334h-94zM431 540l-178 116l85 102l143 -156z" />
    <glyph glyph-name="Wacute" unicode="&#x1e82;" horiz-adv-x="992" 
d="M250 0l-228 703h134l169 -541h-45l166 541h101l166 -541h-46l170 541h134l-229 -703h-101l-167 540h44l-166 -540h-102zM432 765l-50 62l144 156l84 -102z" />
    <glyph glyph-name="wacute" unicode="&#x1e83;" horiz-adv-x="769" 
d="M187 0l-181 483h132l118 -351l-40 -1l121 352h95l121 -352l-40 1l118 351h132l-180 -483h-95l-122 334h37l-122 -334h-94zM320 545l-50 62l144 156l84 -102z" />
    <glyph glyph-name="Wdieresis" unicode="&#x1e84;" horiz-adv-x="992" 
d="M250 0l-228 703h134l169 -541h-45l166 541h101l166 -541h-46l170 541h134l-229 -703h-101l-167 540h44l-166 -540h-102zM388 773q-31 0 -52 21.5t-21 53.5t21 53.5t52 21.5q33 0 53.5 -21.5t20.5 -53.5t-20.5 -53.5t-53.5 -21.5zM603 773q-31 0 -52 21.5t-21 53.5
t21 53.5t52 21.5q33 0 53.5 -21.5t20.5 -53.5t-20.5 -53.5t-53.5 -21.5z" />
    <glyph glyph-name="wdieresis" unicode="&#x1e85;" horiz-adv-x="769" 
d="M187 0l-181 483h132l118 -351l-40 -1l121 352h95l121 -352l-40 1l118 351h132l-180 -483h-95l-122 334h37l-122 -334h-94zM277 553q-31 0 -52 21.5t-21 53.5t21 53.5t52 21.5q33 0 53.5 -21.5t20.5 -53.5t-20.5 -53.5t-53.5 -21.5zM492 553q-31 0 -52 21.5t-21 53.5
t21 53.5t52 21.5q33 0 53.5 -21.5t20.5 -53.5t-20.5 -53.5t-53.5 -21.5z" />
    <glyph glyph-name="uni1E9E" unicode="&#x1e9e;" horiz-adv-x="729" 
d="M346 415l180 193l118 -33l-149 -162l-149 -75v77zM428 -9q-53 0 -85.5 8t-54.5 23v158q20 -30 57.5 -48t80.5 -18q39 0 68.5 14.5t46 41t16.5 61.5q0 37 -17 62.5t-47.5 40t-74.5 14.5q-18 0 -38 -2.5t-34 -7.5l60 76q24 8 48.5 13.5t46.5 5.5q54 0 97.5 -25.5t68.5 -72
t25 -110.5q0 -69 -33 -122t-92.5 -82.5t-138.5 -29.5zM378 727q48 0 95.5 -9.5t86 -22t61.5 -22.5l23 -10v-88l-19.5 3.5t-51.5 9.5t-68 11.5t-69.5 9t-57.5 3.5q-55 0 -94 -20.5t-60 -54t-21 -73.5v-464h-131v488q0 73 40 126.5t109 83t157 29.5z" />
    <glyph glyph-name="Ygrave" unicode="&#x1ef2;" horiz-adv-x="679" 
d="M290 271l-272 432h157l211 -346h-90l211 346h155l-275 -432h-97zM272 0v344h137v-344h-137zM386 760l-178 116l85 102l143 -156z" />
    <glyph glyph-name="ygrave" unicode="&#x1ef3;" horiz-adv-x="526" 
d="M210 -4l-202 487h142l134 -372h-48l139 372h143l-215 -487h-93zM76 -202l147 311l80 -113l-88 -198h-139zM310 540l-178 116l85 102l143 -156z" />
    <glyph glyph-name="endash" unicode="&#x2013;" horiz-adv-x="561" 
d="M58 201v109h445v-109h-445z" />
    <glyph glyph-name="emdash" unicode="&#x2014;" horiz-adv-x="864" 
d="M58 202v106h743v-106h-743z" />
    <glyph glyph-name="quoteleft" unicode="&#x2018;" horiz-adv-x="256" 
d="M211 696l-71 -132l-41 -11q7 13 16.5 22t20.5 9q26 0 47.5 -22t21.5 -55q0 -35 -24 -60.5t-59 -25.5q-34 0 -59 25t-25 61q0 14 6 33.5t22 49.5l77 142z" />
    <glyph glyph-name="quoteright" unicode="&#x2019;" horiz-adv-x="257" 
d="M46 439l70 131l42 12q-7 -14 -16 -22.5t-21 -8.5q-26 0 -47.5 21.5t-21.5 54.5q0 36 24 61t59 25q34 0 59 -25t25 -61q0 -14 -6 -33.5t-22 -49.5l-77 -142z" />
    <glyph glyph-name="quotesinglbase" unicode="&#x201a;" horiz-adv-x="280" 
d="M57 -119l71 132l41 11q-7 -13 -16 -22t-21 -9q-25 0 -47 22t-22 55q0 36 24 61t60 25q33 0 58 -25t25 -61q0 -14 -6 -33.5t-22 -49.5l-77 -142z" />
    <glyph glyph-name="quotedblleft" unicode="&#x201c;" horiz-adv-x="471" 
d="M211 696l-71 -132l-41 -11q7 13 16.5 22t20.5 9q26 0 47.5 -22t21.5 -55q0 -35 -24 -60.5t-59 -25.5q-34 0 -59 25t-25 61q0 14 6 33.5t22 49.5l77 142zM426 696l-71 -132l-41 -11q7 13 16 22t21 9q26 0 47.5 -22t21.5 -55q0 -35 -24.5 -60.5t-59.5 -25.5q-33 0 -58 25
t-25 61q0 14 6 33.5t22 49.5l77 142z" />
    <glyph glyph-name="quotedblright" unicode="&#x201d;" horiz-adv-x="471" 
d="M261 439l70 131l41 12q-6 -14 -15 -22.5t-21 -8.5q-26 0 -48 21.5t-22 54.5q0 36 24.5 61t59.5 25q33 0 58 -25t25 -61q0 -14 -5.5 -33.5t-21.5 -49.5l-78 -142zM46 439l70 131l42 12q-7 -14 -16 -22.5t-21 -8.5q-26 0 -47.5 21.5t-21.5 54.5q0 36 24 61t59 25
q34 0 59 -25t25 -61q0 -14 -6 -33.5t-22 -49.5l-77 -142z" />
    <glyph glyph-name="quotedblbase" unicode="&#x201e;" horiz-adv-x="494" 
d="M273 -118l70 131l41 12q-6 -14 -15 -22.5t-21 -8.5q-26 0 -48 21.5t-22 54.5q0 36 24.5 61t59.5 25q33 0 58 -25t25 -61q0 -14 -5.5 -33.5t-21.5 -49.5l-78 -142zM58 -118l70 131l42 12q-7 -14 -16 -22.5t-21 -8.5q-26 0 -47.5 21.5t-21.5 54.5q0 36 24 61t59 25
q34 0 59 -25t25 -61q0 -14 -6 -33.5t-22 -49.5l-77 -142z" />
    <glyph glyph-name="bullet" unicode="&#x2022;" horiz-adv-x="346" 
d="M173 255q-33 0 -59 15t-40.5 41.5t-14.5 57.5t14.5 57t40.5 41.5t59 15.5t58.5 -15.5t40 -41.5t14.5 -57t-14.5 -57.5t-40 -41.5t-58.5 -15z" />
    <glyph glyph-name="ellipsis" unicode="&#x2026;" horiz-adv-x="805" 
d="M403 -10q-36 0 -59 24t-23 59t23 59t59 24q35 0 58 -24t23 -59t-23 -59t-58 -24zM658 -10q-36 0 -59 24t-23 59t23 59t59 24q35 0 58 -24t23 -59t-23 -59t-58 -24zM148 -10q-36 0 -59 24t-23 59t23 59t59 24q35 0 58 -24t23 -59t-23 -59t-58 -24z" />
    <glyph glyph-name="guilsinglleft" unicode="&#x2039;" horiz-adv-x="284" 
d="M131 76l-103 167l103 167h126l-108 -167l108 -167h-126z" />
    <glyph glyph-name="guilsinglright" unicode="&#x203a;" horiz-adv-x="284" 
d="M27 76l108 167l-108 167h126l103 -167l-103 -167h-126z" />
    <glyph glyph-name="fraction" unicode="&#x2044;" horiz-adv-x="687" 
d="M284 311l52 -53l-217 -272l-96 96zM390 396l-52 52l217 273l96 -96z" />
    <glyph glyph-name="uni2074" unicode="&#x2074;" horiz-adv-x="348" 
d="M25 466l104 237h111l-106 -237h-109zM25 409v57l28 31h270v-88h-298zM194 346v207h103v-207h-103z" />
    <glyph glyph-name="Euro" unicode="&#x20ac;" horiz-adv-x="717" 
d="M427 -10q-77 0 -141 27.5t-111 77t-72.5 115.5t-25.5 142t25 142t72 115t111 77t141 28q80 0 140.5 -27.5t109.5 -75.5l-92 -92q-29 34 -68.5 52t-93.5 18q-62 0 -109 -29.5t-73 -83t-26 -124.5t26 -124.5t74 -83.5t114 -30q52 0 91.5 18.5t68.5 52.5l92 -92
q-49 -49 -111 -76t-142 -27zM10 388v93h481l-27 -93h-454zM10 221v92h442l-26 -92h-416z" />
    <glyph glyph-name="uni2120" unicode="&#x2120;" horiz-adv-x="694" 
d="M152 314q-43 0 -73 14.5t-55 43.5l45 45q16 -21 36.5 -32t49.5 -11q27 0 43 11t16 29q0 15 -9 25.5t-24 17t-33 12.5t-35.5 13.5t-32.5 19t-24 29.5t-9 44q0 32 16 54.5t43 34.5t61 12q36 0 65 -13.5t47 -34.5l-45 -45q-15 17 -31.5 25t-37.5 8q-23 0 -36.5 -9t-13.5 -26
q0 -14 9 -23.5t23.5 -16t32.5 -12t36 -14t32.5 -20t23.5 -30t9 -46.5q0 -49 -34.5 -77t-94.5 -28zM315 319v352h48l144 -228h-28l143 228h48v-352h-68v235l14 -3l-100 -160h-47l-99 160l14 3v-235h-69z" />
    <glyph glyph-name="trademark" unicode="&#x2122;" horiz-adv-x="717" 
d="M136 319v344h69v-344h-69zM24 610v61h293v-61h-293zM338 319v352h48l144 -228h-28l143 228h48v-352h-68v235l14 -3l-100 -160h-47l-99 160l14 3v-235h-69z" />
    <glyph glyph-name="arrowleft" unicode="&#x2190;" horiz-adv-x="658" 
d="M171 279v119h465v-119h-465zM446 595l-257 -257l257 -257h-167l-257 257l257 257h167z" />
    <glyph glyph-name="arrowup" unicode="&#x2191;" horiz-adv-x="658" 
d="M270 496h119v-465h-119v465zM586 221l-257 257l-257 -257v167l257 257l257 -257v-167z" />
    <glyph glyph-name="arrowright" unicode="&#x2192;" horiz-adv-x="658" 
d="M487 398v-119h-465v119h465zM212 81l257 257l-257 257h167l257 -257l-257 -257h-167z" />
    <glyph glyph-name="arrowdown" unicode="&#x2193;" horiz-adv-x="658" 
d="M389 180h-119v465h119v-465zM72 455l257 -257l257 257v-167l-257 -257l-257 257v167z" />
    <glyph glyph-name="uni2196" unicode="&#x2196;" horiz-adv-x="658" 
d="M136 448l84 83l367 -365l-85 -85zM553 479l-363 -1l-1 -363l-117 116v364h364z" />
    <glyph glyph-name="uni2197" unicode="&#x2197;" horiz-adv-x="658" 
d="M439 531l84 -84l-366 -366l-85 84zM470 115l-1 362l-363 1l117 117h364v-364z" />
    <glyph glyph-name="uni2198" unicode="&#x2198;" horiz-adv-x="658" 
d="M522 229l-83 -84l-367 366l84 84zM106 197l363 2l1 363l117 -117v-364h-364z" />
    <glyph glyph-name="uni2199" unicode="&#x2199;" horiz-adv-x="658" 
d="M220 145l-84 84l366 366l85 -84zM189 562l1 -363l363 -1l-117 -117h-364v364z" />
    <glyph glyph-name="minus" unicode="&#x2212;" horiz-adv-x="555" 
d="M51 278v114h453v-114h-453z" />
    <glyph glyph-name="uni2215" unicode="&#x2215;" horiz-adv-x="393" 
d="M6 -47l263 795h118l-263 -795h-118z" />
    <glyph glyph-name="uni2713" unicode="&#x2713;" horiz-adv-x="818" 
d="M267 67l-248 246l83 83l233 -233l-54 -1l435 487l84 -84l-456 -498h-77z" />
    <glyph glyph-name="T_T" horiz-adv-x="1119" 
d="M246 0v688h137v-688h-137zM22 582v121h585v-121h-585zM737 0v688h136v-688h-136zM512 582v121h585v-121h-585z" />
    <glyph glyph-name="T_h" horiz-adv-x="1108" 
d="M246 0v688h137v-688h-137zM22 582v121h614v-121h-614zM929 0v277q0 43 -27 70t-69 27q-29 0 -51 -12t-34.5 -34t-12.5 -51l-51 26q0 57 24 99.5t67 66.5t97 24q56 0 98 -24t66 -66t24 -97v-306h-131zM604 0v703h131v-703h-131z" />
    <glyph glyph-name="T_l" horiz-adv-x="793" 
d="M246 0v688h137v-688h-137zM22 582v121h630v-121h-630zM604 0v703h131v-703h-131z" />
    <glyph glyph-name="ae.ss01" horiz-adv-x="906" 
d="M681 -10q-78 0 -138.5 33.5t-95 90.5t-34.5 129q0 71 34.5 127.5t93 90t132.5 33.5q78 0 131 -34.5t84 -98.5l-289 -284l-71 72l261 256l-4 -92q-13 33 -39.5 51t-70.5 18q-42 0 -73 -17.5t-47.5 -48.5t-16.5 -71q0 -43 18 -75.5t50.5 -50.5t76.5 -18q39 0 69 12.5
t53 37.5l77 -77q-37 -42 -88.5 -63t-112.5 -21zM260 -10q-66 0 -119 33t-83 90t-30 128q0 72 30 129t83 90t119 33q52 0 93 -21t65.5 -58.5t26.5 -84.5v-174q-2 -48 -26.5 -85t-65.5 -58.5t-93 -21.5zM284 111q55 0 89 36.5t34 94.5q0 38 -15.5 67.5t-43 46t-64.5 16.5
q-36 0 -63.5 -16.5t-43 -46t-15.5 -67.5q0 -39 15.5 -68.5t43 -46t63.5 -16.5zM400 0v130l21 118l-21 116v119h130v-483h-130z" />
    <glyph glyph-name="e.ss01" horiz-adv-x="519" 
d="M294 -10q-78 0 -138.5 33.5t-95 90.5t-34.5 129q0 71 34.5 127.5t93 90t132.5 33.5q78 0 131 -34.5t84 -98.5l-289 -284l-71 72l261 256l-4 -92q-13 33 -39.5 51t-70.5 18q-42 0 -73 -17.5t-47.5 -48.5t-16.5 -71q0 -43 18 -75.5t50.5 -50.5t76.5 -18q39 0 69 12.5
t53 37.5l77 -77q-37 -42 -88.5 -63t-112.5 -21z" />
    <glyph glyph-name="eacute.ss01" horiz-adv-x="519" 
d="M294 -10q-78 0 -138.5 33.5t-95 90.5t-34.5 129q0 71 34.5 127.5t93 90t132.5 33.5q78 0 131 -34.5t84 -98.5l-289 -284l-71 72l261 256l-4 -92q-13 33 -39.5 51t-70.5 18q-42 0 -73 -17.5t-47.5 -48.5t-16.5 -71q0 -43 18 -75.5t50.5 -50.5t76.5 -18q39 0 69 12.5
t53 37.5l77 -77q-37 -42 -88.5 -63t-112.5 -21zM216 545l-50 62l144 156l84 -102z" />
    <glyph glyph-name="ecaron.ss01" horiz-adv-x="519" 
d="M294 -10q-78 0 -138.5 33.5t-95 90.5t-34.5 129q0 71 34.5 127.5t93 90t132.5 33.5q78 0 131 -34.5t84 -98.5l-289 -284l-71 72l261 256l-4 -92q-13 33 -39.5 51t-70.5 18q-42 0 -73 -17.5t-47.5 -48.5t-16.5 -71q0 -43 18 -75.5t50.5 -50.5t76.5 -18q39 0 69 12.5
t53 37.5l77 -77q-37 -42 -88.5 -63t-112.5 -21zM413 750l50 -58l-141 -150h-85l-141 150l50 58l181 -127h-95z" />
    <glyph glyph-name="ecircumflex.ss01" horiz-adv-x="519" 
d="M294 -10q-78 0 -138.5 33.5t-95 90.5t-34.5 129q0 71 34.5 127.5t93 90t132.5 33.5q78 0 131 -34.5t84 -98.5l-289 -284l-71 72l261 256l-4 -92q-13 33 -39.5 51t-70.5 18q-42 0 -73 -17.5t-47.5 -48.5t-16.5 -71q0 -43 18 -75.5t50.5 -50.5t76.5 -18q39 0 69 12.5
t53 37.5l77 -77q-37 -42 -88.5 -63t-112.5 -21zM146 542l-50 58l141 150h86l141 -150l-50 -58l-181 128l95 -1z" />
    <glyph glyph-name="edieresis.ss01" horiz-adv-x="519" 
d="M294 -10q-78 0 -138.5 33.5t-95 90.5t-34.5 129q0 71 34.5 127.5t93 90t132.5 33.5q78 0 131 -34.5t84 -98.5l-289 -284l-71 72l261 256l-4 -92q-13 33 -39.5 51t-70.5 18q-42 0 -73 -17.5t-47.5 -48.5t-16.5 -71q0 -43 18 -75.5t50.5 -50.5t76.5 -18q39 0 69 12.5
t53 37.5l77 -77q-37 -42 -88.5 -63t-112.5 -21zM172 553q-31 0 -52 21.5t-21 53.5t21 53.5t52 21.5q33 0 53.5 -21.5t20.5 -53.5t-20.5 -53.5t-53.5 -21.5zM387 553q-31 0 -52 21.5t-21 53.5t21 53.5t52 21.5q33 0 53.5 -21.5t20.5 -53.5t-20.5 -53.5t-53.5 -21.5z" />
    <glyph glyph-name="edotaccent.ss01" horiz-adv-x="519" 
d="M294 -10q-78 0 -138.5 33.5t-95 90.5t-34.5 129q0 71 34.5 127.5t93 90t132.5 33.5q78 0 131 -34.5t84 -98.5l-289 -284l-71 72l261 256l-4 -92q-13 33 -39.5 51t-70.5 18q-42 0 -73 -17.5t-47.5 -48.5t-16.5 -71q0 -43 18 -75.5t50.5 -50.5t76.5 -18q39 0 69 12.5
t53 37.5l77 -77q-37 -42 -88.5 -63t-112.5 -21zM280 553q-32 0 -53 21.5t-21 53.5t21 53.5t53 21.5q33 0 53.5 -21.5t20.5 -53.5t-20.5 -53.5t-53.5 -21.5z" />
    <glyph glyph-name="egrave.ss01" horiz-adv-x="519" 
d="M294 -10q-78 0 -138.5 33.5t-95 90.5t-34.5 129q0 71 34.5 127.5t93 90t132.5 33.5q78 0 131 -34.5t84 -98.5l-289 -284l-71 72l261 256l-4 -92q-13 33 -39.5 51t-70.5 18q-42 0 -73 -17.5t-47.5 -48.5t-16.5 -71q0 -43 18 -75.5t50.5 -50.5t76.5 -18q39 0 69 12.5
t53 37.5l77 -77q-37 -42 -88.5 -63t-112.5 -21zM327 540l-178 116l85 102l143 -156z" />
    <glyph glyph-name="emacron.ss01" horiz-adv-x="519" 
d="M294 -10q-78 0 -138.5 33.5t-95 90.5t-34.5 129q0 71 34.5 127.5t93 90t132.5 33.5q78 0 131 -34.5t84 -98.5l-289 -284l-71 72l261 256l-4 -92q-13 33 -39.5 51t-70.5 18q-42 0 -73 -17.5t-47.5 -48.5t-16.5 -71q0 -43 18 -75.5t50.5 -50.5t76.5 -18q39 0 69 12.5
t53 37.5l77 -77q-37 -42 -88.5 -63t-112.5 -21zM90 679h380v-102h-380v102z" />
    <glyph glyph-name="eogonek.ss01" horiz-adv-x="519" 
d="M294 -10q-78 0 -138.5 33.5t-95 90.5t-34.5 129q0 71 34.5 127.5t93 90t132.5 33.5q78 0 131 -34.5t84 -98.5l-289 -284l-71 72l261 256l-4 -92q-13 33 -39.5 51t-70.5 18q-42 0 -73 -17.5t-47.5 -48.5t-16.5 -71q0 -43 18 -75.5t50.5 -50.5t76.5 -18q39 0 69 12.5
t53 37.5l77 -77q-37 -42 -88.5 -63t-112.5 -21zM338 -202q-53 0 -90 24t-37 77q0 47 30.5 82.5t87.5 54.5l75 -26q-38 -17 -60 -40t-22 -53q0 -17 9.5 -27t28.5 -10q13 0 24 4.5t19 8.5l31 -70q-17 -10 -40 -17.5t-56 -7.5z" />
    <glyph glyph-name="g.ss01" horiz-adv-x="517" 
d="M243 -213q-64 0 -116 23.5t-82.5 65.5t-30.5 96q0 42 12 69t36 52l99 -64q-10 -9 -15 -21t-5 -30q0 -33 27.5 -52.5t75.5 -19.5q51 0 79.5 24t28.5 67q0 28 -13.5 50t-38 34.5t-55.5 12.5q-56 0 -101.5 25.5t-72 70.5t-26.5 102q0 59 27 104t73.5 71t105.5 26
q58 0 104 -25t73.5 -68t27.5 -98q0 -54 -26 -96t-71 -65.5t-103 -23.5l-4 71q67 -1 117 -27t78.5 -70.5t28.5 -101.5q0 -60 -28.5 -105.5t-81 -71t-123.5 -25.5zM251 208q26 0 45 10.5t30 30t11 43.5q0 26 -11 44.5t-30 29.5t-45 11t-45.5 -11t-30.5 -29.5t-11 -44.5
q0 -24 11 -43.5t30.5 -30t45.5 -10.5zM394 359l-78 78l114 114l78 -79z" />
    <glyph glyph-name="k.ss01" horiz-adv-x="518" 
d="M407 -17l-228 266l226 253l90 -78l-194 -208l5 70l199 -222zM58 0v723h131v-723h-131z" />
    <glyph glyph-name="uni0137.ss01" horiz-adv-x="518" 
d="M407 -17l-228 266l226 253l90 -78l-194 -208l5 70l199 -222zM58 0v723h131v-723h-131zM242 -382l-64 42l80 126l42 8q-8 -13 -18 -21t-21 -7q-26 2 -45.5 25.5t-16.5 56.5q3 35 28.5 58t60.5 20q34 -3 56.5 -30t19.5 -62q-1 -15 -8.5 -33.5t-26.5 -47.5z" />
    <glyph glyph-name="m.ss01" horiz-adv-x="845" 
d="M46 0v280q0 63 27 111t76 75.5t114 27.5q63 0 109.5 -28t71.5 -81h-42q25 53 71 81t110 28q66 0 114.5 -27.5t75.5 -75.5t27 -111v-280h-132v270q0 49 -23 76t-67 27q-43 0 -66 -26.5t-23 -76.5v-270h-132v270q0 50 -23 76.5t-67 26.5q-43 0 -66.5 -26.5t-23.5 -76.5
v-270h-131z" />
    <glyph glyph-name="n.ss01" horiz-adv-x="537" 
d="M45 0v274q0 65 28.5 114.5t78.5 77.5t117 28t117.5 -27.5t78 -77t27.5 -115.5v-274h-131v268q0 48 -23.5 76.5t-68.5 28.5t-68.5 -28.5t-23.5 -76.5v-268h-132z" />
    <glyph glyph-name="nacute.ss01" horiz-adv-x="537" 
d="M45 0v274q0 65 28.5 114.5t78.5 77.5t117 28t117.5 -27.5t78 -77t27.5 -115.5v-274h-131v268q0 48 -23.5 76.5t-68.5 28.5t-68.5 -28.5t-23.5 -76.5v-268h-132zM205 545l-50 62l144 156l84 -102z" />
    <glyph glyph-name="ncaron.ss01" horiz-adv-x="537" 
d="M45 0v274q0 65 28.5 114.5t78.5 77.5t117 28t117.5 -27.5t78 -77t27.5 -115.5v-274h-131v268q0 48 -23.5 76.5t-68.5 28.5t-68.5 -28.5t-23.5 -76.5v-268h-132zM403 750l50 -58l-141 -150h-86l-141 150l50 58l181 -127h-95z" />
    <glyph glyph-name="uni0146.ss01" horiz-adv-x="537" 
d="M45 0v274q0 65 28.5 114.5t78.5 77.5t117 28t117.5 -27.5t78 -77t27.5 -115.5v-274h-131v268q0 48 -23.5 76.5t-68.5 28.5t-68.5 -28.5t-23.5 -76.5v-268h-132zM236 -382l-64 42l80 126l42 8q-8 -13 -18 -21t-21 -7q-26 2 -45.5 25.5t-16.5 56.5q3 35 28.5 58t60.5 20
q34 -3 56.5 -30t19.5 -62q-1 -15 -8.5 -33.5t-26.5 -47.5z" />
    <glyph glyph-name="ntilde.ss01" horiz-adv-x="537" 
d="M45 0v274q0 65 28.5 114.5t78.5 77.5t117 28t117.5 -27.5t78 -77t27.5 -115.5v-274h-131v268q0 48 -23.5 76.5t-68.5 28.5t-68.5 -28.5t-23.5 -76.5v-268h-132zM343 545q-33 0 -56 12t-43 23t-43 11q-24 0 -39.5 -9t-29.5 -28l-66 66q29 38 59.5 58t71.5 20
q33 0 56 -11.5t43 -23t43 -11.5q25 0 40.5 9.5t28.5 27.5l66 -65q-29 -38 -59.5 -58.5t-71.5 -20.5z" />
    <glyph glyph-name="eng.ss01" horiz-adv-x="537" 
d="M311 -214q-52 0 -86.5 17t-62.5 48l83 83q12 -15 25.5 -21.5t31.5 -6.5q25 0 42 15t17 44v198h131v-196q0 -57 -24.5 -97.5t-65 -62t-91.5 -21.5zM45 0v274q0 65 28.5 114.5t78.5 77.5t117 28t117.5 -27.5t78 -77t27.5 -115.5v-274h-131v268q0 48 -23.5 76.5t-68.5 28.5
t-68.5 -28.5t-23.5 -76.5v-268h-132z" />
    <glyph glyph-name="oe.ss01" horiz-adv-x="910" 
d="M285 -10q-73 0 -131.5 33.5t-93 91t-34.5 128.5t34 127.5t93 90t131 33.5q74 0 132.5 -33.5t92.5 -90t34 -127.5t-34 -128.5t-92.5 -91t-131.5 -33.5zM284 112q37 0 65.5 16.5t44 46t15.5 67.5t-16 67t-44 45.5t-65 16.5q-36 0 -64 -16.5t-44 -45.5t-16 -67t16 -67.5
t44 -46t64 -16.5zM685 -10q-78 0 -138.5 33.5t-95 90.5t-34.5 129q0 71 34.5 127.5t93 90t132.5 33.5q78 0 131 -34.5t84 -98.5l-289 -284l-71 72l261 256l-4 -92q-13 33 -39.5 51t-70.5 18q-42 0 -73 -17.5t-47.5 -48.5t-16.5 -71q0 -43 18 -75.5t50.5 -50.5t76.5 -18
q39 0 69 12.5t53 37.5l77 -77q-37 -42 -88.5 -63t-112.5 -21z" />
    <glyph glyph-name="t.ss01" horiz-adv-x="470" 
d="M308 -10q-52 0 -92.5 21t-64 61t-23.5 97v515h132v-515q0 -29 17 -44t40 -15q19 0 33 6.5t26 18.5l80 -80q-28 -32 -61.5 -48.5t-86.5 -16.5zM17 366v117h409v-117h-409z" />
    <glyph glyph-name="tcaron.ss01" horiz-adv-x="483" 
d="M308 -10q-52 0 -92.5 21t-64 61t-23.5 97v515h132v-515q0 -29 17 -44t40 -15q19 0 33 6.5t26 18.5l80 -80q-28 -32 -61.5 -48.5t-86.5 -16.5zM17 366v117h409v-117h-409zM364 512l-68 37l71 131l41 12q-7 -14 -16 -22.5t-21 -8.5q-25 0 -47 21.5t-22 54.5q0 36 24 61
t60 25q33 0 58 -25t25 -61q0 -14 -6 -33.5t-22 -49.5z" />
    <glyph glyph-name="uni021B.ss01" horiz-adv-x="470" 
d="M308 -10q-52 0 -92.5 21t-64 61t-23.5 97v515h132v-515q0 -29 17 -44t40 -15q19 0 33 6.5t26 18.5l80 -80q-28 -32 -61.5 -48.5t-86.5 -16.5zM17 366v117h409v-117h-409zM244 -382l-64 42l80 126l42 8q-8 -13 -18 -21t-21 -7q-26 2 -45.5 25.5t-16.5 56.5q3 35 28.5 58
t60.5 20q34 -3 56.5 -30t19.5 -62q-1 -15 -8.5 -33.5t-26.5 -47.5z" />
    <glyph glyph-name="f_t" horiz-adv-x="681" 
d="M122 0v535q0 58 25 102.5t71.5 70.5t108.5 26v-121q-35 0 -54.5 -19.5t-19.5 -55.5v-538h-131zM10 368v115h655v-115h-655zM421 0v684h131v-684h-131z" />
    <glyph glyph-name="r_f" horiz-adv-x="716" 
d="M58 0v483h131v-483h-131zM418 0v535q0 58 25.5 102.5t71.5 70.5t107 26q47 0 81 -16t62 -44l-84 -84q-10 11 -23.5 17t-32.5 6q-36 0 -55.5 -19.5t-19.5 -55.5v-538h-132zM189 266l-51 33q9 88 55 136t143 48h356v-115h-383q-59 0 -89.5 -23.5t-30.5 -78.5z" />
    <glyph glyph-name="r_t" horiz-adv-x="681" 
d="M58 0v483h131v-483h-131zM189 266l-51 33q9 88 55 136t143 48h329v-115h-356q-59 0 -89.5 -23.5t-30.5 -78.5zM421 0v684h132v-684h-132z" />
    <glyph glyph-name="t_f" horiz-adv-x="725" 
d="M129 0v684h131v-684h-131zM16 368v115h686v-115h-686zM428 0v535q0 58 25 102.5t71 70.5t108 26q47 0 81 -16t61 -44l-83 -84q-11 11 -24 17t-33 6q-36 0 -55.5 -19.5t-19.5 -55.5v-538h-131z" />
    <glyph glyph-name="one.ss01" horiz-adv-x="388" 
d="M184 0v624l33 79h102v-703h-135zM90 431l-74 78l201 194l25 -124z" />
    <glyph glyph-name="zero.tf" horiz-adv-x="590" 
d="M296 -10q-80 0 -144.5 45t-102 127t-37.5 190q0 110 37 191t101.5 126t143.5 45q80 0 144.5 -45t102.5 -126t38 -191t-38 -191.5t-101.5 -126t-143.5 -44.5zM295 113q45 0 78 27t51 80t18 132t-18.5 132t-51.5 79.5t-78 26.5q-44 0 -77 -26.5t-51 -79t-18 -131.5
q0 -80 18 -133t51.5 -80t77.5 -27z" />
    <glyph glyph-name="one.tf" horiz-adv-x="590" 
d="M250 0v703h133v-703h-133zM76 585v118h293v-118h-293zM76 0v118h448v-118h-448z" />
    <glyph glyph-name="two.tf" horiz-adv-x="590" 
d="M39 78l272 277q30 30 48 54t26.5 45t8.5 43q0 44 -30 69t-77 25q-46 0 -83.5 -23t-69.5 -77l-94 79q43 71 107 107.5t148 36.5q70 0 122 -27t81 -75t29 -112q0 -44 -11 -79t-36.5 -69t-69.5 -77l-199 -197h-172zM39 0v78l116 40h387v-118h-503z" />
    <glyph glyph-name="three.tf" horiz-adv-x="590" 
d="M269 -10q-74 0 -133.5 25.5t-101.5 73.5l89 89q22 -30 60.5 -48t83.5 -18q41 0 71.5 14.5t48 41t17.5 61.5q0 37 -17.5 63t-50 40t-77.5 14q-19 0 -39 -2.5t-35 -7.5l60 76q24 8 49 13.5t48 5.5q56 0 100.5 -25.5t71 -72t26.5 -109.5q0 -70 -34 -122.5t-95 -82
t-142 -29.5zM185 336v78l187 209l157 2l-194 -213zM74 585v118h455v-78l-111 -40h-344z" />
    <glyph glyph-name="four.tf" horiz-adv-x="590" 
d="M20 248l237 455h151l-243 -455h-145zM20 168v80l50 39h500v-119h-550zM349 0v448h134v-448h-134z" />
    <glyph glyph-name="five.tf" horiz-adv-x="590" 
d="M269 -10q-72 0 -134 24.5t-105 74.5l90 89q22 -30 60.5 -48t84.5 -18q43 0 74.5 15t50 42.5t18.5 64.5q0 39 -18 66t-48.5 41t-68.5 14t-70 -9.5t-61 -30.5l8 86q20 20 41.5 32.5t49.5 19t64 6.5q77 0 130.5 -31.5t81 -84t27.5 -115.5q0 -69 -35 -123t-96.5 -84.5
t-143.5 -30.5zM142 315l-65 64l33 324h123l-37 -329zM131 585l-21 118h394v-118h-373z" />
    <glyph glyph-name="six.tf" horiz-adv-x="590" 
d="M295 -10q-73 0 -131.5 32.5t-92 88t-33.5 123.5q0 93 65 187l199 282h155l-215 -298l-51 -14q12 23 28 40t41 26t63 9q64 0 116 -29.5t83 -81t31 -118.5q0 -69 -34.5 -125t-93 -89t-130.5 -33zM295 112q36 0 64 16.5t44.5 45t16.5 64.5t-16.5 64.5t-44.5 44.5t-64 16
q-35 0 -63.5 -16.5t-44.5 -44.5t-16 -64t16 -64.5t44.5 -45t63.5 -16.5z" />
    <glyph glyph-name="seven.tf" horiz-adv-x="590" 
d="M156 0l258 624h133l-250 -624h-141zM41 585v118h506v-79l-51 -39h-455z" />
    <glyph glyph-name="eight.tf" horiz-adv-x="590" 
d="M294 -10q-75 0 -131 26t-87 73t-31 106q0 49 19.5 89t56 67.5t84.5 38.5l-2 -33q-41 10 -69.5 35t-43.5 59t-15 72q0 57 28.5 100t78 67t112.5 24q64 0 114 -24t78 -67t28 -100q0 -38 -14.5 -72t-43 -59t-69.5 -35l-3 33q50 -11 86 -38.5t55.5 -67.5t19.5 -89
q0 -59 -31 -106t-87.5 -73t-132.5 -26zM294 109q36 0 63 13.5t42.5 37.5t15.5 54q0 31 -15.5 54.5t-42.5 37t-63 13.5q-35 0 -62 -13.5t-42 -37t-15 -54.5q0 -30 15 -54t42 -37.5t62 -13.5zM294 422q41 0 68 25t27 64q0 40 -27 65t-68 25q-40 0 -67 -25t-27 -64
q0 -40 27 -65t67 -25z" />
    <glyph glyph-name="nine.tf" horiz-adv-x="590" 
d="M133 0l216 298l50 15q-12 -23 -28 -40.5t-40.5 -26.5t-63.5 -9q-63 0 -115.5 29.5t-83.5 81.5t-31 119q0 68 34.5 124.5t93 89.5t130.5 33q73 0 131.5 -33t92.5 -88t34 -123q0 -94 -66 -188l-199 -282h-155zM295 341q36 0 64 16t44 44.5t16 63.5q0 37 -16 65t-44 44.5
t-64 16.5q-35 0 -63.5 -16.5t-44.5 -44.5t-16 -65q0 -36 16 -64t44.5 -44t63.5 -16z" />
    <glyph glyph-name="ampersand.ss01" horiz-adv-x="653" 
d="M304 -10q-78 0 -136 26t-88.5 73t-30.5 108q0 72 41.5 123t115.5 69l-3 -32q-40 11 -68 35.5t-42 58.5t-14 72q0 57 28 100t78 67t115 24q76 0 127.5 -30t80.5 -73l-90 -83q-22 31 -48 49t-70 18q-46 0 -71 -24.5t-25 -62.5q0 -24 11.5 -43t31 -30t43.5 -11v-107
q-32 0 -57 -13t-39.5 -36t-14.5 -54q0 -30 15.5 -54t44 -37.5t66.5 -13.5q39 0 67 13.5t43.5 37.5t15.5 54q0 26 -8.5 45.5t-24 33.5t-36.5 20l41 76q48 -12 83.5 -40t55 -68t19.5 -87q0 -59 -33 -105.5t-90.5 -72.5t-133.5 -26zM362 313v111h268v-111h-268z" />
    <glyph glyph-name="uni030C.alt" 
d="M147 172l-68 37l71 131l41 12q-7 -14 -16 -22.5t-21 -8.5q-25 0 -47 21.5t-22 54.5q0 36 24 61t60 25q33 0 58 -25t25 -61q0 -14 -6 -33.5t-22 -49.5z" />
    <glyph glyph-name="Dcroat.BRACKET.varAlt01" horiz-adv-x="770" 
d="M188 0v121h179q68 0 119 28.5t79.5 80.5t28.5 123q0 69 -29 120.5t-80 80t-118 28.5h-182v121h184q78 0 144.5 -26t116 -73.5t77 -111.5t27.5 -140t-27.5 -140.5t-76.5 -112t-115.5 -73.5t-143.5 -26h-183zM95 0v703h136v-703h-136zM1 293v119h346v-119h-346z" />
    <glyph glyph-name="cent.BRACKET.varAlt01" horiz-adv-x="522" 
d="M299 100q-73 0 -132 33t-93 90t-34 128q0 72 34 129t93 90.5t133 33.5q56 0 104 -21t84 -60l-85 -85q-19 21 -45 32t-58 11q-37 0 -65.5 -16.5t-44.5 -45t-16 -67.5q0 -38 16 -67.5t44.5 -46t65.5 -16.5q33 0 59 11.5t45 33.5l85 -85q-36 -40 -84 -61t-106 -21zM243 159
h95v-149h-95v149zM338 531h-95v162h95v-162z" />
    <glyph glyph-name="dollar.BRACKET.varAlt01" horiz-adv-x="594" 
d="M286 -10q-79 0 -137.5 29t-106.5 87l88 89q31 -41 70.5 -65.5t92.5 -24.5q54 0 85 22t31 62q0 32 -18 52t-47.5 34t-64.5 25.5t-70 26.5t-64.5 37.5t-47 58t-17.5 89.5q0 64 30.5 109t84 69t121.5 24q66 0 122 -27t93 -70l-89 -89q-30 34 -61.5 52t-67.5 18
q-49 0 -76 -18.5t-27 -56.5q0 -29 18 -47t47.5 -31t65 -25t71 -27t65 -39t47.5 -61.5t18 -92.5q0 -98 -68.5 -154t-187.5 -56zM262 52h95v-152h-95v152zM357 647h-95v157h95v-157z" />
    </font>
</defs>
</svg>
