<?xml version="1.0" standalone="no"?>
<!DOCTYPE svg PUBLIC "-//W3C//DTD SVG 1.1//EN" "http://www.w3.org/Graphics/SVG/1.1/DTD/svg11.dtd" >
<svg xmlns="http://www.w3.org/2000/svg" xmlns:xlink="http://www.w3.org/1999/xlink" version="1.1">
<metadata>
Created by FontForge 20201107 at Fri Mar 17 16:10:02 2023
 By 
Copyright 2021 The Outfit Project Authors (https://github.com/Outfitio/Outfit-Fonts)
</metadata>
<defs>
<font id="Outfit-Light" horiz-adv-x="0" >
  <font-face 
    font-family="Outfit Light"
    font-weight="300"
    font-stretch="normal"
    units-per-em="1000"
    panose-1="0 0 0 0 0 0 0 0 0 0"
    ascent="800"
    descent="-200"
    x-height="470"
    cap-height="688"
    bbox="-126 -310 3573 971"
    underline-thickness="50"
    underline-position="-125"
    unicode-range="U+000D-FB02"
  />
<missing-glyph horiz-adv-x="683" 
d="M87 0v688h508v-688h-508zM161 73h360v542h-360v-542zM210 443l32 33l231 -230l-34 -33zM445 482l34 -34l-242 -241l-33 34z" />
    <glyph glyph-name="fi" unicode="fi" horiz-adv-x="558" 
d="M140 0v560q0 46 20 81.5t55.5 56t82.5 20.5q35 0 62.5 -12t50.5 -34l-47 -47q-14 14 -30.5 20.5t-36.5 6.5q-41 0 -63.5 -25.5t-22.5 -68.5v-558h-71zM22 407v63h433v-63h-433zM416 0v470h71v-470h-71zM451 528q-21 0 -34.5 14.5t-13.5 34.5q0 21 13.5 35t34.5 14t35 -14
t14 -35q0 -20 -14 -34.5t-35 -14.5z" />
    <glyph glyph-name="fl" unicode="fl" horiz-adv-x="557" 
d="M140 0v545q0 48 22 87t61.5 62.5t92.5 23.5l-1 -66q-50 0 -77 -30.5t-27 -78.5v-543h-71zM22 407v63h423v-63h-423zM416 0v715h71v-715h-71z" />
    <glyph glyph-name="f_f" unicode="ff" horiz-adv-x="671" 
d="M140 0v534q0 51 22 90t61.5 61.5t90.5 22.5t85.5 -22t51.5 -60.5t17 -86.5h-52q-1 47 -26.5 76t-75.5 29t-76.5 -30t-26.5 -80v-534h-71zM22 407v63h622v-63h-622zM416 0v550q0 49 22 87t60 59.5t87 21.5q38 0 67 -13.5t53 -37.5l-46 -46q-16 16 -33.5 23.5t-40.5 7.5
q-47 0 -72.5 -27.5t-25.5 -76.5v-548h-71z" />
    <glyph glyph-name="f_j" unicode="fj" horiz-adv-x="556" 
d="M140 0v560q0 46 20 81.5t55.5 56t82.5 20.5q35 0 62.5 -12t50.5 -34l-47 -47q-14 14 -30.5 20.5t-36.5 6.5q-41 0 -63.5 -25.5t-22.5 -68.5v-558h-71zM22 407v63h433v-63h-433zM338 -208q-41 0 -71 14t-54 40l46 46q16 -18 34 -26t41 -8q34 0 58 20t24 63v529h71v-528
q0 -49 -21 -82.5t-54.5 -50.5t-73.5 -17zM451 528q-21 0 -34.5 14.5t-13.5 34.5q0 21 13.5 35t34.5 14t35 -14t14 -35q0 -20 -14 -34.5t-35 -14.5z" />
    <glyph glyph-name="o_u_t_f_i_t" unicode="outfit" horiz-adv-x="2268" 
d="M284 -10q-68 0 -123.5 33t-88 89t-32.5 125q0 68 32.5 123t88 87.5t123.5 32.5q69 0 124 -32t87.5 -87.5t32.5 -123.5q0 -70 -32.5 -125.5t-87.5 -88.5t-124 -33zM284 58q50 0 88.5 23t61 64t22.5 92t-22.5 90.5t-61 62.5t-88.5 23q-49 0 -88 -23t-61 -62.5t-22 -90.5
q0 -52 22 -92.5t61 -63.5t88 -23zM826 -10q-58 0 -103 26.5t-70 73t-25 107.5v273h70v-270q0 -43 15.5 -75t44.5 -50t68 -18q59 0 93 39t34 104v270h71v-273q0 -61 -25.5 -108t-70 -73t-102.5 -26zM992 407v63h1251v-63h-1251zM1211 0v668h71v-668h-71zM1487 0v560
q0 46 20 81.5t56 56t82 20.5q35 0 62.5 -12t50.5 -34l-47 -47q-14 14 -30.5 20.5t-36.5 6.5q-41 0 -63.5 -25.5t-22.5 -68.5v-558h-71zM1763 0v470h71v-470h-71zM1798 533q-20 0 -33 14t-13 34t13 33.5t33 13.5q21 0 34.5 -13.5t13.5 -33.5t-13.5 -34t-34.5 -14zM2039 0v668
h71v-668h-71z" />
    <glyph glyph-name="o_u_t_f_i_t_t_e_d" unicode="outfitted" horiz-adv-x="3643" 
d="M284 -10q-68 0 -123.5 33t-88 89t-32.5 125q0 68 32.5 123t88 87.5t123.5 32.5q69 0 124 -32t87.5 -87.5t32.5 -123.5q0 -70 -32.5 -125.5t-87.5 -88.5t-124 -33zM284 58q50 0 88.5 23t61 64t22.5 92t-22.5 90.5t-61 62.5t-88.5 23q-49 0 -88 -23t-61 -62.5t-22 -90.5
q0 -52 22 -92.5t61 -63.5t88 -23zM826 -10q-58 0 -103 26.5t-70 73t-25 107.5v273h70v-270q0 -43 15.5 -75t44.5 -50t68 -18q59 0 93 39t34 104v270h71v-273q0 -61 -25.5 -108t-70 -73t-102.5 -26zM1211 0v668h71v-668h-71zM1487 0v560q0 46 20 81.5t56 56t82 20.5
q35 0 62.5 -12t50.5 -34l-47 -47q-14 14 -30.5 20.5t-36.5 6.5q-41 0 -63.5 -25.5t-22.5 -68.5v-558h-71zM1763 0v470h71v-470h-71zM992 407v63h1527v-63h-1527zM1798 533q-20 0 -33 14t-13 34t13 33.5t33 13.5q21 0 34.5 -13.5t13.5 -33.5t-13.5 -34t-34.5 -14zM2039 0v668
h71v-668h-71zM2315 0v668h71v-668h-71zM2808 -10q-70 0 -126 32t-88.5 88t-32.5 126q0 69 31.5 124.5t86.5 87.5t123 32q65 0 114.5 -29t77.5 -80.5t28 -118.5q0 -8 -1 -18.5t-3 -24.5h-408v60h369l-25 -22q1 52 -17.5 89.5t-53 58t-82.5 20.5q-51 0 -89.5 -22t-59.5 -61.5
t-21 -93.5t22 -95t62.5 -64t94.5 -23q42 0 78 15.5t61 46.5l46 -46q-33 -39 -82 -60.5t-105 -21.5zM3330 -10q-66 0 -118 32.5t-82 87.5t-30 124q0 70 30 125.5t82.5 88t117.5 32.5q52 0 95.5 -21t71.5 -59.5t34 -90.5v-147q-6 -51 -33.5 -89.5t-71 -60.5t-96.5 -22z
M3342 57q49 0 86 22.5t57.5 63t20.5 92.5q0 53 -21 93t-58 63t-87 23q-49 0 -86.5 -23t-59.5 -63t-22 -93q0 -52 22 -92.5t60 -63t88 -22.5zM3502 0v126l15 116l-15 113v353h71v-708h-71z" />
    <glyph glyph-name="o_u_t_f_i_t_t_e_r" unicode="outfitter" horiz-adv-x="3472" 
d="M284 -10q-68 0 -123.5 33t-88 89t-32.5 125q0 68 32.5 123t88 87.5t123.5 32.5q69 0 124 -32t87.5 -87.5t32.5 -123.5q0 -70 -32.5 -125.5t-87.5 -88.5t-124 -33zM284 58q50 0 88.5 23t61 64t22.5 92t-22.5 90.5t-61 62.5t-88.5 23q-49 0 -88 -23t-61 -62.5t-22 -90.5
q0 -52 22 -92.5t61 -63.5t88 -23zM826 -10q-58 0 -103 26.5t-70 73t-25 107.5v273h70v-270q0 -43 15.5 -75t44.5 -50t68 -18q59 0 93 39t34 104v270h71v-273q0 -61 -25.5 -108t-70 -73t-102.5 -26zM1211 0v668h71v-668h-71zM1487 0v560q0 46 20 81.5t56 56t82 20.5
q35 0 62.5 -12t50.5 -34l-47 -47q-14 14 -30.5 20.5t-36.5 6.5q-41 0 -63.5 -25.5t-22.5 -68.5v-558h-71zM1763 0v470h71v-470h-71zM992 407v63h1527v-63h-1527zM1798 533q-20 0 -33 14t-13 34t13 33.5t33 13.5q21 0 34.5 -13.5t13.5 -33.5t-13.5 -34t-34.5 -14zM2039 0v668
h71v-668h-71zM2315 0v668h71v-668h-71zM2808 -10q-70 0 -126 32t-88.5 88t-32.5 126q0 69 31.5 124.5t86.5 87.5t123 32q65 0 114.5 -29t77.5 -80.5t28 -118.5q0 -8 -1 -18.5t-3 -24.5h-408v60h369l-25 -22q1 52 -17.5 89.5t-53 58t-82.5 20.5q-51 0 -89.5 -22t-59.5 -61.5
t-21 -93.5t22 -95t62.5 -64t94.5 -23q42 0 78 15.5t61 46.5l46 -46q-33 -39 -82 -60.5t-105 -21.5zM3129 0v470h71v-470h-71zM3200 274l-30 13q0 89 43.5 141t119.5 52q35 0 64.5 -12.5t54.5 -39.5l-47 -49q-17 19 -37 27t-47 8q-53 0 -87 -35.5t-34 -104.5z" />
    <glyph glyph-name="t_t" unicode="tt" horiz-adv-x="634" 
d="M144 0v668h71v-668h-71zM25 407v63h584v-63h-584zM420 0v668h71v-668h-71z" />
    <glyph glyph-name=".notdef" horiz-adv-x="683" 
d="M87 0v688h508v-688h-508zM161 73h360v542h-360v-542zM210 443l32 33l231 -230l-34 -33zM445 482l34 -34l-242 -241l-33 34z" />
    <glyph glyph-name=".null" 
 />
    <glyph glyph-name="nonmarkingreturn" horiz-adv-x="333" 
 />
    <glyph glyph-name="CR" unicode="&#xd;" horiz-adv-x="600" 
 />
    <glyph glyph-name="space" unicode=" " horiz-adv-x="215" 
 />
    <glyph glyph-name="exclam" unicode="!" horiz-adv-x="261" 
d="M101 209l-11 499h77l-11 -499h-55zM128 -10q-25 0 -41 17t-16 40q0 25 16 41.5t41 16.5q24 0 40 -16.5t16 -41.5q0 -23 -16 -40t-40 -17z" />
    <glyph glyph-name="quotedbl" unicode="&#x22;" horiz-adv-x="374" 
d="M236 486l-17 222h79l-17 -222h-45zM94 486l-18 222h80l-18 -222h-44z" />
    <glyph glyph-name="numbersign" unicode="#" horiz-adv-x="638" 
d="M340 0l102 688h61l-102 -688h-61zM54 219v57h500v-57h-500zM128 0l102 688h61l-102 -688h-61zM83 426v57h501v-57h-501z" />
    <glyph glyph-name="dollar" unicode="$" horiz-adv-x="592" 
d="M296 -10q-75 0 -131.5 30.5t-99.5 85.5l50 50q35 -50 80 -75t104 -25q65 0 105 30.5t40 85.5q0 41 -18 67.5t-48.5 43t-66.5 29.5t-72.5 27.5t-66.5 36.5t-48.5 56t-18.5 87q0 56 26.5 96t73 61.5t105.5 21.5q62 0 113.5 -26t85.5 -70l-50 -50q-31 39 -68 60t-83 21
q-60 0 -96 -28.5t-36 -80.5q0 -39 18.5 -63t49 -40t67 -28.5t73 -27.5t67 -38t49 -58.5t18.5 -90.5q0 -89 -60 -138.5t-162 -49.5zM285 -100v888h53v-888h-53z" />
    <glyph glyph-name="percent" unicode="%" horiz-adv-x="662" 
d="M74 0l442 688h72l-441 -688h-73zM463 -10q-38 0 -70 18.5t-51 50.5t-19 71t19 70t50.5 49.5t70.5 18.5t70.5 -18.5t50.5 -49.5t19 -70t-18.5 -71t-50.5 -50.5t-71 -18.5zM462 47q36 0 59 23t23 60q0 36 -24 58.5t-58 22.5q-33 0 -56 -22.5t-23 -58.5q0 -37 23 -60t56 -23
zM199 420q-38 0 -70 18.5t-51 50t-19 70.5t19 70.5t50.5 50t70.5 18.5t70.5 -18.5t50.5 -50t19 -70.5t-18.5 -70.5t-50.5 -50t-71 -18.5zM198 477q36 0 58.5 23t22.5 60q0 36 -23.5 58.5t-57.5 22.5q-33 0 -56 -22.5t-23 -58.5q0 -37 23 -60t56 -23z" />
    <glyph glyph-name="ampersand" unicode="&#x26;" horiz-adv-x="648" 
d="M546 0l-332 349q-40 43 -59.5 82.5t-19.5 84.5q0 53 24 94t67 65t99 24q39 0 72 -12.5t59 -33.5t44 -49l-51 -46q-24 34 -54 53t-70 19q-52 0 -85.5 -31.5t-33.5 -82.5q0 -37 16 -65.5t51 -65.5l362 -385h-89zM288 -10q-66 0 -116 26.5t-78.5 73t-28.5 105.5
q0 64 34.5 116t95.5 81l35 -44q-43 -21 -68.5 -60.5t-25.5 -90.5q0 -42 20 -73.5t55 -49t80 -17.5q53 0 94 24t62 61l46 -52q-20 -30 -51.5 -52.5t-70.5 -35t-83 -12.5z" />
    <glyph glyph-name="quotesingle" unicode="'" horiz-adv-x="232" 
d="M94 486l-18 222h80l-18 -222h-44z" />
    <glyph glyph-name="parenleft" unicode="(" horiz-adv-x="306" 
d="M230 -113q-57 46 -96.5 112.5t-60.5 146t-21 163.5q0 85 21 164t60.5 146t96.5 113l41 -38q-76 -64 -116 -164t-40 -221q0 -120 40 -220t116 -164z" />
    <glyph glyph-name="parenright" unicode=")" horiz-adv-x="306" 
d="M77 -113l-42 38q77 64 117 164t40 220q0 121 -40 221t-117 164l42 38q57 -46 96.5 -113t60 -146t20.5 -164q0 -84 -20.5 -163.5t-60 -146t-96.5 -112.5z" />
    <glyph glyph-name="asterisk" unicode="*" horiz-adv-x="488" 
d="M234 358l-11 159l-136 -84l-31 59l150 59l-123 102l47 47l104 -121l60 147l60 -30l-86 -135l162 -10l-10 -66l-158 38l39 -155z" />
    <glyph glyph-name="plus" unicode="+" horiz-adv-x="537" 
d="M64 302v63h409v-63h-409zM236 548h65v-428h-65v428z" />
    <glyph glyph-name="comma" unicode="," horiz-adv-x="274" 
d="M81 -103l57 111l25 6q-4 -9 -11 -15.5t-17 -6.5q-19 0 -34.5 15.5t-15.5 38.5q0 24 17 41.5t41 17.5q23 0 40.5 -17.5t17.5 -41.5q0 -10 -3.5 -23.5t-14.5 -35.5l-60 -113z" />
    <glyph glyph-name="hyphen" unicode="-" horiz-adv-x="460" 
d="M71 220v67h319v-67h-319z" />
    <glyph glyph-name="period" unicode="." horiz-adv-x="289" 
d="M145 -10q-25 0 -41 17t-16 41t16 40.5t41 16.5q24 0 40 -16.5t16 -40.5t-16 -41t-40 -17z" />
    <glyph glyph-name="slash" unicode="/" horiz-adv-x="380" 
d="M20 -40l274 765h66l-274 -765h-66z" />
    <glyph glyph-name="zero" unicode="0" horiz-adv-x="657" 
d="M330 -10q-76 0 -139 43.5t-100.5 123.5t-37.5 188q0 109 37 187.5t99.5 122t138.5 43.5q77 0 139.5 -43t99.5 -122.5t37 -188.5q0 -108 -37 -188t-99 -123t-138 -43zM328 59q59 0 104.5 33.5t71.5 97t26 155.5q0 91 -26 154.5t-71.5 96.5t-104.5 33q-58 0 -103.5 -33
t-71.5 -96t-26 -155t26 -155.5t71.5 -97t103.5 -33.5z" />
    <glyph glyph-name="one" unicode="1" horiz-adv-x="338" 
d="M181 0v688h72v-688h-72zM36 623v65h207v-65h-207z" />
    <glyph glyph-name="two" unicode="2" horiz-adv-x="540" 
d="M38 45l255 266q44 47 68.5 79t34 58.5t9.5 55.5q0 59 -37 92.5t-98 33.5q-56 0 -98 -26.5t-75 -79.5l-51 45q40 63 96 96t130 33q62 0 108.5 -24t72 -68t25.5 -103q0 -41 -11 -74.5t-38.5 -70t-77.5 -88.5l-216 -222zM38 0v45l60 21h397v-66h-457z" />
    <glyph glyph-name="three" unicode="3" horiz-adv-x="535" 
d="M248 -10q-66 0 -120.5 26t-91.5 75l49 49q25 -38 68 -59.5t94 -21.5q50 0 86.5 19t57 53.5t20.5 80.5q0 47 -20.5 81t-58 53t-89.5 19q-17 0 -34.5 -2t-34.5 -7l28 41q17 9 37 14t44 5q57 0 103 -26.5t72.5 -73t26.5 -107.5q0 -65 -30 -114t-83.5 -77t-123.5 -28z
M174 356v45l218 245l85 -3l-222 -248zM66 623v65h411v-45l-63 -20h-348z" />
    <glyph glyph-name="four" unicode="4" horiz-adv-x="597" 
d="M38 228l257 460h82l-261 -460h-78zM38 182v46l31 20h490v-66h-521zM385 0v459h72v-459h-72z" />
    <glyph glyph-name="five" unicode="5" horiz-adv-x="538" 
d="M248 -10q-68 0 -122 26t-91 75l49 49q25 -38 67.5 -59.5t95.5 -21.5q50 0 88 19.5t59.5 55t21.5 83.5q0 49 -21 84.5t-57 54.5t-81 19q-43 0 -78.5 -11.5t-64.5 -36.5l-2 48q18 20 41 33t51.5 20t63.5 7q69 0 119 -29.5t76.5 -79.5t26.5 -113q0 -65 -31 -115t-85.5 -79
t-125.5 -29zM114 327l-39 40l30 321h67l-33 -328zM123 623l-18 65h354v-65h-336z" />
    <glyph glyph-name="six" unicode="6" horiz-adv-x="565" 
d="M282 -10q-66 0 -119.5 31.5t-85 84.5t-31.5 118q0 88 61 172l216 292h86l-214 -283l-26 -10q14 18 32.5 30.5t42.5 19.5t55 7q61 0 111 -29.5t80 -80.5t30 -116t-32 -118.5t-86 -85.5t-120 -32zM283 58q45 0 82.5 22.5t59.5 61t22 84.5q0 47 -22 85t-59.5 60.5
t-82.5 22.5q-46 0 -83.5 -22.5t-59 -60t-21.5 -85.5q0 -47 21.5 -85.5t59 -60.5t83.5 -22z" />
    <glyph glyph-name="seven" unicode="7" horiz-adv-x="528" 
d="M155 0l264 647l71 -5l-259 -642h-76zM36 623v65h454v-46l-32 -19h-422z" />
    <glyph glyph-name="eight" unicode="8" horiz-adv-x="552" 
d="M276 -10q-67 0 -118.5 26t-80.5 71.5t-29 103.5q0 46 18.5 84.5t52.5 66t79 37.5l8 -21q-40 11 -68 35t-43 57.5t-15 70.5q0 53 25.5 92.5t70 62.5t100.5 23q57 0 101.5 -23t69.5 -62.5t25 -92.5q0 -37 -14.5 -70.5t-42.5 -57.5t-69 -35l8 21q46 -10 79.5 -37.5t52 -66
t18.5 -84.5q0 -58 -28.5 -103.5t-80 -71.5t-119.5 -26zM276 56q46 0 81.5 18t55.5 50.5t20 73.5q0 42 -20 73.5t-55.5 50t-81.5 18.5q-45 0 -80.5 -18.5t-56 -50t-20.5 -73.5q0 -41 20.5 -73.5t55.5 -50.5t81 -18zM276 397q56 0 91.5 33.5t35.5 86.5t-35.5 86t-91.5 33
q-55 0 -91 -33t-36 -86t36 -86.5t91 -33.5z" />
    <glyph glyph-name="nine" unicode="9" horiz-adv-x="565" 
d="M156 0l215 284l25 10q-14 -18 -32 -31t-42 -20t-55 -7q-61 0 -111 30t-80.5 81t-30.5 115q0 66 32.5 119.5t86 85t119.5 31.5q67 0 120.5 -31t85 -84t31.5 -118q0 -88 -61 -172l-217 -293h-86zM283 295q46 0 83 22t58.5 60.5t21.5 84.5q0 48 -21.5 86t-58.5 60.5
t-83 22.5t-83 -22.5t-59 -61t-22 -85.5q0 -46 22 -84t59.5 -60.5t82.5 -22.5z" />
    <glyph glyph-name="colon" unicode=":" horiz-adv-x="270" 
d="M135 -10q-25 0 -40.5 17t-15.5 40q0 25 15.5 41.5t40.5 16.5q24 0 40.5 -16.5t16.5 -41.5q0 -23 -16.5 -40t-40.5 -17zM135 305q-25 0 -40.5 17t-15.5 40q0 25 15.5 41t40.5 16q24 0 40.5 -16t16.5 -41q0 -23 -16.5 -40t-40.5 -17z" />
    <glyph glyph-name="semicolon" unicode=";" horiz-adv-x="269" 
d="M76 -103l57 111l26 6q-4 -9 -11 -15.5t-18 -6.5q-19 0 -34.5 15.5t-15.5 38.5q0 24 17.5 41.5t41.5 17.5q23 0 40 -17.5t17 -41.5q0 -10 -3.5 -23.5t-14.5 -35.5l-59 -113zM135 305q-24 0 -40 17t-16 40q0 25 16 41t40 16q25 0 41 -16t16 -41q0 -23 -16 -40t-41 -17z" />
    <glyph glyph-name="less" unicode="&#x3c;" horiz-adv-x="537" 
d="M473 125l-409 185v50l409 185v-70l-353 -154v28l353 -154v-70z" />
    <glyph glyph-name="equal" unicode="=" horiz-adv-x="537" 
d="M64 417v63h409v-63h-409zM64 187v63h409v-63h-409z" />
    <glyph glyph-name="greater" unicode="&#x3e;" horiz-adv-x="537" 
d="M64 475v70l409 -185v-50l-409 -185v70l353 154v-28z" />
    <glyph glyph-name="question" unicode="?" horiz-adv-x="505" 
d="M224 209l-1 187h25q38 1 66.5 18.5t44.5 46.5t16 65q0 35 -15.5 63t-44.5 44t-69 16q-52 0 -88.5 -25t-58.5 -66l-52 44q28 53 80.5 84.5t121.5 31.5q60 0 104.5 -24t69.5 -66.5t25 -97.5q0 -52 -23 -94t-65 -69t-98 -34l29 32l-7 -156h-60zM253 -10q-24 0 -40 17t-16 40
q0 25 16 41.5t40 16.5q25 0 41 -16.5t16 -41.5q0 -23 -16 -40t-41 -17z" />
    <glyph glyph-name="at" unicode="@" horiz-adv-x="764" 
d="M385 -87q-67 0 -125.5 24.5t-102.5 68.5t-68.5 103t-24.5 127q0 70 25 129t70 103t104.5 68.5t127.5 24.5q91 0 160.5 -41t109 -113.5t39.5 -167.5q0 -42 -8.5 -75.5t-26.5 -63.5l-61 6q14 19 22 38t11.5 43t3.5 57q0 81 -30.5 139.5t-87 90t-131.5 31.5
q-77 0 -137 -33.5t-94.5 -94t-34.5 -142.5q0 -79 33.5 -139t91.5 -93t132 -33q56 0 99.5 15t76.5 45l41 -40q-44 -38 -98 -57.5t-117 -19.5zM367 92q-38 0 -70 19t-50.5 52t-18.5 73q0 42 18.5 75t50.5 52.5t70 19.5q50 0 81.5 -25.5t31.5 -67.5v-106q0 -41 -31 -66.5
t-82 -25.5zM370 142q41 0 65 26.5t24 68.5q0 44 -24 69.5t-64 25.5q-38 0 -63.5 -26t-25.5 -69q0 -42 25.5 -68.5t62.5 -26.5zM482 100v49h183v-49h-183zM461 100v72l10 69l-10 67v69h54v-277h-54z" />
    <glyph glyph-name="A" unicode="A" horiz-adv-x="690" 
d="M37 0l282 688h55l279 -688h-79l-243 608h29l-245 -608h-78zM166 179v65h360v-65h-360z" />
    <glyph glyph-name="B" unicode="B" horiz-adv-x="625" 
d="M135 0v65h218q68 0 107 38t39 95q0 37 -17 67t-48.5 47.5t-74.5 17.5h-224v64h213q56 0 88.5 30t32.5 85t-35 85t-94 30h-205v64h207q64 0 109 -23t68 -62t23 -88q0 -58 -30 -99.5t-88 -63.5l7 24q67 -21 104.5 -69t37.5 -114q0 -55 -26.5 -98.5t-77 -69t-121.5 -25.5
h-213zM88 0v688h73v-688h-73z" />
    <glyph glyph-name="C" unicode="C" horiz-adv-x="693" 
d="M400 -10q-74 0 -137.5 27t-110.5 76t-72.5 113.5t-25.5 138.5t25.5 138.5t72 112.5t109.5 75t136 27q79 0 141.5 -28t109.5 -77l-50 -50q-36 40 -87 62.5t-114 22.5q-58 0 -106.5 -21t-85 -59.5t-56 -90t-19.5 -112.5t20 -113t56 -90.5t85 -59.5t107 -21q66 0 117.5 23
t87.5 63l50 -51q-46 -49 -110 -77.5t-143 -28.5z" />
    <glyph glyph-name="D" unicode="D" horiz-adv-x="739" 
d="M133 0v68h202q81 0 143 35.5t97 98t35 143.5t-35 143t-97 97.5t-143 35.5h-200v67h202q75 0 138.5 -25.5t111 -72t73.5 -109t26 -137.5q0 -73 -26 -136t-73 -109.5t-110.5 -72.5t-137.5 -26h-206zM88 0v688h73v-688h-73z" />
    <glyph glyph-name="E" unicode="E" horiz-adv-x="589" 
d="M88 0v688h73v-688h-73zM136 0v67h405v-67h-405zM136 320v65h373v-65h-373zM136 621v67h399v-67h-399z" />
    <glyph glyph-name="F" unicode="F" horiz-adv-x="567" 
d="M88 0v688h73v-688h-73zM136 311v67h369v-67h-369zM136 621v67h386v-67h-386z" />
    <glyph glyph-name="G" unicode="G" horiz-adv-x="773" 
d="M399 -9q-73 0 -136 27t-110 75t-73 112.5t-26 139.5t26.5 139t73.5 112.5t111 75.5t139 27q83 0 152.5 -33t114.5 -93l-51 -51q-36 51 -92 78.5t-124 27.5q-81 0 -143 -36.5t-96.5 -100.5t-34.5 -147q0 -82 34.5 -146t95 -100.5t137.5 -36.5t133.5 31t87 90t31.5 142
l42 -31h-301v67h335v-11q0 -116 -41.5 -196t-114.5 -121t-170 -41z" />
    <glyph glyph-name="H" unicode="H" horiz-adv-x="700" 
d="M88 0v688h73v-688h-73zM539 0v688h73v-688h-73zM136 322v67h423v-67h-423z" />
    <glyph glyph-name="I" unicode="I" horiz-adv-x="249" 
d="M88 0v688h73v-688h-73z" />
    <glyph glyph-name="J" unicode="J" horiz-adv-x="495" 
d="M212 -10q-58 0 -101.5 22.5t-74.5 61.5l52 48q22 -30 52 -45.5t70 -15.5q36 0 66 15.5t48 48.5t18 83v480h74v-479q0 -69 -27.5 -118t-74 -75t-102.5 -26z" />
    <glyph glyph-name="K" unicode="K" horiz-adv-x="659" 
d="M524 0l-376 359l368 329h98l-392 -349v42l402 -381h-100zM88 0v688h73v-688h-73z" />
    <glyph glyph-name="L" unicode="L" horiz-adv-x="554" 
d="M88 0v688h73v-688h-73zM136 0v67h379v-67h-379z" />
    <glyph glyph-name="M" unicode="M" horiz-adv-x="836" 
d="M88 0v688h52l297 -487h-37l297 487h52v-688h-74v560l17 -4l-248 -407h-52l-248 407l17 4v-560h-73z" />
    <glyph glyph-name="N" unicode="N" horiz-adv-x="703" 
d="M88 0v688h52l21 -87v-601h-73zM564 0l-435 590l11 98l434 -590zM564 0l-22 83v605h74v-688h-52z" />
    <glyph glyph-name="O" unicode="O" horiz-adv-x="794" 
d="M398 -10q-73 0 -135.5 27.5t-109.5 76t-73.5 113t-26.5 138.5q0 75 26 139t73 112t109 75t135 27t135.5 -27t109.5 -75t73 -112.5t26 -139.5q0 -74 -26 -138.5t-72.5 -112.5t-108.5 -75.5t-135 -27.5zM396 61q78 0 138.5 37t95 101t34.5 146q0 61 -20 112.5t-56 90
t-84.5 59.5t-107.5 21q-77 0 -137.5 -36.5t-95 -100.5t-34.5 -146q0 -61 20 -113t56 -90.5t85 -59.5t106 -21z" />
    <glyph glyph-name="P" unicode="P" horiz-adv-x="608" 
d="M135 276v65h203q42 0 75.5 17t53 48.5t19.5 75.5t-19.5 75.5t-53 49t-75.5 17.5h-203v64h208q62 0 111 -25.5t77.5 -71.5t28.5 -109q0 -62 -28.5 -108.5t-77.5 -72t-111 -25.5h-208zM88 0v688h73v-688h-73z" />
    <glyph glyph-name="Q" unicode="Q" horiz-adv-x="814" 
d="M399 -10q-73 0 -136 27.5t-110 76t-73 113t-26 138.5q0 75 26 139t72.5 112t109 75t135.5 27t135.5 -27t109 -75t73 -112.5t26.5 -139.5q0 -74 -26 -138.5t-73 -112.5t-109 -75.5t-134 -27.5zM743 -49l-335 334l47 47l335 -334zM397 61q78 0 138 37t95 101t35 146
q0 61 -20 112.5t-56 90t-85 59.5t-107 21q-78 0 -138 -36.5t-94.5 -100.5t-34.5 -146q0 -61 20 -113t55.5 -90.5t84.5 -59.5t107 -21z" />
    <glyph glyph-name="R" unicode="R" horiz-adv-x="633" 
d="M135 308v62h200q68 0 104 34.5t36 92.5q0 56 -36 91.5t-104 35.5h-200v64h200q67 0 115 -24.5t73.5 -67.5t25.5 -98q0 -57 -25.5 -100t-73.5 -66.5t-115 -23.5h-200zM88 0v688h73v-688h-73zM504 0l-258 318l71 23l281 -341h-94z" />
    <glyph glyph-name="S" unicode="S" horiz-adv-x="554" 
d="M278 -10q-80 0 -138 30.5t-102 85.5l51 50q35 -49 81.5 -73t110.5 -24q66 0 107 30t41 83q0 41 -19 67.5t-49.5 43t-67.5 29.5t-73.5 27.5t-67.5 36.5t-49.5 56t-18.5 87q0 56 27 96t74 61.5t107 21.5q67 0 119.5 -26t87.5 -70l-50 -50q-32 38 -70 58t-89 20
q-60 0 -96 -28t-36 -78q0 -39 18.5 -63t49.5 -40t67.5 -28.5t73.5 -27.5t67.5 -38t49.5 -58.5t19 -90.5q0 -89 -60.5 -138.5t-164.5 -49.5z" />
    <glyph glyph-name="T" unicode="T" horiz-adv-x="632" 
d="M279 0v669h74v-669h-74zM37 621v67h558v-67h-558z" />
    <glyph glyph-name="U" unicode="U" horiz-adv-x="676" 
d="M339 -10q-75 0 -133.5 33.5t-92.5 92t-34 131.5v441h74v-437q0 -58 24 -101t66.5 -66t95.5 -23t94.5 23t66 65.5t24.5 100.5v438h73v-442q0 -73 -33.5 -131t-92 -91.5t-132.5 -33.5z" />
    <glyph glyph-name="V" unicode="V" horiz-adv-x="679" 
d="M311 0l-274 688h80l237 -607h-29l239 607h78l-276 -688h-55z" />
    <glyph glyph-name="W" unicode="W" horiz-adv-x="979" 
d="M261 0l-222 688h73l187 -592h-22l185 592h55l186 -592h-23l187 592h74l-223 -688h-54l-185 591h21l-185 -591h-54z" />
    <glyph glyph-name="X" unicode="X" horiz-adv-x="685" 
d="M561 0l-228 324h-13l-272 364h88l224 -303h13l275 -385h-87zM37 0l271 363l48 -44l-236 -319h-83zM379 335l-48 45l223 308h83z" />
    <glyph glyph-name="Y" unicode="Y" horiz-adv-x="659" 
d="M308 284l-273 404h86l227 -339h-36l229 339h83l-275 -404h-41zM293 0v337h74v-337h-74z" />
    <glyph glyph-name="Z" unicode="Z" horiz-adv-x="577" 
d="M43 49l402 590h87l-402 -590h-87zM43 0v49l63 18h418v-67h-481zM62 621v67h470v-49l-64 -18h-406z" />
    <glyph glyph-name="bracketleft" unicode="[" horiz-adv-x="335" 
d="M84 -96v804h61v-804h-61zM114 -96v56h181v-56h-181zM114 652v56h181v-56h-181z" />
    <glyph glyph-name="backslash" unicode="\" horiz-adv-x="380" 
d="M294 -40l-274 765h66l274 -765h-66z" />
    <glyph glyph-name="bracketright" unicode="]" horiz-adv-x="335" 
d="M190 -96v804h61v-804h-61zM40 -96v56h181v-56h-181zM40 652v56h181v-56h-181z" />
    <glyph glyph-name="asciicircum" unicode="^" horiz-adv-x="455" 
d="M333 457l-118 211h26l-119 -211h-62l143 251h48l144 -251h-62z" />
    <glyph glyph-name="underscore" unicode="_" horiz-adv-x="529" 
d="M40 -113v60h449v-60h-449z" />
    <glyph glyph-name="grave" unicode="`" horiz-adv-x="269" 
d="M197 538l-157 134l56 56l133 -158z" />
    <glyph glyph-name="a" unicode="a" horiz-adv-x="585" 
d="M275 -10q-67 0 -120 32.5t-83.5 87.5t-30.5 124q0 70 30.5 125.5t83.5 88t119 32.5q54 0 96.5 -21.5t69 -60t32.5 -89.5v-147q-6 -51 -32.5 -90t-69 -60.5t-95.5 -21.5zM286 57q73 0 117.5 49t44.5 129q0 53 -20.5 93.5t-57 63t-85.5 22.5q-50 0 -88.5 -23t-61 -63.5
t-22.5 -92.5t22.5 -92t61.5 -63t89 -23zM444 0v126l14 116l-14 113v115h70v-470h-70z" />
    <glyph glyph-name="b" unicode="b" horiz-adv-x="585" 
d="M314 -10q-54 0 -97 22t-70.5 60.5t-33.5 89.5v147q6 52 34 90.5t71.5 59.5t95.5 21q65 0 117 -32.5t82.5 -88t30.5 -125.5q0 -69 -30 -124t-82.5 -87.5t-117.5 -32.5zM71 0v708h70v-353l-14 -113l14 -116v-126h-70zM302 57q50 0 88 22.5t59.5 63t21.5 92.5q0 53 -21.5 93
t-59.5 63t-87 23t-86.5 -23t-58.5 -63t-21 -93q0 -52 21 -92.5t58 -63t86 -22.5z" />
    <glyph glyph-name="c" unicode="c" horiz-adv-x="491" 
d="M285 -10q-69 0 -124.5 32.5t-88 88.5t-32.5 125t32.5 124.5t88 87.5t124.5 32q53 0 99 -20t78 -56l-46 -47q-24 27 -58 41.5t-73 14.5q-50 0 -89 -23t-61 -62.5t-22 -91.5q0 -51 22 -91.5t61 -63.5t89 -23q40 0 74 14.5t58 41.5l47 -47q-33 -37 -79.5 -57t-99.5 -20z" />
    <glyph glyph-name="d" unicode="d" horiz-adv-x="585" 
d="M271 -10q-65 0 -117 32t-82.5 87.5t-30.5 124.5q0 70 30.5 125.5t82.5 88t117 32.5q53 0 96 -21t71.5 -59.5t33.5 -90.5v-147q-6 -51 -33.5 -89.5t-70.5 -60.5t-97 -22zM283 57q49 0 86 22.5t58 63t21 92.5q0 53 -21.5 93t-58.5 63t-86 23t-87 -23t-59.5 -63.5
t-21.5 -92.5t21.5 -92.5t60 -63t87.5 -22.5zM514 0h-70v126l14 116l-14 113v353h70v-708z" />
    <glyph glyph-name="e" unicode="e" horiz-adv-x="538" 
d="M288 -10q-71 0 -127 32t-88.5 88t-32.5 126q0 69 32 124.5t87 87.5t123 32q64 0 113.5 -29t78 -80.5t28.5 -118.5q0 -8 -1 -18.5t-4 -24.5h-407v60h369l-25 -22q1 52 -17.5 89.5t-53 58t-83.5 20.5q-51 0 -89 -22t-59.5 -61.5t-21.5 -93.5t22.5 -95t63 -64t93.5 -23
q43 0 79 15.5t61 46.5l45 -46q-33 -39 -81.5 -60.5t-104.5 -21.5z" />
    <glyph glyph-name="f" unicode="f" horiz-adv-x="395" 
d="M140 0v550q0 49 21.5 87t60 59.5t87.5 21.5q38 0 67 -13.5t53 -37.5l-46 -46q-16 16 -33.5 23.5t-40.5 7.5q-47 0 -72.5 -27.5t-25.5 -76.5v-548h-71zM22 407v63h346v-63h-346z" />
    <glyph glyph-name="g" unicode="g" horiz-adv-x="582" 
d="M265 -208q-71 0 -126.5 26.5t-89.5 74.5l46 46q28 -38 71 -59t101 -21q80 0 127.5 43t47.5 117v117l14 107l-14 106v121h70v-451q0 -68 -31 -119t-86.5 -79.5t-129.5 -28.5zM270 5q-65 0 -117 31t-82 85t-30 122t29.5 121.5t81.5 84.5t117 31q55 0 98.5 -21t70 -59.5
t32.5 -90.5v-133q-6 -51 -33 -89.5t-70 -60t-97 -21.5zM283 72q49 0 85.5 21t57 59.5t20.5 90.5q0 51 -20.5 89t-57.5 60t-86 22t-87.5 -22t-60 -60t-21.5 -89q0 -50 22 -89t60 -60.5t88 -21.5z" />
    <glyph glyph-name="h" unicode="h" horiz-adv-x="544" 
d="M413 0v276q0 62 -36.5 100.5t-96.5 38.5q-41 0 -72 -18t-49 -49t-18 -71l-32 18q0 53 25 95t67.5 66t97.5 24q54 0 96 -24.5t65.5 -67.5t23.5 -100v-288h-71zM71 0v708h70v-708h-70z" />
    <glyph glyph-name="i" unicode="i" horiz-adv-x="213" 
d="M71 0v470h71v-470h-71zM106 572q-20 0 -34 14.5t-14 34.5q0 21 14 35t34 14q22 0 35.5 -14t13.5 -35q0 -20 -13.5 -34.5t-35.5 -14.5z" />
    <glyph glyph-name="j" unicode="j" horiz-adv-x="218" 
d="M-2 -208q-41 0 -71 14t-53 40l46 46q15 -18 33.5 -26t41.5 -8q34 0 58 20t24 63v529h70v-528q0 -49 -20.5 -82.5t-54.5 -50.5t-74 -17zM112 572q-20 0 -34 14.5t-14 34.5q0 21 14 35t34 14q22 0 35.5 -14t13.5 -35q0 -20 -13.5 -34.5t-35.5 -14.5z" />
    <glyph glyph-name="k" unicode="k" horiz-adv-x="484" 
d="M374 0l-240 241l236 229h87l-257 -247l3 40l264 -263h-93zM71 0v708h70v-708h-70z" />
    <glyph glyph-name="l" unicode="l" horiz-adv-x="212" 
d="M71 0v708h70v-708h-70z" />
    <glyph glyph-name="m" unicode="m" horiz-adv-x="849" 
d="M71 0v470h70v-470h-70zM394 0v288q0 58 -35 92.5t-88 34.5q-36 0 -65.5 -15.5t-47 -43.5t-17.5 -67l-32 13q0 54 24 94t64.5 62t91.5 22q50 0 89.5 -22t63 -62t23.5 -95v-301h-71zM718 0v288q0 58 -35 92.5t-89 34.5q-35 0 -64.5 -15.5t-47 -43.5t-17.5 -67l-42 13
q3 54 28.5 94t67 62t91.5 22t90.5 -22t64 -62t23.5 -95v-301h-70z" />
    <glyph glyph-name="n" unicode="n" horiz-adv-x="544" 
d="M413 0v276q0 62 -36.5 100.5t-96.5 38.5q-41 0 -72 -18t-49 -49t-18 -71l-32 18q0 53 25 95t67.5 66t97.5 24q54 0 96 -26t65.5 -70t23.5 -96v-288h-71zM71 0v470h70v-470h-70z" />
    <glyph glyph-name="o" unicode="o" horiz-adv-x="568" 
d="M284 -10q-68 0 -123.5 33t-88 89t-32.5 125q0 68 32.5 123t88 87.5t123.5 32.5q69 0 124 -32t87.5 -87.5t32.5 -123.5q0 -70 -32.5 -125.5t-87.5 -88.5t-124 -33zM284 58q50 0 88.5 23t61 64t22.5 92t-22.5 90.5t-61 62.5t-88.5 23q-49 0 -88 -23t-61 -62.5t-22 -90.5
q0 -52 22 -92.5t61 -63.5t88 -23z" />
    <glyph glyph-name="p" unicode="p" horiz-adv-x="585" 
d="M314 -10q-54 0 -97 22t-70.5 60.5t-33.5 89.5v147q6 52 34 90.5t71.5 59.5t95.5 21q65 0 117 -32.5t82.5 -88t30.5 -125.5q0 -69 -30 -124t-82.5 -87.5t-117.5 -32.5zM71 -198v668h70v-120l-14 -114l14 -115v-319h-70zM302 57q50 0 88 22.5t59.5 63t21.5 92.5
q0 53 -21.5 93t-59.5 63t-87 23t-86.5 -23t-58.5 -63t-21 -93q0 -52 21 -92.5t58 -63t86 -22.5z" />
    <glyph glyph-name="q" unicode="q" horiz-adv-x="585" 
d="M275 -10q-66 0 -119 32.5t-84 87.5t-31 124q0 70 31 125.5t83.5 88t118.5 32.5q54 0 96.5 -21.5t69.5 -60t32 -89.5v-147q-6 -51 -32.5 -90t-68.5 -60.5t-96 -21.5zM286 57q74 0 118 49t44 129q0 53 -20 93.5t-57 63t-86 22.5q-50 0 -88.5 -23t-60.5 -63.5t-22 -92.5
t22 -92t61 -63t89 -23zM444 -198v319l14 115l-14 114v120h71v-668h-71z" />
    <glyph glyph-name="r" unicode="r" horiz-adv-x="414" 
d="M71 0v470h70v-470h-70zM141 274l-29 13q0 89 43.5 141t119.5 52q35 0 64 -12.5t54 -39.5l-46 -49q-17 19 -37.5 27t-46.5 8q-54 0 -88 -35.5t-34 -104.5z" />
    <glyph glyph-name="s" unicode="s" horiz-adv-x="424" 
d="M215 -10q-38 0 -73 10.5t-63.5 29.5t-49.5 45l45 46q28 -34 63.5 -50.5t79.5 -16.5q47 0 73.5 18t26.5 50q0 30 -19 47t-48.5 27t-62.5 19.5t-63 24t-48.5 40.5t-18.5 68q0 40 19.5 69.5t56 46t86.5 16.5q53 0 96 -19t69 -56l-45 -45q-21 27 -52.5 41.5t-70.5 14.5
q-45 0 -68.5 -17.5t-23.5 -45.5q0 -27 19 -42.5t48.5 -25t62.5 -19t63 -25t48.5 -42t18.5 -71.5q0 -63 -45.5 -100.5t-123.5 -37.5z" />
    <glyph glyph-name="t" unicode="t" horiz-adv-x="357" 
d="M144 0v668h70v-668h-70zM25 407v63h307v-63h-307z" />
    <glyph glyph-name="u" unicode="u" horiz-adv-x="515" 
d="M257 -10q-57 0 -102 26.5t-70.5 72.5t-25.5 108v273h71v-270q0 -43 15.5 -75t44.5 -50t67 -18q59 0 93.5 39t34.5 104v270h70v-273q0 -61 -25 -108t-70 -73t-103 -26z" />
    <glyph glyph-name="v" unicode="v" horiz-adv-x="512" 
d="M235 0l-217 470h78l183 -411h-44l184 411h76l-219 -470h-41z" />
    <glyph glyph-name="w" unicode="w" horiz-adv-x="746" 
d="M202 0l-181 470h73l143 -390l-26 -1l142 391h41l142 -391l-26 1l142 390h74l-182 -470h-41l-145 385h30l-144 -385h-42z" />
    <glyph glyph-name="x" unicode="x" horiz-adv-x="499" 
d="M391 0l-157 214l-15 12l-189 244h87l146 -192l14 -12l200 -266h-86zM22 0l198 258l39 -52l-154 -206h-83zM282 227l-40 51l144 192h83z" />
    <glyph glyph-name="y" unicode="y" horiz-adv-x="510" 
d="M228 -2l-206 472h77l166 -394h-29l175 394h78l-221 -472h-40zM100 -198l129 267l39 -71l-91 -196h-77z" />
    <glyph glyph-name="z" unicode="z" horiz-adv-x="442" 
d="M30 39l297 393h83l-297 -393h-83zM30 0v39l61 25h313v-64h-374zM47 407v63h363v-38l-66 -25h-297z" />
    <glyph glyph-name="braceleft" unicode="{" horiz-adv-x="320" 
d="M235 -96q-72 0 -110 44t-28 134l13 118q5 42 -7.5 61.5t-39.5 19.5h-28v54h28q27 0 39.5 19.5t7.5 61.5l-13 115q-10 89 28 133t110 44h45v-56h-37q-48 0 -70 -26.5t-15 -90.5l11 -110q4 -36 -2.5 -62.5t-26 -43.5t-55.5 -26v27q36 -7 55.5 -24t26 -43.5t2.5 -62.5
l-11 -112q-7 -64 15 -91t70 -27h37v-56h-45z" />
    <glyph glyph-name="bar" unicode="|" horiz-adv-x="275" 
d="M105 -130v888h65v-888h-65z" />
    <glyph glyph-name="braceright" unicode="}" horiz-adv-x="320" 
d="M85 -96h-45v56h37q48 0 70 27t15 91l-11 112q-3 36 3 62.5t25.5 43.5t55.5 24v-27q-36 9 -55.5 26t-25.5 43.5t-3 62.5l11 110q8 64 -14.5 90.5t-70.5 26.5h-37v56h45q72 0 110 -44t28 -133l-13 -115q-5 -42 7.5 -61.5t39.5 -19.5h28v-54h-28q-27 0 -39.5 -19.5
t-7.5 -61.5l13 -118q10 -90 -28 -134t-110 -44z" />
    <glyph glyph-name="asciitilde" unicode="~" horiz-adv-x="537" 
d="M357 284q-26 0 -47 6.5t-40 15.5t-39 16t-45 7q-29 0 -49.5 -10.5t-36.5 -29.5l-41 40q22 31 52.5 48.5t72.5 17.5q29 0 51 -7t41 -16t38 -15.5t42 -6.5q26 0 46 10t36 29l40 -39q-21 -31 -51 -48.5t-70 -17.5z" />
    <glyph glyph-name="uni00A0" unicode="&#xa0;" horiz-adv-x="215" 
 />
    <glyph glyph-name="exclamdown" unicode="&#xa1;" horiz-adv-x="264" 
d="M94 -198l11 460h55l11 -460h-77zM131 366q-24 0 -40 16.5t-16 40.5t16 40.5t40 16.5q25 0 41 -16.5t16 -40.5t-16 -40.5t-41 -16.5z" />
    <glyph glyph-name="cent" unicode="&#xa2;" horiz-adv-x="514" 
d="M295 99q-69 0 -124.5 32.5t-87.5 88.5t-32 125t32 124.5t87.5 87.5t124.5 32q53 0 99 -20t79 -56l-47 -47q-24 27 -57.5 41.5t-73.5 14.5q-49 0 -88 -23t-61.5 -62.5t-22.5 -91.5q0 -51 22.5 -91.5t61.5 -63.5t88 -23q40 0 74 14.5t59 41.5l46 -47q-33 -37 -79.5 -57
t-99.5 -20zM258 10v668h53v-668h-53z" />
    <glyph glyph-name="sterling" unicode="&#xa3;" horiz-adv-x="617" 
d="M169 5v482q0 67 27.5 114t74 72t104.5 25q69 0 112 -27t68 -63l-49 -49q-24 32 -54 51.5t-79 19.5q-36 0 -66 -16t-47 -46.5t-17 -74.5v-488h-74zM70 0v67h471v-67h-471zM70 301v60h380v-60h-380z" />
    <glyph glyph-name="currency" unicode="&#xa4;" horiz-adv-x="529" 
d="M264 147q-55 0 -100.5 26.5t-72 71.5t-26.5 100q0 56 26.5 100t71.5 70.5t101 26.5t101.5 -26t72 -70.5t26.5 -100.5t-26.5 -101t-71.5 -71t-102 -26zM80 123l-38 37l83 83l38 -37zM264 211q38 0 66.5 17.5t45.5 48t17 69.5q0 38 -17 67.5t-45.5 46.5t-66.5 17
q-37 0 -66 -17t-45.5 -47t-16.5 -68t16.5 -68.5t46 -48t65.5 -17.5zM449 123l-83 83l37 37l83 -83zM125 446l-83 83l38 38l83 -83zM403 446l-37 38l83 83l37 -38z" />
    <glyph glyph-name="yen" unicode="&#xa5;" horiz-adv-x="647" 
d="M302 279l-235 409h85l190 -351h-36l191 351h84l-238 -409h-41zM287 0v327h74v-327h-74zM234 462l24 -59h-169v59h145zM89 228v59h469v-59h-469zM391 403l29 59h138v-59h-167z" />
    <glyph glyph-name="brokenbar" unicode="&#xa6;" horiz-adv-x="275" 
d="M105 391v367h65v-367h-65zM105 -130v368h65v-368h-65z" />
    <glyph glyph-name="section" unicode="&#xa7;" horiz-adv-x="520" 
d="M267 140l1 53q53 0 83.5 22.5t30.5 60.5q0 37 -20.5 57.5t-53.5 32.5t-70 23t-69.5 28t-53.5 47t-21 81q0 46 21.5 80.5t61 53.5t93.5 19q59 0 106 -23t74 -65l-46 -47q-23 34 -59 51.5t-78 17.5q-51 0 -77.5 -23.5t-26.5 -58.5t20.5 -55t53.5 -32.5t70 -23.5t69.5 -28.5
t53.5 -47.5t21 -81q0 -43 -24 -75t-65 -49.5t-95 -17.5zM250 -121q-59 0 -106 23.5t-74 64.5l46 47q23 -33 59 -50.5t78 -17.5q51 0 77.5 23.5t26.5 58.5t-20.5 54.5t-53.5 32t-70 24t-69.5 29t-53.5 47.5t-21 80q0 45 24 76.5t65.5 49t94.5 17.5l-1 -53q-53 0 -83.5 -23
t-30.5 -60t20.5 -57.5t53.5 -32.5t70 -23.5t69.5 -28.5t53.5 -47t21 -81q0 -45 -21.5 -79.5t-60.5 -54t-94 -19.5z" />
    <glyph glyph-name="dieresis" unicode="&#xa8;" horiz-adv-x="407" 
d="M108 552q-20 0 -34 14.5t-14 34.5q0 21 14 35t34 14q22 0 35.5 -14t13.5 -35q0 -20 -13.5 -34.5t-35.5 -14.5zM298 552q-20 0 -34 14.5t-14 34.5q0 21 14 35t34 14q22 0 35.5 -14t13.5 -35q0 -20 -13.5 -34.5t-35.5 -14.5z" />
    <glyph glyph-name="copyright" unicode="&#xa9;" horiz-adv-x="842" 
d="M422 -10q-77 0 -141.5 27t-111.5 76t-72.5 113.5t-25.5 138.5q0 75 25.5 139t72 112t110.5 75t141 27t142 -27t111.5 -75t72 -112.5t25.5 -139.5q0 -74 -25.5 -138.5t-72.5 -113t-110.5 -75.5t-140.5 -27zM427 148q-55 0 -100 26t-71 71t-26 100q0 56 26 100t71.5 70
t100.5 26q42 0 79 -15.5t64 -45.5l-42 -44q-18 21 -44 32t-57 11q-36 0 -66 -17t-47 -47t-17 -70t17 -70.5t47 -48t66 -17.5q32 0 58 11.5t45 32.5l41 -44q-26 -29 -64 -45t-81 -16zM420 28q92 0 162 42t109.5 114t39.5 161t-39.5 160t-109.5 113t-162 42t-162 -41.5
t-108.5 -112.5t-38.5 -161q0 -89 39 -161t109 -114t161 -42z" />
    <glyph glyph-name="ordfeminine" unicode="&#xaa;" horiz-adv-x="354" 
d="M163 398q-40 0 -72 19.5t-50.5 52.5t-18.5 75q0 43 18 76.5t50 53t72 19.5q46 0 78 -26.5t38 -68.5v-106q-6 -41 -37 -68t-78 -27zM173 450q39 0 63.5 26.5t24.5 69.5t-24.5 69.5t-64.5 26.5t-66 -27t-26 -69t26 -69t67 -27zM258 404v76l10 70l-10 68v70h56v-284h-56z
" />
    <glyph glyph-name="guillemotleft" unicode="&#xab;" horiz-adv-x="441" 
d="M157 82l-114 156l114 156h73l-118 -156l118 -156h-73zM326 82l-114 156l114 156h73l-117 -156l117 -156h-73z" />
    <glyph glyph-name="logicalnot" unicode="&#xac;" horiz-adv-x="537" 
d="M64 352v63h409v-63h-409zM408 402h65v-222h-65v222z" />
    <glyph glyph-name="registered" unicode="&#xae;" horiz-adv-x="578" 
d="M290 268q-63 0 -111 29t-75.5 78t-27.5 109q0 61 27 109t74.5 76.5t110.5 28.5t111.5 -28.5t75.5 -77t27 -108.5q0 -61 -27 -110t-75 -77.5t-110 -28.5zM218 373v227h31v-227h-31zM352 373l-86 106h37l87 -106h-38zM288 294q56 0 97.5 25.5t65.5 68t24 96.5
q0 53 -24 95.5t-65.5 67.5t-97.5 25q-54 0 -95.5 -25t-65 -67.5t-23.5 -95.5q0 -54 23.5 -96.5t65 -68t95.5 -25.5zM233 475v28h66q20 0 30 9.5t10 24.5q0 14 -10 24.5t-30 10.5h-66v28h67q32 0 51 -17.5t19 -44.5q0 -29 -19 -46t-51 -17h-67z" />
    <glyph glyph-name="macron" unicode="&#xaf;" horiz-adv-x="423" 
d="M40 630h343v-59h-343v59z" />
    <glyph glyph-name="degree" unicode="&#xb0;" horiz-adv-x="396" 
d="M198 394q-44 0 -78.5 19.5t-54 54t-19.5 77.5q0 44 19.5 78.5t54 54.5t78.5 20t78.5 -20t54.5 -54.5t20 -78.5q0 -43 -20 -77.5t-54.5 -54t-78.5 -19.5zM199 450q39 0 65 27.5t26 68.5q0 42 -25.5 69t-65.5 27q-41 0 -66.5 -27t-25.5 -69q0 -41 26 -68.5t66 -27.5z" />
    <glyph glyph-name="plusminus" unicode="&#xb1;" horiz-adv-x="537" 
d="M64 362v63h409v-63h-409zM236 553h65v-318h-65v318zM64 115v63h409v-63h-409z" />
    <glyph glyph-name="uni00B2" unicode="&#xb2;" horiz-adv-x="333" 
d="M40 375l134 137q26 26 34.5 41.5t8.5 32.5q0 24 -15.5 38.5t-42.5 14.5q-23 0 -41 -12t-35 -37l-42 38q21 33 52.5 49.5t70.5 16.5q53 0 84 -28.5t31 -78.5q0 -30 -13 -54.5t-47 -58.5l-101 -100zM40 340v35l52 18h195v-53h-247z" />
    <glyph glyph-name="uni00B3" unicode="&#xb3;" horiz-adv-x="332" 
d="M151 334q-36 0 -65.5 13.5t-49.5 36.5l40 40q11 -16 31.5 -26t42.5 -10q31 0 50.5 17t19.5 46t-20 45.5t-54 16.5q-8 0 -18 -1t-18 -3l26 34q17 6 27.5 8t19.5 2q42 0 70.5 -28.5t28.5 -75.5q0 -51 -36 -83t-95 -32zM110 509v35l97 110l69 -1l-100 -111zM56 635v53h220
v-35l-49 -18h-171z" />
    <glyph glyph-name="acute" unicode="&#xb4;" horiz-adv-x="269" 
d="M72 543l-32 32l133 158l56 -56z" />
    <glyph glyph-name="uni00B5" unicode="&#xb5;" horiz-adv-x="583" 
d="M105 -185v655h71v-655h-71zM312 -10q-81 0 -127 52t-46 134l37 18q0 -65 35 -101t90 -36t92.5 35t37.5 102v276h70v-283q0 -58 -24.5 -102.5t-67 -69.5t-97.5 -25z" />
    <glyph glyph-name="paragraph" unicode="&#xb6;" horiz-adv-x="694" 
d="M374 276h-94q-61 0 -110 25.5t-77.5 71.5t-28.5 109t28.5 109t77.5 71.5t110 25.5h358v-64h-352q-43 0 -76.5 -17.5t-52.5 -49t-19 -75.5t19 -75.5t52.5 -48.5t76.5 -17h88v-65zM401 -100h-64v788h64v-788zM549 -100h-64v788h64v-788z" />
    <glyph glyph-name="periodcentered" unicode="&#xb7;" horiz-adv-x="113" 
d="M57 304q-25 0 -41 17t-16 41t16 40.5t41 16.5q24 0 40 -16.5t16 -40.5t-16 -41t-40 -17z" />
    <glyph glyph-name="cedilla" unicode="&#xb8;" horiz-adv-x="268" 
d="M131 -208q-33 0 -62 10t-53 28l35 39q14 -12 33 -19.5t43 -7.5q32 0 48.5 10.5t16.5 27.5q0 18 -17 29t-50 11h-36l28 91h58l-23 -70l-27 23q61 1 95.5 -22.5t34.5 -62.5t-33.5 -63t-90.5 -24z" />
    <glyph glyph-name="uni00B9" unicode="&#xb9;" horiz-adv-x="254" 
d="M106 340v348h63v-348h-63zM36 635v53h128v-53h-128z" />
    <glyph glyph-name="ordmasculine" unicode="&#xba;" horiz-adv-x="344" 
d="M172 397q-42 0 -76.5 19.5t-54.5 53.5t-20 76t20 75.5t54.5 53t76.5 19.5q43 0 76.5 -19.5t54 -53t20.5 -75.5t-20 -76t-54 -53.5t-77 -19.5zM172 450q41 0 67 27.5t26 69.5q0 41 -26.5 67.5t-66.5 26.5t-66.5 -27t-26.5 -68q0 -42 26.5 -69t66.5 -27z" />
    <glyph glyph-name="guillemotright" unicode="&#xbb;" horiz-adv-x="441" 
d="M211 82l118 156l-118 156h73l114 -156l-114 -156h-73zM42 82l117 156l-117 156h73l114 -156l-114 -156h-73z" />
    <glyph glyph-name="onequarter" unicode="&#xbc;" horiz-adv-x="663" 
d="M271 300l31 -28l-198 -285l-62 58zM360 391l-31 27l198 285l62 -57zM145 340v348h62v-348h-62zM74 635v53h128v-53h-128zM341 104l119 234h68l-121 -234h-66zM341 69v35l19 18h256v-53h-275zM513 -10v219h62v-219h-62z" />
    <glyph glyph-name="onehalf" unicode="&#xbd;" horiz-adv-x="656" 
d="M271 300l31 -28l-198 -285l-62 58zM360 391l-31 27l198 285l62 -57zM145 340v348h62v-348h-62zM74 635v53h128v-53h-128zM353 25l134 137q25 26 33.5 41.5t8.5 32.5q0 24 -15.5 38.5t-41.5 14.5q-23 0 -41.5 -12t-35.5 -37l-42 38q22 33 53 49.5t70 16.5q53 0 84.5 -28.5
t31.5 -78.5q0 -30 -13 -54.5t-47 -58.5l-101 -100zM353 -10v35l52 18h195v-53h-247z" />
    <glyph glyph-name="threequarters" unicode="&#xbe;" horiz-adv-x="656" 
d="M279 302l31 -25l-188 -290l-62 58zM393 388l-31 25l188 290l62 -57zM169 334q-36 0 -65.5 13.5t-49.5 36.5l40 40q11 -16 31.5 -26t42.5 -10q31 0 50.5 17t19.5 46t-20 45.5t-54 16.5q-8 0 -18 -1t-18 -3l26 34q17 6 27.5 8t19.5 2q42 0 70.5 -28.5t28.5 -75.5
q0 -51 -36 -83t-95 -32zM128 509v35l97 110l69 -1l-100 -111zM74 635v53h220v-35l-49 -18h-171zM321 104l118 234h69l-121 -234h-66zM321 69v35l19 18h256v-53h-275zM493 -10v219h62v-219h-62z" />
    <glyph glyph-name="questiondown" unicode="&#xbf;" horiz-adv-x="494" 
d="M255 -208q-58 0 -102.5 25t-69.5 68t-25 97q0 55 23.5 96t65.5 67t98 32l-29 -32l6 117h60l2 -147l-26 -1q-56 -1 -91.5 -35.5t-35.5 -92.5q0 -35 16 -63.5t44.5 -45t66.5 -16.5q53 0 89 25t58 67l52 -45q-28 -52 -80 -84t-122 -32zM253 366q-24 0 -40 16.5t-16 40.5
q0 25 16 41t40 16q25 0 41 -16t16 -41q0 -24 -16 -40.5t-41 -16.5z" />
    <glyph glyph-name="Agrave" unicode="&#xc0;" horiz-adv-x="690" 
d="M37 0l282 688h55l279 -688h-79l-243 608h29l-245 -608h-78zM166 179v65h360v-65h-360zM385 756l-157 134l56 56l133 -158z" />
    <glyph glyph-name="Aacute" unicode="&#xc1;" horiz-adv-x="690" 
d="M37 0l282 688h55l279 -688h-79l-243 608h29l-245 -608h-78zM166 179v65h360v-65h-360zM283 761l-32 32l133 158l56 -56z" />
    <glyph glyph-name="Acircumflex" unicode="&#xc2;" horiz-adv-x="690" 
d="M37 0l282 688h55l279 -688h-79l-243 608h29l-245 -608h-78zM166 179v65h360v-65h-360zM212 760l-32 32l137 154h56l137 -154l-32 -32l-156 136l47 -1z" />
    <glyph glyph-name="Atilde" unicode="&#xc3;" horiz-adv-x="690" 
d="M37 0l282 688h55l279 -688h-79l-243 608h29l-245 -608h-78zM166 179v65h360v-65h-360zM419 766q-32 0 -54 11.5t-42.5 22.5t-45.5 11q-27 0 -42 -10t-28 -28l-39 38q22 27 46.5 44t61.5 17q33 0 55.5 -11t42.5 -22.5t44 -11.5t39 9.5t27 27.5l39 -37q-21 -28 -45.5 -44.5
t-58.5 -16.5z" />
    <glyph glyph-name="Adieresis" unicode="&#xc4;" horiz-adv-x="690" 
d="M37 0l282 688h55l279 -688h-79l-243 608h29l-245 -608h-78zM166 179v65h360v-65h-360zM250 770q-20 0 -34 14.5t-14 34.5q0 21 14 35t34 14q22 0 35.5 -14t13.5 -35q0 -20 -13.5 -34.5t-35.5 -14.5zM440 770q-20 0 -34 14.5t-14 34.5q0 21 14 35t34 14q22 0 35.5 -14
t13.5 -35q0 -20 -13.5 -34.5t-35.5 -14.5z" />
    <glyph glyph-name="Aring" unicode="&#xc5;" horiz-adv-x="690" 
d="M37 0l282 688h55l279 -688h-79l-243 608h29l-245 -608h-78zM166 179v65h360v-65h-360zM346 660q-33 0 -59 15t-41 40.5t-15 57.5t15 57.5t41 40.5t59 15q32 0 57.5 -15t40 -40.5t14.5 -57.5t-14.5 -57.5t-39.5 -40.5t-58 -15zM347 713q23 0 40 17t17 43t-17 43.5
t-40 17.5q-28 0 -44.5 -17.5t-16.5 -43.5q0 -25 16.5 -42.5t44.5 -17.5z" />
    <glyph glyph-name="AE" unicode="&#xc6;" horiz-adv-x="965" 
d="M37 0l282 688h230v-67h-184l-250 -621h-78zM173 254v64h352v-64h-352zM545 0v67h371v-67h-371zM496 0v688h74v-688h-74zM542 320v65h342v-65h-342zM545 621v67h366v-67h-366z" />
    <glyph glyph-name="Ccedilla" unicode="&#xc7;" horiz-adv-x="693" 
d="M400 -10q-74 0 -137.5 27t-110.5 76t-72.5 113.5t-25.5 138.5t25.5 138.5t72 112.5t109.5 75t136 27q79 0 141.5 -28t109.5 -77l-50 -50q-36 40 -87 62.5t-114 22.5q-58 0 -106.5 -21t-85 -59.5t-56 -90t-19.5 -112.5t20 -113t56 -90.5t85 -59.5t107 -21q66 0 117.5 23
t87.5 63l50 -51q-46 -49 -110 -77.5t-143 -28.5zM368 -208q-33 0 -62 10t-53 28l35 39q14 -12 33 -19.5t43 -7.5q32 0 48.5 10.5t16.5 27.5q0 18 -17 29t-50 11h-36l28 91h58l-23 -70l-27 23q61 1 95.5 -22.5t34.5 -62.5t-33.5 -63t-90.5 -24z" />
    <glyph glyph-name="Egrave" unicode="&#xc8;" horiz-adv-x="589" 
d="M88 0v688h73v-688h-73zM136 0v67h405v-67h-405zM136 320v65h373v-65h-373zM136 621v67h399v-67h-399zM356 756l-157 134l56 56l133 -158z" />
    <glyph glyph-name="Eacute" unicode="&#xc9;" horiz-adv-x="589" 
d="M88 0v688h73v-688h-73zM136 0v67h405v-67h-405zM136 320v65h373v-65h-373zM136 621v67h399v-67h-399zM254 761l-32 32l133 158l56 -56z" />
    <glyph glyph-name="Ecircumflex" unicode="&#xca;" horiz-adv-x="589" 
d="M88 0v688h73v-688h-73zM136 0v67h405v-67h-405zM136 320v65h373v-65h-373zM136 621v67h399v-67h-399zM183 760l-32 32l137 154h56l137 -154l-32 -32l-156 136l47 -1z" />
    <glyph glyph-name="Edieresis" unicode="&#xcb;" horiz-adv-x="589" 
d="M88 0v688h73v-688h-73zM136 0v67h405v-67h-405zM136 320v65h373v-65h-373zM136 621v67h399v-67h-399zM221 770q-20 0 -34 14.5t-14 34.5q0 21 14 35t34 14q22 0 35.5 -14t13.5 -35q0 -20 -13.5 -34.5t-35.5 -14.5zM411 770q-20 0 -34 14.5t-14 34.5q0 21 14 35t34 14
q22 0 35.5 -14t13.5 -35q0 -20 -13.5 -34.5t-35.5 -14.5z" />
    <glyph glyph-name="Igrave" unicode="&#xcc;" horiz-adv-x="249" 
d="M88 0v688h73v-688h-73zM164 756l-157 134l56 56l133 -158z" />
    <glyph glyph-name="Iacute" unicode="&#xcd;" horiz-adv-x="249" 
d="M88 0v688h73v-688h-73zM62 761l-32 32l133 158l56 -56z" />
    <glyph glyph-name="Icircumflex" unicode="&#xce;" horiz-adv-x="249" 
d="M88 0v688h73v-688h-73zM-8 760l-32 32l137 154h56l137 -154l-32 -32l-156 136l47 -1z" />
    <glyph glyph-name="Idieresis" unicode="&#xcf;" horiz-adv-x="249" 
d="M88 0v688h73v-688h-73zM29 770q-20 0 -34 14.5t-14 34.5q0 21 14 35t34 14q22 0 35.5 -14t13.5 -35q0 -20 -13.5 -34.5t-35.5 -14.5zM219 770q-20 0 -34 14.5t-14 34.5q0 21 14 35t34 14q22 0 35.5 -14t13.5 -35q0 -20 -13.5 -34.5t-35.5 -14.5z" />
    <glyph glyph-name="Eth" unicode="&#xd0;" horiz-adv-x="749" 
d="M19 381h362v-61h-362v61zM143 0v68h202q81 0 143 35.5t97 98t35 143.5t-35 143t-97 97.5t-143 35.5h-200v67h202q75 0 138.5 -25.5t111 -72t73.5 -109t26 -137.5q0 -73 -26 -136t-73 -109.5t-110.5 -72.5t-137.5 -26h-206zM98 0v688h73v-688h-73z" />
    <glyph glyph-name="Ntilde" unicode="&#xd1;" horiz-adv-x="703" 
d="M88 0v688h52l21 -87v-601h-73zM564 0l-435 590l11 98l434 -590zM564 0l-22 83v605h74v-688h-52zM426 766q-32 0 -54 11.5t-42.5 22.5t-45.5 11q-27 0 -42 -10t-28 -28l-39 38q22 27 46.5 44t61.5 17q33 0 55.5 -11t42.5 -22.5t44 -11.5t39 9.5t27 27.5l39 -37
q-21 -28 -45.5 -44.5t-58.5 -16.5z" />
    <glyph glyph-name="Ograve" unicode="&#xd2;" horiz-adv-x="794" 
d="M398 -10q-73 0 -135.5 27.5t-109.5 76t-73.5 113t-26.5 138.5q0 75 26 139t73 112t109 75t135 27t135.5 -27t109.5 -75t73 -112.5t26 -139.5q0 -74 -26 -138.5t-72.5 -112.5t-108.5 -75.5t-135 -27.5zM396 61q78 0 138.5 37t95 101t34.5 146q0 61 -20 112.5t-56 90
t-84.5 59.5t-107.5 21q-77 0 -137.5 -36.5t-95 -100.5t-34.5 -146q0 -61 20 -113t56 -90.5t85 -59.5t106 -21zM437 756l-157 134l56 56l133 -158z" />
    <glyph glyph-name="Oacute" unicode="&#xd3;" horiz-adv-x="794" 
d="M398 -10q-73 0 -135.5 27.5t-109.5 76t-73.5 113t-26.5 138.5q0 75 26 139t73 112t109 75t135 27t135.5 -27t109.5 -75t73 -112.5t26 -139.5q0 -74 -26 -138.5t-72.5 -112.5t-108.5 -75.5t-135 -27.5zM396 61q78 0 138.5 37t95 101t34.5 146q0 61 -20 112.5t-56 90
t-84.5 59.5t-107.5 21q-77 0 -137.5 -36.5t-95 -100.5t-34.5 -146q0 -61 20 -113t56 -90.5t85 -59.5t106 -21zM335 761l-32 32l133 158l56 -56z" />
    <glyph glyph-name="Ocircumflex" unicode="&#xd4;" horiz-adv-x="794" 
d="M398 -10q-73 0 -135.5 27.5t-109.5 76t-73.5 113t-26.5 138.5q0 75 26 139t73 112t109 75t135 27t135.5 -27t109.5 -75t73 -112.5t26 -139.5q0 -74 -26 -138.5t-72.5 -112.5t-108.5 -75.5t-135 -27.5zM396 61q78 0 138.5 37t95 101t34.5 146q0 61 -20 112.5t-56 90
t-84.5 59.5t-107.5 21q-77 0 -137.5 -36.5t-95 -100.5t-34.5 -146q0 -61 20 -113t56 -90.5t85 -59.5t106 -21zM264 760l-32 32l137 154h56l137 -154l-32 -32l-156 136l47 -1z" />
    <glyph glyph-name="Otilde" unicode="&#xd5;" horiz-adv-x="794" 
d="M398 -10q-73 0 -135.5 27.5t-109.5 76t-73.5 113t-26.5 138.5q0 75 26 139t73 112t109 75t135 27t135.5 -27t109.5 -75t73 -112.5t26 -139.5q0 -74 -26 -138.5t-72.5 -112.5t-108.5 -75.5t-135 -27.5zM396 61q78 0 138.5 37t95 101t34.5 146q0 61 -20 112.5t-56 90
t-84.5 59.5t-107.5 21q-77 0 -137.5 -36.5t-95 -100.5t-34.5 -146q0 -61 20 -113t56 -90.5t85 -59.5t106 -21zM471 766q-32 0 -54 11.5t-42.5 22.5t-45.5 11q-27 0 -42 -10t-28 -28l-39 38q22 27 46.5 44t61.5 17q33 0 55.5 -11t42.5 -22.5t44 -11.5t39 9.5t27 27.5l39 -37
q-21 -28 -45.5 -44.5t-58.5 -16.5z" />
    <glyph glyph-name="Odieresis" unicode="&#xd6;" horiz-adv-x="794" 
d="M398 -10q-73 0 -135.5 27.5t-109.5 76t-73.5 113t-26.5 138.5q0 75 26 139t73 112t109 75t135 27t135.5 -27t109.5 -75t73 -112.5t26 -139.5q0 -74 -26 -138.5t-72.5 -112.5t-108.5 -75.5t-135 -27.5zM396 61q78 0 138.5 37t95 101t34.5 146q0 61 -20 112.5t-56 90
t-84.5 59.5t-107.5 21q-77 0 -137.5 -36.5t-95 -100.5t-34.5 -146q0 -61 20 -113t56 -90.5t85 -59.5t106 -21zM302 770q-20 0 -34 14.5t-14 34.5q0 21 14 35t34 14q22 0 35.5 -14t13.5 -35q0 -20 -13.5 -34.5t-35.5 -14.5zM492 770q-20 0 -34 14.5t-14 34.5q0 21 14 35
t34 14q22 0 35.5 -14t13.5 -35q0 -20 -13.5 -34.5t-35.5 -14.5z" />
    <glyph glyph-name="multiply" unicode="&#xd7;" horiz-adv-x="537" 
d="M117 136l-46 46l349 349l46 -46zM413 143l-335 335l46 46l335 -335z" />
    <glyph glyph-name="Oslash" unicode="&#xd8;" horiz-adv-x="794" 
d="M686 682l48 -48l-627 -628l-48 49zM398 -10q-73 0 -136 27.5t-110 76t-73 113t-26 138.5q0 75 26 139t72.5 112t109 75t135.5 27t135.5 -27t109 -75t73 -112.5t26.5 -139.5q0 -74 -26 -138.5t-73 -112.5t-109 -75.5t-134 -27.5zM396 61q78 0 138 37t95 101t35 146
q0 61 -20 112.5t-56 90t-85 59.5t-107 21q-78 0 -138 -36.5t-94.5 -100.5t-34.5 -146q0 -61 20 -113t55.5 -90.5t84.5 -59.5t107 -21z" />
    <glyph glyph-name="Ugrave" unicode="&#xd9;" horiz-adv-x="676" 
d="M339 -10q-75 0 -133.5 33.5t-92.5 92t-34 131.5v441h74v-437q0 -58 24 -101t66.5 -66t95.5 -23t94.5 23t66 65.5t24.5 100.5v438h73v-442q0 -73 -33.5 -131t-92 -91.5t-132.5 -33.5zM378 756l-157 134l56 56l133 -158z" />
    <glyph glyph-name="Uacute" unicode="&#xda;" horiz-adv-x="676" 
d="M339 -10q-75 0 -133.5 33.5t-92.5 92t-34 131.5v441h74v-437q0 -58 24 -101t66.5 -66t95.5 -23t94.5 23t66 65.5t24.5 100.5v438h73v-442q0 -73 -33.5 -131t-92 -91.5t-132.5 -33.5zM276 761l-32 32l133 158l56 -56z" />
    <glyph glyph-name="Ucircumflex" unicode="&#xdb;" horiz-adv-x="676" 
d="M339 -10q-75 0 -133.5 33.5t-92.5 92t-34 131.5v441h74v-437q0 -58 24 -101t66.5 -66t95.5 -23t94.5 23t66 65.5t24.5 100.5v438h73v-442q0 -73 -33.5 -131t-92 -91.5t-132.5 -33.5zM205 760l-32 32l137 154h56l137 -154l-32 -32l-156 136l47 -1z" />
    <glyph glyph-name="Udieresis" unicode="&#xdc;" horiz-adv-x="676" 
d="M339 -10q-75 0 -133.5 33.5t-92.5 92t-34 131.5v441h74v-437q0 -58 24 -101t66.5 -66t95.5 -23t94.5 23t66 65.5t24.5 100.5v438h73v-442q0 -73 -33.5 -131t-92 -91.5t-132.5 -33.5zM243 770q-20 0 -34 14.5t-14 34.5q0 21 14 35t34 14q22 0 35.5 -14t13.5 -35
q0 -20 -13.5 -34.5t-35.5 -14.5zM433 770q-20 0 -34 14.5t-14 34.5q0 21 14 35t34 14q22 0 35.5 -14t13.5 -35q0 -20 -13.5 -34.5t-35.5 -14.5z" />
    <glyph glyph-name="Yacute" unicode="&#xdd;" horiz-adv-x="659" 
d="M308 284l-273 404h86l227 -339h-36l229 339h83l-275 -404h-41zM293 0v337h74v-337h-74zM267 761l-32 32l133 158l56 -56z" />
    <glyph glyph-name="Thorn" unicode="&#xde;" horiz-adv-x="608" 
d="M135 147v64h203q42 0 75.5 17t53 49t19.5 76q0 43 -19.5 75t-53 49t-75.5 17h-203v65h208q62 0 111 -25.5t77.5 -72t28.5 -108.5q0 -63 -28.5 -109t-77.5 -71.5t-111 -25.5h-208zM88 0v688h73v-688h-73z" />
    <glyph glyph-name="germandbls" unicode="&#xdf;" horiz-adv-x="568" 
d="M319 -10q-45 0 -79.5 13t-60.5 39l44 52q17 -17 42 -27t56 -10q41 0 70.5 18t46 49.5t16.5 72.5q0 40 -18.5 72.5t-52 51.5t-76.5 19h-61v62h33q37 0 63.5 17.5t41 46.5t14.5 65q0 34 -15 61.5t-43 44t-68 16.5q-57 0 -93.5 -35t-36.5 -92v-526h-71v526q0 55 25.5 98.5
t71 68.5t104.5 25q61 0 105 -24.5t68 -66t24 -92.5q0 -63 -36.5 -108.5t-97.5 -58.5l5 26q57 -3 100 -29t66.5 -69.5t23.5 -100.5q0 -44 -15 -81t-42.5 -65t-66.5 -43.5t-87 -15.5z" />
    <glyph glyph-name="agrave" unicode="&#xe0;" horiz-adv-x="585" 
d="M275 -10q-67 0 -120 32.5t-83.5 87.5t-30.5 124q0 70 30.5 125.5t83.5 88t119 32.5q54 0 96.5 -21.5t69 -60t32.5 -89.5v-147q-6 -51 -32.5 -90t-69 -60.5t-95.5 -21.5zM286 57q73 0 117.5 49t44.5 129q0 53 -20.5 93.5t-57 63t-85.5 22.5q-50 0 -88.5 -23t-61 -63.5
t-22.5 -92.5t22.5 -92t61.5 -63t89 -23zM444 0v126l14 116l-14 113v115h70v-470h-70zM337 538l-157 134l56 56l133 -158z" />
    <glyph glyph-name="aacute" unicode="&#xe1;" horiz-adv-x="585" 
d="M275 -10q-67 0 -120 32.5t-83.5 87.5t-30.5 124q0 70 30.5 125.5t83.5 88t119 32.5q54 0 96.5 -21.5t69 -60t32.5 -89.5v-147q-6 -51 -32.5 -90t-69 -60.5t-95.5 -21.5zM286 57q73 0 117.5 49t44.5 129q0 53 -20.5 93.5t-57 63t-85.5 22.5q-50 0 -88.5 -23t-61 -63.5
t-22.5 -92.5t22.5 -92t61.5 -63t89 -23zM444 0v126l14 116l-14 113v115h70v-470h-70zM235 543l-32 32l133 158l56 -56z" />
    <glyph glyph-name="acircumflex" unicode="&#xe2;" horiz-adv-x="585" 
d="M275 -10q-67 0 -120 32.5t-83.5 87.5t-30.5 124q0 70 30.5 125.5t83.5 88t119 32.5q54 0 96.5 -21.5t69 -60t32.5 -89.5v-147q-6 -51 -32.5 -90t-69 -60.5t-95.5 -21.5zM286 57q73 0 117.5 49t44.5 129q0 53 -20.5 93.5t-57 63t-85.5 22.5q-50 0 -88.5 -23t-61 -63.5
t-22.5 -92.5t22.5 -92t61.5 -63t89 -23zM444 0v126l14 116l-14 113v115h70v-470h-70zM164 542l-32 32l137 154h56l137 -154l-32 -32l-156 136l47 -1z" />
    <glyph glyph-name="atilde" unicode="&#xe3;" horiz-adv-x="585" 
d="M275 -10q-67 0 -120 32.5t-83.5 87.5t-30.5 124q0 70 30.5 125.5t83.5 88t119 32.5q54 0 96.5 -21.5t69 -60t32.5 -89.5v-147q-6 -51 -32.5 -90t-69 -60.5t-95.5 -21.5zM286 57q73 0 117.5 49t44.5 129q0 53 -20.5 93.5t-57 63t-85.5 22.5q-50 0 -88.5 -23t-61 -63.5
t-22.5 -92.5t22.5 -92t61.5 -63t89 -23zM444 0v126l14 116l-14 113v115h70v-470h-70zM371 548q-32 0 -54 11.5t-42.5 22.5t-45.5 11q-27 0 -42 -10t-28 -28l-39 38q22 27 46.5 44t61.5 17q33 0 55.5 -11t42.5 -22.5t44 -11.5t39 9.5t27 27.5l39 -37q-21 -28 -45.5 -44.5
t-58.5 -16.5z" />
    <glyph glyph-name="adieresis" unicode="&#xe4;" horiz-adv-x="585" 
d="M275 -10q-67 0 -120 32.5t-83.5 87.5t-30.5 124q0 70 30.5 125.5t83.5 88t119 32.5q54 0 96.5 -21.5t69 -60t32.5 -89.5v-147q-6 -51 -32.5 -90t-69 -60.5t-95.5 -21.5zM286 57q73 0 117.5 49t44.5 129q0 53 -20.5 93.5t-57 63t-85.5 22.5q-50 0 -88.5 -23t-61 -63.5
t-22.5 -92.5t22.5 -92t61.5 -63t89 -23zM444 0v126l14 116l-14 113v115h70v-470h-70zM202 552q-20 0 -34 14.5t-14 34.5q0 21 14 35t34 14q22 0 35.5 -14t13.5 -35q0 -20 -13.5 -34.5t-35.5 -14.5zM392 552q-20 0 -34 14.5t-14 34.5q0 21 14 35t34 14q22 0 35.5 -14
t13.5 -35q0 -20 -13.5 -34.5t-35.5 -14.5z" />
    <glyph glyph-name="aring" unicode="&#xe5;" horiz-adv-x="585" 
d="M275 -10q-67 0 -120 32.5t-83.5 87.5t-30.5 124q0 70 30.5 125.5t83.5 88t119 32.5q54 0 96.5 -21.5t69 -60t32.5 -89.5v-147q-6 -51 -32.5 -90t-69 -60.5t-95.5 -21.5zM286 57q73 0 117.5 49t44.5 129q0 53 -20.5 93.5t-57 63t-85.5 22.5q-50 0 -88.5 -23t-61 -63.5
t-22.5 -92.5t22.5 -92t61.5 -63t89 -23zM444 0v126l14 116l-14 113v115h70v-470h-70zM298 527q-33 0 -59 15t-41 40.5t-15 57.5t15 57.5t41 40.5t59 15q32 0 57.5 -15t40 -40.5t14.5 -57.5t-14.5 -57.5t-39.5 -40.5t-58 -15zM299 580q23 0 40 17t17 43t-17 43.5t-40 17.5
q-28 0 -44.5 -17.5t-16.5 -43.5q0 -25 16.5 -42.5t44.5 -17.5z" />
    <glyph glyph-name="ae" unicode="&#xe6;" horiz-adv-x="946" 
d="M696 -10q-71 0 -127 32t-88.5 88t-32.5 126q0 69 32 124.5t87 87.5t123 32q64 0 113.5 -29t78 -80.5t28.5 -118.5q0 -8 -1 -18.5t-4 -24.5h-407v60h369l-25 -22q1 52 -17.5 89.5t-53 58t-83.5 20.5q-51 0 -89 -22t-59.5 -61.5t-21.5 -93.5t22.5 -95t63 -64t93.5 -23
q43 0 79 15.5t61 46.5l45 -46q-33 -39 -81.5 -60.5t-104.5 -21.5zM275 -10q-67 0 -120 32.5t-83.5 87.5t-30.5 124q0 70 30.5 125.5t83.5 88t119 32.5q54 0 96.5 -21.5t69 -60t32.5 -89.5v-147q-6 -51 -32.5 -90t-69 -60.5t-95.5 -21.5zM286 57q73 0 117.5 49t44.5 129
q0 53 -20.5 93.5t-57 63t-85.5 22.5q-50 0 -88.5 -23t-61 -63.5t-22.5 -92.5t22.5 -92t61.5 -63t89 -23zM444 0v126l14 116l-14 113v115h70v-470h-70z" />
    <glyph glyph-name="ccedilla" unicode="&#xe7;" horiz-adv-x="491" 
d="M285 -10q-69 0 -124.5 32.5t-88 88.5t-32.5 125t32.5 124.5t88 87.5t124.5 32q53 0 99 -20t78 -56l-46 -47q-24 27 -58 41.5t-73 14.5q-50 0 -89 -23t-61 -62.5t-22 -91.5q0 -51 22 -91.5t61 -63.5t89 -23q40 0 74 14.5t58 41.5l47 -47q-33 -37 -79.5 -57t-99.5 -20z
M253 -208q-33 0 -62 10t-53 28l35 39q14 -12 33 -19.5t43 -7.5q32 0 48.5 10.5t16.5 27.5q0 18 -17 29t-50 11h-36l28 91h58l-23 -70l-27 23q61 1 95.5 -22.5t34.5 -62.5t-33.5 -63t-90.5 -24z" />
    <glyph glyph-name="egrave" unicode="&#xe8;" horiz-adv-x="538" 
d="M288 -10q-71 0 -127 32t-88.5 88t-32.5 126q0 69 32 124.5t87 87.5t123 32q64 0 113.5 -29t78 -80.5t28.5 -118.5q0 -8 -1 -18.5t-4 -24.5h-407v60h369l-25 -22q1 52 -17.5 89.5t-53 58t-83.5 20.5q-51 0 -89 -22t-59.5 -61.5t-21.5 -93.5t22.5 -95t63 -64t93.5 -23
q43 0 79 15.5t61 46.5l45 -46q-33 -39 -81.5 -60.5t-104.5 -21.5zM321 538l-157 134l56 56l133 -158z" />
    <glyph glyph-name="eacute" unicode="&#xe9;" horiz-adv-x="538" 
d="M288 -10q-71 0 -127 32t-88.5 88t-32.5 126q0 69 32 124.5t87 87.5t123 32q64 0 113.5 -29t78 -80.5t28.5 -118.5q0 -8 -1 -18.5t-4 -24.5h-407v60h369l-25 -22q1 52 -17.5 89.5t-53 58t-83.5 20.5q-51 0 -89 -22t-59.5 -61.5t-21.5 -93.5t22.5 -95t63 -64t93.5 -23
q43 0 79 15.5t61 46.5l45 -46q-33 -39 -81.5 -60.5t-104.5 -21.5zM219 543l-32 32l133 158l56 -56z" />
    <glyph glyph-name="ecircumflex" unicode="&#xea;" horiz-adv-x="538" 
d="M288 -10q-71 0 -127 32t-88.5 88t-32.5 126q0 69 32 124.5t87 87.5t123 32q64 0 113.5 -29t78 -80.5t28.5 -118.5q0 -8 -1 -18.5t-4 -24.5h-407v60h369l-25 -22q1 52 -17.5 89.5t-53 58t-83.5 20.5q-51 0 -89 -22t-59.5 -61.5t-21.5 -93.5t22.5 -95t63 -64t93.5 -23
q43 0 79 15.5t61 46.5l45 -46q-33 -39 -81.5 -60.5t-104.5 -21.5zM148 542l-32 32l137 154h56l137 -154l-32 -32l-156 136l47 -1z" />
    <glyph glyph-name="edieresis" unicode="&#xeb;" horiz-adv-x="538" 
d="M288 -10q-71 0 -127 32t-88.5 88t-32.5 126q0 69 32 124.5t87 87.5t123 32q64 0 113.5 -29t78 -80.5t28.5 -118.5q0 -8 -1 -18.5t-4 -24.5h-407v60h369l-25 -22q1 52 -17.5 89.5t-53 58t-83.5 20.5q-51 0 -89 -22t-59.5 -61.5t-21.5 -93.5t22.5 -95t63 -64t93.5 -23
q43 0 79 15.5t61 46.5l45 -46q-33 -39 -81.5 -60.5t-104.5 -21.5zM186 552q-20 0 -34 14.5t-14 34.5q0 21 14 35t34 14q22 0 35.5 -14t13.5 -35q0 -20 -13.5 -34.5t-35.5 -14.5zM376 552q-20 0 -34 14.5t-14 34.5q0 21 14 35t34 14q22 0 35.5 -14t13.5 -35
q0 -20 -13.5 -34.5t-35.5 -14.5z" />
    <glyph glyph-name="igrave" unicode="&#xec;" horiz-adv-x="212" 
d="M71 0v470h71v-470h-71zM146 538l-157 134l56 56l133 -158z" />
    <glyph glyph-name="iacute" unicode="&#xed;" horiz-adv-x="212" 
d="M71 0v470h71v-470h-71zM44 543l-32 32l133 158l56 -56z" />
    <glyph glyph-name="icircumflex" unicode="&#xee;" horiz-adv-x="212" 
d="M71 0v470h71v-470h-71zM-27 542l-32 32l137 154h56l137 -154l-32 -32l-156 136l47 -1z" />
    <glyph glyph-name="idieresis" unicode="&#xef;" horiz-adv-x="212" 
d="M71 0v470h71v-470h-71zM11 552q-20 0 -34 14.5t-14 34.5q0 21 14 35t34 14q22 0 35.5 -14t13.5 -35q0 -20 -13.5 -34.5t-35.5 -14.5zM201 552q-20 0 -34 14.5t-14 34.5q0 21 14 35t34 14q22 0 35.5 -14t13.5 -35q0 -20 -13.5 -34.5t-35.5 -14.5z" />
    <glyph glyph-name="eth" unicode="&#xf0;" horiz-adv-x="565" 
d="M284 -10q-66 0 -120 32t-86 85.5t-32 118.5t30 116t80.5 80.5t110.5 29.5q32 0 55.5 -7t42 -19.5t32.5 -30.5l-26 10l-214 283h86l216 -292q61 -84 61 -172q0 -65 -31 -118t-85 -84.5t-120 -31.5zM283 58q46 0 83.5 22t59 60.5t21.5 85.5q0 48 -21.5 85.5t-59 60
t-83.5 22.5q-45 0 -82.5 -22.5t-59.5 -60.5t-22 -85q0 -46 22 -84.5t59.5 -61t82.5 -22.5zM118 500l-20 52l317 117l20 -52z" />
    <glyph glyph-name="ntilde" unicode="&#xf1;" horiz-adv-x="544" 
d="M413 0v276q0 62 -36.5 100.5t-96.5 38.5q-41 0 -72 -18t-49 -49t-18 -71l-32 18q0 53 25 95t67.5 66t97.5 24q54 0 96 -26t65.5 -70t23.5 -96v-288h-71zM71 0v470h70v-470h-70zM346 548q-32 0 -54 11.5t-42.5 22.5t-45.5 11q-27 0 -42 -10t-28 -28l-39 38q22 27 46.5 44
t61.5 17q33 0 55.5 -11t42.5 -22.5t44 -11.5t39 9.5t27 27.5l39 -37q-21 -28 -45.5 -44.5t-58.5 -16.5z" />
    <glyph glyph-name="ograve" unicode="&#xf2;" horiz-adv-x="568" 
d="M284 -10q-68 0 -123.5 33t-88 89t-32.5 125q0 68 32.5 123t88 87.5t123.5 32.5q69 0 124 -32t87.5 -87.5t32.5 -123.5q0 -70 -32.5 -125.5t-87.5 -88.5t-124 -33zM284 58q50 0 88.5 23t61 64t22.5 92t-22.5 90.5t-61 62.5t-88.5 23q-49 0 -88 -23t-61 -62.5t-22 -90.5
q0 -52 22 -92.5t61 -63.5t88 -23zM324 538l-157 134l56 56l133 -158z" />
    <glyph glyph-name="oacute" unicode="&#xf3;" horiz-adv-x="568" 
d="M284 -10q-68 0 -123.5 33t-88 89t-32.5 125q0 68 32.5 123t88 87.5t123.5 32.5q69 0 124 -32t87.5 -87.5t32.5 -123.5q0 -70 -32.5 -125.5t-87.5 -88.5t-124 -33zM284 58q50 0 88.5 23t61 64t22.5 92t-22.5 90.5t-61 62.5t-88.5 23q-49 0 -88 -23t-61 -62.5t-22 -90.5
q0 -52 22 -92.5t61 -63.5t88 -23zM222 543l-32 32l133 158l56 -56z" />
    <glyph glyph-name="ocircumflex" unicode="&#xf4;" horiz-adv-x="568" 
d="M284 -10q-68 0 -123.5 33t-88 89t-32.5 125q0 68 32.5 123t88 87.5t123.5 32.5q69 0 124 -32t87.5 -87.5t32.5 -123.5q0 -70 -32.5 -125.5t-87.5 -88.5t-124 -33zM284 58q50 0 88.5 23t61 64t22.5 92t-22.5 90.5t-61 62.5t-88.5 23q-49 0 -88 -23t-61 -62.5t-22 -90.5
q0 -52 22 -92.5t61 -63.5t88 -23zM152 542l-32 32l137 154h56l137 -154l-32 -32l-156 136l47 -1z" />
    <glyph glyph-name="otilde" unicode="&#xf5;" horiz-adv-x="568" 
d="M284 -10q-68 0 -123.5 33t-88 89t-32.5 125q0 68 32.5 123t88 87.5t123.5 32.5q69 0 124 -32t87.5 -87.5t32.5 -123.5q0 -70 -32.5 -125.5t-87.5 -88.5t-124 -33zM284 58q50 0 88.5 23t61 64t22.5 92t-22.5 90.5t-61 62.5t-88.5 23q-49 0 -88 -23t-61 -62.5t-22 -90.5
q0 -52 22 -92.5t61 -63.5t88 -23zM358 548q-32 0 -54 11.5t-42.5 22.5t-45.5 11q-27 0 -42 -10t-28 -28l-39 38q22 27 46.5 44t61.5 17q33 0 55.5 -11t42.5 -22.5t44 -11.5t39 9.5t27 27.5l39 -37q-21 -28 -45.5 -44.5t-58.5 -16.5z" />
    <glyph glyph-name="odieresis" unicode="&#xf6;" horiz-adv-x="568" 
d="M284 -10q-68 0 -123.5 33t-88 89t-32.5 125q0 68 32.5 123t88 87.5t123.5 32.5q69 0 124 -32t87.5 -87.5t32.5 -123.5q0 -70 -32.5 -125.5t-87.5 -88.5t-124 -33zM284 58q50 0 88.5 23t61 64t22.5 92t-22.5 90.5t-61 62.5t-88.5 23q-49 0 -88 -23t-61 -62.5t-22 -90.5
q0 -52 22 -92.5t61 -63.5t88 -23zM189 552q-20 0 -34 14.5t-14 34.5q0 21 14 35t34 14q22 0 35.5 -14t13.5 -35q0 -20 -13.5 -34.5t-35.5 -14.5zM379 552q-20 0 -34 14.5t-14 34.5q0 21 14 35t34 14q22 0 35.5 -14t13.5 -35q0 -20 -13.5 -34.5t-35.5 -14.5z" />
    <glyph glyph-name="divide" unicode="&#xf7;" horiz-adv-x="537" 
d="M64 302v63h409v-63h-409zM268 447q-20 0 -34 14.5t-14 34.5q0 21 14 35t34 14q22 0 35.5 -14t13.5 -35q0 -20 -13.5 -34.5t-35.5 -14.5zM268 123q-20 0 -34 14.5t-14 34.5q0 21 14 35t34 14q22 0 35.5 -14t13.5 -35q0 -20 -13.5 -34.5t-35.5 -14.5z" />
    <glyph glyph-name="oslash" unicode="&#xf8;" horiz-adv-x="568" 
d="M75 -21l-46 46l466 466l46 -46zM284 -10q-68 0 -123.5 33t-88 89t-32.5 125q0 68 32.5 123t88 87.5t123.5 32.5q69 0 124 -32t87.5 -87.5t32.5 -123.5q0 -70 -32.5 -125.5t-87.5 -88.5t-124 -33zM284 58q50 0 88.5 23t61 64t22.5 92t-22.5 90.5t-61 62.5t-88.5 23
q-49 0 -88 -23t-61 -62.5t-22 -90.5q0 -52 22 -92.5t61 -63.5t88 -23z" />
    <glyph glyph-name="ugrave" unicode="&#xf9;" horiz-adv-x="515" 
d="M257 -10q-57 0 -102 26.5t-70.5 72.5t-25.5 108v273h71v-270q0 -43 15.5 -75t44.5 -50t67 -18q59 0 93.5 39t34.5 104v270h70v-273q0 -61 -25 -108t-70 -73t-103 -26zM297 538l-157 134l56 56l133 -158z" />
    <glyph glyph-name="uacute" unicode="&#xfa;" horiz-adv-x="515" 
d="M257 -10q-57 0 -102 26.5t-70.5 72.5t-25.5 108v273h71v-270q0 -43 15.5 -75t44.5 -50t67 -18q59 0 93.5 39t34.5 104v270h70v-273q0 -61 -25 -108t-70 -73t-103 -26zM195 543l-32 32l133 158l56 -56z" />
    <glyph glyph-name="ucircumflex" unicode="&#xfb;" horiz-adv-x="515" 
d="M257 -10q-57 0 -102 26.5t-70.5 72.5t-25.5 108v273h71v-270q0 -43 15.5 -75t44.5 -50t67 -18q59 0 93.5 39t34.5 104v270h70v-273q0 -61 -25 -108t-70 -73t-103 -26zM125 542l-32 32l137 154h56l137 -154l-32 -32l-156 136l47 -1z" />
    <glyph glyph-name="udieresis" unicode="&#xfc;" horiz-adv-x="515" 
d="M257 -10q-57 0 -102 26.5t-70.5 72.5t-25.5 108v273h71v-270q0 -43 15.5 -75t44.5 -50t67 -18q59 0 93.5 39t34.5 104v270h70v-273q0 -61 -25 -108t-70 -73t-103 -26zM162 552q-20 0 -34 14.5t-14 34.5q0 21 14 35t34 14q22 0 35.5 -14t13.5 -35q0 -20 -13.5 -34.5
t-35.5 -14.5zM352 552q-20 0 -34 14.5t-14 34.5q0 21 14 35t34 14q22 0 35.5 -14t13.5 -35q0 -20 -13.5 -34.5t-35.5 -14.5z" />
    <glyph glyph-name="yacute" unicode="&#xfd;" horiz-adv-x="510" 
d="M228 -2l-206 472h77l166 -394h-29l175 394h78l-221 -472h-40zM100 -198l129 267l39 -71l-91 -196h-77zM193 543l-32 32l133 158l56 -56z" />
    <glyph glyph-name="thorn" unicode="&#xfe;" horiz-adv-x="585" 
d="M314 -10q-54 0 -97 22t-70.5 60.5t-33.5 89.5v147q6 52 34 90.5t71.5 59.5t95.5 21q65 0 117 -32.5t82.5 -88t30.5 -125.5q0 -69 -30 -124t-82.5 -87.5t-117.5 -32.5zM71 -198v906h70v-358l-14 -114l14 -115v-319h-70zM302 57q50 0 88 22.5t60 63t22 92.5q0 53 -22 93
t-60 63t-87 23t-86.5 -23t-58.5 -63t-21 -93q0 -52 21 -92.5t58 -63t86 -22.5z" />
    <glyph glyph-name="ydieresis" unicode="&#xff;" horiz-adv-x="510" 
d="M228 -2l-206 472h77l166 -394h-29l175 394h78l-221 -472h-40zM100 -198l129 267l39 -71l-91 -196h-77zM160 552q-20 0 -34 14.5t-14 34.5q0 21 14 35t34 14q22 0 35.5 -14t13.5 -35q0 -20 -13.5 -34.5t-35.5 -14.5zM350 552q-20 0 -34 14.5t-14 34.5q0 21 14 35t34 14
q22 0 35.5 -14t13.5 -35q0 -20 -13.5 -34.5t-35.5 -14.5z" />
    <glyph glyph-name="Amacron" unicode="&#x100;" horiz-adv-x="690" 
d="M37 0l282 688h55l279 -688h-79l-243 608h29l-245 -608h-78zM166 179v65h360v-65h-360zM174 848h343v-59h-343v59z" />
    <glyph glyph-name="amacron" unicode="&#x101;" horiz-adv-x="585" 
d="M275 -10q-67 0 -120 32.5t-83.5 87.5t-30.5 124q0 70 30.5 125.5t83.5 88t119 32.5q54 0 96.5 -21.5t69 -60t32.5 -89.5v-147q-6 -51 -32.5 -90t-69 -60.5t-95.5 -21.5zM286 57q73 0 117.5 49t44.5 129q0 53 -20.5 93.5t-57 63t-85.5 22.5q-50 0 -88.5 -23t-61 -63.5
t-22.5 -92.5t22.5 -92t61.5 -63t89 -23zM444 0v126l14 116l-14 113v115h70v-470h-70zM126 630h343v-59h-343v59z" />
    <glyph glyph-name="Abreve" unicode="&#x102;" horiz-adv-x="690" 
d="M37 0l282 688h55l279 -688h-79l-243 608h29l-245 -608h-78zM166 179v65h360v-65h-360zM510 909q0 -46 -21.5 -83t-58 -59t-83.5 -22q-49 0 -86.5 22t-59 59t-21.5 83h65q0 -44 27.5 -73.5t75.5 -29.5q27 0 49.5 13.5t35.5 37t13 52.5h64z" />
    <glyph glyph-name="abreve" unicode="&#x103;" horiz-adv-x="585" 
d="M275 -10q-67 0 -120 32.5t-83.5 87.5t-30.5 124q0 70 30.5 125.5t83.5 88t119 32.5q54 0 96.5 -21.5t69 -60t32.5 -89.5v-147q-6 -51 -32.5 -90t-69 -60.5t-95.5 -21.5zM286 57q73 0 117.5 49t44.5 129q0 53 -20.5 93.5t-57 63t-85.5 22.5q-50 0 -88.5 -23t-61 -63.5
t-22.5 -92.5t22.5 -92t61.5 -63t89 -23zM444 0v126l14 116l-14 113v115h70v-470h-70zM462 691q0 -46 -21.5 -83t-58 -59t-83.5 -22q-49 0 -86.5 22t-59 59t-21.5 83h65q0 -44 27.5 -73.5t75.5 -29.5q27 0 49.5 13.5t35.5 37t13 52.5h64z" />
    <glyph glyph-name="Aogonek" unicode="&#x104;" horiz-adv-x="690" 
d="M37 0l282 688h55l279 -688h-79l-243 608h29l-245 -608h-78zM166 179v65h360v-65h-360zM617 -208q-39 0 -68 21t-29 66q0 37 25 74t68 65l40 -18q-35 -27 -56 -54t-21 -59q0 -24 12.5 -36t36.5 -12q14 0 25.5 4.5t21.5 10.5l20 -39q-14 -9 -32 -16t-43 -7z" />
    <glyph glyph-name="aogonek" unicode="&#x105;" horiz-adv-x="585" 
d="M275 -10q-67 0 -120 32.5t-83.5 87.5t-30.5 124q0 70 30.5 125.5t83.5 88t119 32.5q54 0 96.5 -21.5t69 -60t32.5 -89.5v-147q-6 -51 -32.5 -90t-69 -60.5t-95.5 -21.5zM286 57q73 0 117.5 49t44.5 129q0 53 -20.5 93.5t-57 63t-85.5 22.5q-50 0 -88.5 -23t-61 -63.5
t-22.5 -92.5t22.5 -92t61.5 -63t89 -23zM444 0v126l14 116l-14 113v115h70v-470h-70zM478 -208q-39 0 -68 21t-29 66q0 37 25 74t68 65l40 -18q-35 -27 -56 -54t-21 -59q0 -24 12.5 -36t36.5 -12q14 0 25.5 4.5t21.5 10.5l20 -39q-14 -9 -32 -16t-43 -7z" />
    <glyph glyph-name="Cacute" unicode="&#x106;" horiz-adv-x="693" 
d="M400 -10q-74 0 -137.5 27t-110.5 76t-72.5 113.5t-25.5 138.5t25.5 138.5t72 112.5t109.5 75t136 27q79 0 141.5 -28t109.5 -77l-50 -50q-36 40 -87 62.5t-114 22.5q-58 0 -106.5 -21t-85 -59.5t-56 -90t-19.5 -112.5t20 -113t56 -90.5t85 -59.5t107 -21q66 0 117.5 23
t87.5 63l50 -51q-46 -49 -110 -77.5t-143 -28.5zM319 761l-32 32l133 158l56 -56z" />
    <glyph glyph-name="cacute" unicode="&#x107;" horiz-adv-x="491" 
d="M285 -10q-69 0 -124.5 32.5t-88 88.5t-32.5 125t32.5 124.5t88 87.5t124.5 32q53 0 99 -20t78 -56l-46 -47q-24 27 -58 41.5t-73 14.5q-50 0 -89 -23t-61 -62.5t-22 -91.5q0 -51 22 -91.5t61 -63.5t89 -23q40 0 74 14.5t58 41.5l47 -47q-33 -37 -79.5 -57t-99.5 -20z
M214 543l-32 32l133 158l56 -56z" />
    <glyph glyph-name="Cdotaccent" unicode="&#x10a;" horiz-adv-x="693" 
d="M400 -10q-74 0 -137.5 27t-110.5 76t-72.5 113.5t-25.5 138.5t25.5 138.5t72 112.5t109.5 75t136 27q79 0 141.5 -28t109.5 -77l-50 -50q-36 40 -87 62.5t-114 22.5q-58 0 -106.5 -21t-85 -59.5t-56 -90t-19.5 -112.5t20 -113t56 -90.5t85 -59.5t107 -21q66 0 117.5 23
t87.5 63l50 -51q-46 -49 -110 -77.5t-143 -28.5zM381 770q-20 0 -34 14.5t-14 34.5q0 21 14 35t34 14q22 0 35.5 -14t13.5 -35q0 -20 -13.5 -34.5t-35.5 -14.5z" />
    <glyph glyph-name="cdotaccent" unicode="&#x10b;" horiz-adv-x="491" 
d="M285 -10q-69 0 -124.5 32.5t-88 88.5t-32.5 125t32.5 124.5t88 87.5t124.5 32q53 0 99 -20t78 -56l-46 -47q-24 27 -58 41.5t-73 14.5q-50 0 -89 -23t-61 -62.5t-22 -91.5q0 -51 22 -91.5t61 -63.5t89 -23q40 0 74 14.5t58 41.5l47 -47q-33 -37 -79.5 -57t-99.5 -20z
M276 552q-20 0 -34 14.5t-14 34.5q0 21 14 35t34 14q22 0 35.5 -14t13.5 -35q0 -20 -13.5 -34.5t-35.5 -14.5z" />
    <glyph glyph-name="Ccaron" unicode="&#x10c;" horiz-adv-x="693" 
d="M400 -10q-74 0 -137.5 27t-110.5 76t-72.5 113.5t-25.5 138.5t25.5 138.5t72 112.5t109.5 75t136 27q79 0 141.5 -28t109.5 -77l-50 -50q-36 40 -87 62.5t-114 22.5q-58 0 -106.5 -21t-85 -59.5t-56 -90t-19.5 -112.5t20 -113t56 -90.5t85 -59.5t107 -21q66 0 117.5 23
t87.5 63l50 -51q-46 -49 -110 -77.5t-143 -28.5zM514 946l32 -31l-137 -155h-56l-137 155l32 31l156 -135h-47z" />
    <glyph glyph-name="ccaron" unicode="&#x10d;" horiz-adv-x="491" 
d="M285 -10q-69 0 -124.5 32.5t-88 88.5t-32.5 125t32.5 124.5t88 87.5t124.5 32q53 0 99 -20t78 -56l-46 -47q-24 27 -58 41.5t-73 14.5q-50 0 -89 -23t-61 -62.5t-22 -91.5q0 -51 22 -91.5t61 -63.5t89 -23q40 0 74 14.5t58 41.5l47 -47q-33 -37 -79.5 -57t-99.5 -20z
M409 728l32 -31l-137 -155h-56l-137 155l32 31l156 -135h-47z" />
    <glyph glyph-name="Dcaron" unicode="&#x10e;" horiz-adv-x="739" 
d="M133 0v68h202q81 0 143 35.5t97 98t35 143.5t-35 143t-97 97.5t-143 35.5h-200v67h202q75 0 138.5 -25.5t111 -72t73.5 -109t26 -137.5q0 -73 -26 -136t-73 -109.5t-110.5 -72.5t-137.5 -26h-206zM88 0v688h73v-688h-73zM470 946l31 -31l-136 -155h-57l-136 155l31 31
l157 -135h-47z" />
    <glyph glyph-name="dcaron" unicode="&#x10f;" horiz-adv-x="761" 
d="M271 -10q-65 0 -117 32t-82.5 87.5t-30.5 124.5q0 70 30.5 125.5t82.5 88t117 32.5q53 0 96 -21t71.5 -59.5t33.5 -90.5v-147q-6 -51 -33.5 -89.5t-70.5 -60.5t-97 -22zM283 57q49 0 86 22.5t58 63t21 92.5q0 53 -21.5 93t-58.5 63t-86 23t-87 -23t-59.5 -63.5
t-21.5 -92.5t21.5 -92.5t60 -63t87.5 -22.5zM514 0h-70v126l14 116l-14 113v353h70v-708zM611 460l-43 23l57 111l26 6q-4 -10 -11 -16t-18 -6q-19 0 -34.5 15t-15.5 38q0 25 17 42t42 17q23 0 40 -17t17 -42q0 -10 -3.5 -23.5t-14.5 -34.5z" />
    <glyph glyph-name="Dcroat" unicode="&#x110;" horiz-adv-x="749" 
d="M0 314v60h404v-60h-404zM142 0v68h203q81 0 143 35.5t96.5 98t34.5 143.5t-35 143t-97 97.5t-142 35.5h-201v67h202q76 0 139.5 -25.5t110.5 -72t73 -109t26 -137.5q0 -73 -26 -136t-72.5 -109.5t-110 -72.5t-138.5 -26h-206zM97 0v688h74v-688h-74z" />
    <glyph glyph-name="dcroat" unicode="&#x111;" horiz-adv-x="595" 
d="M276 562v67h319v-67h-319zM271 -10q-65 0 -117 32t-82.5 87.5t-30.5 124.5q0 70 30.5 125.5t82.5 88t117 32.5q53 0 96 -21t71.5 -59.5t33.5 -90.5v-147q-6 -51 -33.5 -89.5t-70.5 -60.5t-97 -22zM283 57q49 0 86 22.5t58 63t21 92.5q0 53 -21.5 93t-58.5 63t-86 23
t-87 -23t-59.5 -63.5t-21.5 -92.5t21.5 -92.5t60 -63t87.5 -22.5zM514 0h-70v126l14 116l-14 113v353h70v-708z" />
    <glyph glyph-name="Emacron" unicode="&#x112;" horiz-adv-x="589" 
d="M88 0v688h73v-688h-73zM136 0v67h405v-67h-405zM136 320v65h373v-65h-373zM136 621v67h399v-67h-399zM145 848h343v-59h-343v59z" />
    <glyph glyph-name="emacron" unicode="&#x113;" horiz-adv-x="538" 
d="M288 -10q-71 0 -127 32t-88.5 88t-32.5 126q0 69 32 124.5t87 87.5t123 32q64 0 113.5 -29t78 -80.5t28.5 -118.5q0 -8 -1 -18.5t-4 -24.5h-407v60h369l-25 -22q1 52 -17.5 89.5t-53 58t-83.5 20.5q-51 0 -89 -22t-59.5 -61.5t-21.5 -93.5t22.5 -95t63 -64t93.5 -23
q43 0 79 15.5t61 46.5l45 -46q-33 -39 -81.5 -60.5t-104.5 -21.5zM110 630h343v-59h-343v59z" />
    <glyph glyph-name="Edotaccent" unicode="&#x116;" horiz-adv-x="589" 
d="M88 0v688h73v-688h-73zM136 0v67h405v-67h-405zM136 320v65h373v-65h-373zM136 621v67h399v-67h-399zM316 770q-20 0 -34 14.5t-14 34.5q0 21 14 35t34 14q22 0 35.5 -14t13.5 -35q0 -20 -13.5 -34.5t-35.5 -14.5z" />
    <glyph glyph-name="edotaccent" unicode="&#x117;" horiz-adv-x="538" 
d="M288 -10q-71 0 -127 32t-88.5 88t-32.5 126q0 69 32 124.5t87 87.5t123 32q64 0 113.5 -29t78 -80.5t28.5 -118.5q0 -8 -1 -18.5t-4 -24.5h-407v60h369l-25 -22q1 52 -17.5 89.5t-53 58t-83.5 20.5q-51 0 -89 -22t-59.5 -61.5t-21.5 -93.5t22.5 -95t63 -64t93.5 -23
q43 0 79 15.5t61 46.5l45 -46q-33 -39 -81.5 -60.5t-104.5 -21.5zM281 552q-20 0 -34 14.5t-14 34.5q0 21 14 35t34 14q22 0 35.5 -14t13.5 -35q0 -20 -13.5 -34.5t-35.5 -14.5z" />
    <glyph glyph-name="Eogonek" unicode="&#x118;" horiz-adv-x="589" 
d="M88 0v688h73v-688h-73zM136 0v67h405v-67h-405zM136 320v65h373v-65h-373zM136 621v67h399v-67h-399zM505 -208q-39 0 -68 21t-29 66q0 37 25 74t68 65l40 -18q-35 -27 -56 -54t-21 -59q0 -24 12.5 -36t36.5 -12q14 0 25.5 4.5t21.5 10.5l20 -39q-14 -9 -32 -16t-43 -7z
" />
    <glyph glyph-name="eogonek" unicode="&#x119;" horiz-adv-x="538" 
d="M288 -10q-71 0 -127 32t-88.5 88t-32.5 126q0 69 32 124.5t87 87.5t123 32q64 0 113.5 -29t78 -80.5t28.5 -118.5q0 -8 -1 -18.5t-4 -24.5h-407v60h369l-25 -22q1 52 -17.5 89.5t-53 58t-83.5 20.5q-51 0 -89 -22t-59.5 -61.5t-21.5 -93.5t22.5 -95t63 -64t93.5 -23
q43 0 79 15.5t61 46.5l45 -46q-33 -39 -81.5 -60.5t-104.5 -21.5zM351 -198q-39 0 -68 21t-29 66q0 37 25 74t68 65l40 -18q-35 -27 -56 -54t-21 -59q0 -24 12.5 -36t36.5 -12q14 0 25.5 4.5t21.5 10.5l20 -39q-14 -9 -32 -16t-43 -7z" />
    <glyph glyph-name="Ecaron" unicode="&#x11a;" horiz-adv-x="589" 
d="M88 0v688h73v-688h-73zM136 0v67h405v-67h-405zM136 320v65h373v-65h-373zM136 621v67h399v-67h-399zM449 946l32 -31l-137 -155h-56l-137 155l32 31l156 -135h-47z" />
    <glyph glyph-name="ecaron" unicode="&#x11b;" horiz-adv-x="538" 
d="M288 -10q-71 0 -127 32t-88.5 88t-32.5 126q0 69 32 124.5t87 87.5t123 32q64 0 113.5 -29t78 -80.5t28.5 -118.5q0 -8 -1 -18.5t-4 -24.5h-407v60h369l-25 -22q1 52 -17.5 89.5t-53 58t-83.5 20.5q-51 0 -89 -22t-59.5 -61.5t-21.5 -93.5t22.5 -95t63 -64t93.5 -23
q43 0 79 15.5t61 46.5l45 -46q-33 -39 -81.5 -60.5t-104.5 -21.5zM414 728l32 -31l-137 -155h-56l-137 155l32 31l156 -135h-47z" />
    <glyph glyph-name="Gbreve" unicode="&#x11e;" horiz-adv-x="773" 
d="M399 -9q-73 0 -136 27t-110 75t-73 112.5t-26 139.5t26.5 139t73.5 112.5t111 75.5t139 27q83 0 152.5 -33t114.5 -93l-51 -51q-36 51 -92 78.5t-124 27.5q-81 0 -143 -36.5t-96.5 -100.5t-34.5 -147q0 -82 34.5 -146t95 -100.5t137.5 -36.5t133.5 31t87 90t31.5 142
l42 -31h-301v67h335v-11q0 -116 -41.5 -196t-114.5 -121t-170 -41zM562 909q0 -46 -21.5 -83t-58 -59t-83.5 -22q-49 0 -86.5 22t-59 59t-21.5 83h65q0 -44 27.5 -73.5t75.5 -29.5q27 0 49.5 13.5t35.5 37t13 52.5h64z" />
    <glyph glyph-name="gbreve" unicode="&#x11f;" horiz-adv-x="582" 
d="M265 -208q-71 0 -126.5 26.5t-89.5 74.5l46 46q28 -38 71 -59t101 -21q80 0 127.5 43t47.5 117v117l14 107l-14 106v121h70v-451q0 -68 -31 -119t-86.5 -79.5t-129.5 -28.5zM270 5q-65 0 -117 31t-82 85t-30 122t29.5 121.5t81.5 84.5t117 31q55 0 98.5 -21t70 -59.5
t32.5 -90.5v-133q-6 -51 -33 -89.5t-70 -60t-97 -21.5zM283 72q49 0 85.5 21t57 59.5t20.5 90.5q0 51 -20.5 89t-57.5 60t-86 22t-87.5 -22t-60 -60t-21.5 -89q0 -50 22 -89t60 -60.5t88 -21.5zM462 691q0 -46 -21.5 -83t-58 -59t-83.5 -22q-49 0 -86.5 22t-59 59t-21.5 83
h65q0 -44 27.5 -73.5t75.5 -29.5q27 0 49.5 13.5t35.5 37t13 52.5h64z" />
    <glyph glyph-name="Gdotaccent" unicode="&#x120;" horiz-adv-x="773" 
d="M399 -9q-73 0 -136 27t-110 75t-73 112.5t-26 139.5t26.5 139t73.5 112.5t111 75.5t139 27q83 0 152.5 -33t114.5 -93l-51 -51q-36 51 -92 78.5t-124 27.5q-81 0 -143 -36.5t-96.5 -100.5t-34.5 -147q0 -82 34.5 -146t95 -100.5t137.5 -36.5t133.5 31t87 90t31.5 142
l42 -31h-301v67h335v-11q0 -116 -41.5 -196t-114.5 -121t-170 -41zM397 770q-20 0 -34 14.5t-14 34.5q0 21 14 35t34 14q22 0 35.5 -14t13.5 -35q0 -20 -13.5 -34.5t-35.5 -14.5z" />
    <glyph glyph-name="gdotaccent" unicode="&#x121;" horiz-adv-x="582" 
d="M265 -208q-71 0 -126.5 26.5t-89.5 74.5l46 46q28 -38 71 -59t101 -21q80 0 127.5 43t47.5 117v117l14 107l-14 106v121h70v-451q0 -68 -31 -119t-86.5 -79.5t-129.5 -28.5zM270 5q-65 0 -117 31t-82 85t-30 122t29.5 121.5t81.5 84.5t117 31q55 0 98.5 -21t70 -59.5
t32.5 -90.5v-133q-6 -51 -33 -89.5t-70 -60t-97 -21.5zM283 72q49 0 85.5 21t57 59.5t20.5 90.5q0 51 -20.5 89t-57.5 60t-86 22t-87.5 -22t-60 -60t-21.5 -89q0 -50 22 -89t60 -60.5t88 -21.5zM297 552q-20 0 -34 14.5t-14 34.5q0 21 14 35t34 14q22 0 35.5 -14t13.5 -35
q0 -20 -13.5 -34.5t-35.5 -14.5z" />
    <glyph glyph-name="uni0122" unicode="&#x122;" horiz-adv-x="773" 
d="M399 -9q-73 0 -136 27t-110 75t-73 112.5t-26 139.5t26.5 139t73.5 112.5t111 75.5t139 27q83 0 152.5 -33t114.5 -93l-51 -51q-36 51 -92 78.5t-124 27.5q-81 0 -143 -36.5t-96.5 -100.5t-34.5 -147q0 -82 34.5 -146t95 -100.5t137.5 -36.5t133.5 31t87 90t31.5 142
l42 -31h-301v67h335v-11q0 -116 -41.5 -196t-114.5 -121t-170 -41zM381 -310l-43 23l57 111l26 6q-4 -9 -11 -15.5t-18 -6.5q-19 0 -34.5 15.5t-15.5 38.5q0 24 17 41.5t42 17.5q23 0 40 -17.5t17 -41.5q0 -10 -3.5 -23.5t-14.5 -35.5z" />
    <glyph glyph-name="uni0123" unicode="&#x123;" horiz-adv-x="582" 
d="M265 -208q-71 0 -126.5 26.5t-89.5 74.5l46 46q28 -38 71 -59t101 -21q80 0 127.5 43t47.5 117v117l14 107l-14 106v121h70v-451q0 -68 -31 -119t-86.5 -79.5t-129.5 -28.5zM270 5q-65 0 -117 31t-82 85t-30 122t29.5 121.5t81.5 84.5t117 31q55 0 98.5 -21t70 -59.5
t32.5 -90.5v-133q-6 -51 -33 -89.5t-70 -60t-97 -21.5zM283 72q49 0 85.5 21t57 59.5t20.5 90.5q0 51 -20.5 89t-57.5 60t-86 22t-87.5 -22t-60 -60t-21.5 -89q0 -50 22 -89t60 -60.5t88 -21.5zM350 735l-57 -111l-25 -6q4 9 11 15.5t17 6.5q19 0 34.5 -15t15.5 -39
t-17 -41.5t-41 -17.5q-23 0 -40.5 17.5t-17.5 41.5q0 10 4 23.5t14 35.5l60 113z" />
    <glyph glyph-name="Hbar" unicode="&#x126;" horiz-adv-x="689" 
d="M0 525v58h689v-58h-689zM82 0v688h74v-688h-74zM533 0v688h74v-688h-74zM131 322v67h423v-67h-423z" />
    <glyph glyph-name="hbar" unicode="&#x127;" horiz-adv-x="544" 
d="M0 562v67h319v-67h-319zM413 0v276q0 62 -36.5 100.5t-96.5 38.5q-41 0 -72 -18t-49 -49t-18 -71l-32 18q0 53 25 95t67.5 66t97.5 24q54 0 96 -24.5t65.5 -67.5t23.5 -100v-288h-71zM71 0v708h70v-708h-70z" />
    <glyph glyph-name="Imacron" unicode="&#x12a;" horiz-adv-x="249" 
d="M-19 848h287v-59h-287v59zM88 0v688h73v-688h-73z" />
    <glyph glyph-name="imacron" unicode="&#x12b;" horiz-adv-x="212" 
d="M-37 630h287v-59h-287v59zM71 0v470h71v-470h-71z" />
    <glyph glyph-name="Iogonek" unicode="&#x12e;" horiz-adv-x="249" 
d="M88 0v688h73v-688h-73zM125 -208q-39 0 -68 21t-29 66q0 37 25 74t68 65l40 -18q-35 -27 -56 -54t-21 -59q0 -24 12.5 -36t36.5 -12q14 0 25.5 4.5t21.5 10.5l20 -39q-14 -9 -32 -16t-43 -7z" />
    <glyph glyph-name="iogonek" unicode="&#x12f;" horiz-adv-x="213" 
d="M71 0v470h71v-470h-71zM106 572q-20 0 -34 14.5t-14 34.5q0 21 14 35t34 14q22 0 35.5 -14t13.5 -35q0 -20 -13.5 -34.5t-35.5 -14.5zM106 -208q-39 0 -68 21t-29 66q0 37 25 74t68 65l40 -18q-35 -27 -56 -54t-21 -59q0 -24 12.5 -36t36.5 -12q14 0 25.5 4.5t21.5 10.5
l20 -39q-14 -9 -32 -16t-43 -7z" />
    <glyph glyph-name="Idotaccent" unicode="&#x130;" horiz-adv-x="249" 
d="M88 0v688h73v-688h-73zM124 770q-20 0 -34 14.5t-14 34.5q0 21 14 35t34 14q22 0 35.5 -14t13.5 -35q0 -20 -13.5 -34.5t-35.5 -14.5z" />
    <glyph glyph-name="dotlessi" unicode="&#x131;" horiz-adv-x="212" 
d="M71 0v470h71v-470h-71z" />
    <glyph glyph-name="IJ" unicode="&#x132;" horiz-adv-x="602" 
d="M319 -10q-58 0 -101.5 22.5t-74.5 61.5l52 48q22 -30 52 -45.5t70 -15.5q36 0 66 15.5t48 48.5t18 83v480h74v-479q0 -69 -27.5 -118t-74 -75t-102.5 -26zM88 220v470h71v-470h-71z" />
    <glyph glyph-name="ij" unicode="&#x133;" horiz-adv-x="431" 
d="M71 0v470h71v-470h-71zM106 572q-20 0 -34 14.5t-14 34.5q0 21 14 35t34 14q22 0 35.5 -14t13.5 -35q0 -20 -13.5 -34.5t-35.5 -14.5zM211 -208q-41 0 -71 14t-53 40l46 46q15 -18 33.5 -26t41.5 -8q34 0 58 20t24 63v529h70v-528q0 -49 -20.5 -82.5t-54.5 -50.5t-74 -17
zM325 572q-20 0 -34 14.5t-14 34.5q0 21 14 35t34 14q22 0 35.5 -14t13.5 -35q0 -20 -13.5 -34.5t-35.5 -14.5z" />
    <glyph glyph-name="uni0136" unicode="&#x136;" horiz-adv-x="659" 
d="M524 0l-376 359l368 329h98l-392 -349v42l402 -381h-100zM88 0v688h73v-688h-73zM299 -310l-43 23l57 111l26 6q-4 -9 -11 -15.5t-18 -6.5q-19 0 -34.5 15.5t-15.5 38.5q0 24 17 41.5t42 17.5q23 0 40 -17.5t17 -41.5q0 -10 -3.5 -23.5t-14.5 -35.5z" />
    <glyph glyph-name="uni0137" unicode="&#x137;" horiz-adv-x="484" 
d="M374 0l-240 241l236 229h87l-257 -247l3 40l264 -263h-93zM71 0v708h70v-708h-70zM241 -310l-43 23l57 111l26 6q-4 -9 -11 -15.5t-18 -6.5q-19 0 -34.5 15.5t-15.5 38.5q0 24 17 41.5t42 17.5q23 0 40 -17.5t17 -41.5q0 -10 -3.5 -23.5t-14.5 -35.5z" />
    <glyph glyph-name="Lacute" unicode="&#x139;" horiz-adv-x="554" 
d="M88 0v688h73v-688h-73zM136 0v67h379v-67h-379zM239 761l-32 32l133 158l56 -56z" />
    <glyph glyph-name="lacute" unicode="&#x13a;" horiz-adv-x="212" 
d="M71 0v708h70v-708h-70zM43 761l-32 32l133 158l56 -56z" />
    <glyph glyph-name="uni013B" unicode="&#x13b;" horiz-adv-x="554" 
d="M88 0v688h73v-688h-73zM136 0v67h379v-67h-379zM285 -310l-43 23l57 111l26 6q-4 -9 -11 -15.5t-18 -6.5q-19 0 -34.5 15.5t-15.5 38.5q0 24 17 41.5t42 17.5q23 0 40 -17.5t17 -41.5q0 -10 -3.5 -23.5t-14.5 -35.5z" />
    <glyph glyph-name="uni013C" unicode="&#x13c;" horiz-adv-x="212" 
d="M71 0v708h70v-708h-70zM89 -310l-43 23l57 111l26 6q-4 -9 -11 -15.5t-18 -6.5q-19 0 -34.5 15.5t-15.5 38.5q0 24 17 41.5t42 17.5q23 0 40 -17.5t17 -41.5q0 -10 -3.5 -23.5t-14.5 -35.5z" />
    <glyph glyph-name="Lcaron" unicode="&#x13d;" horiz-adv-x="554" 
d="M88 0v688h73v-688h-73zM136 0v67h379v-67h-379zM277 458l-43 23l57 111l26 6q-4 -10 -11 -16t-18 -6q-19 0 -34.5 15t-15.5 38q0 25 17 42t42 17q23 0 40 -17t17 -42q0 -10 -3.5 -23.5t-14.5 -34.5z" />
    <glyph glyph-name="lcaron" unicode="&#x13e;" horiz-adv-x="376" 
d="M71 0v708h70v-708h-70zM226 460l-43 23l57 111l26 6q-4 -10 -11 -16t-18 -6q-19 0 -34.5 15t-15.5 38q0 25 17 42t42 17q23 0 40 -17t17 -42q0 -10 -3.5 -23.5t-14.5 -34.5z" />
    <glyph glyph-name="Lslash" unicode="&#x141;" horiz-adv-x="636" 
d="M71 311l267 155v-68l-267 -155v68zM170 0v688h73v-688h-73zM218 0v67h379v-67h-379z" />
    <glyph glyph-name="lslash" unicode="&#x142;" horiz-adv-x="409" 
d="M71 311l267 155v-68l-267 -155v68zM169 0v708h71v-708h-71z" />
    <glyph glyph-name="Nacute" unicode="&#x143;" horiz-adv-x="703" 
d="M88 0v688h52l21 -87v-601h-73zM564 0l-435 590l11 98l434 -590zM564 0l-22 83v605h74v-688h-52zM290 761l-32 32l133 158l56 -56z" />
    <glyph glyph-name="nacute" unicode="&#x144;" horiz-adv-x="544" 
d="M413 0v276q0 62 -36.5 100.5t-96.5 38.5q-41 0 -72 -18t-49 -49t-18 -71l-32 18q0 53 25 95t67.5 66t97.5 24q54 0 96 -26t65.5 -70t23.5 -96v-288h-71zM71 0v470h70v-470h-70zM210 543l-32 32l133 158l56 -56z" />
    <glyph glyph-name="uni0145" unicode="&#x145;" horiz-adv-x="703" 
d="M88 0v688h52l21 -87v-601h-73zM564 0l-435 590l11 98l434 -590zM564 0l-22 83v605h74v-688h-52zM336 -310l-43 23l57 111l26 6q-4 -9 -11 -15.5t-18 -6.5q-19 0 -34.5 15.5t-15.5 38.5q0 24 17 41.5t42 17.5q23 0 40 -17.5t17 -41.5q0 -10 -3.5 -23.5t-14.5 -35.5z" />
    <glyph glyph-name="uni0146" unicode="&#x146;" horiz-adv-x="544" 
d="M413 0v276q0 62 -36.5 100.5t-96.5 38.5q-41 0 -72 -18t-49 -49t-18 -71l-32 18q0 53 25 95t67.5 66t97.5 24q54 0 96 -26t65.5 -70t23.5 -96v-288h-71zM71 0v470h70v-470h-70zM256 -310l-43 23l57 111l26 6q-4 -9 -11 -15.5t-18 -6.5q-19 0 -34.5 15.5t-15.5 38.5
q0 24 17 41.5t42 17.5q23 0 40 -17.5t17 -41.5q0 -10 -3.5 -23.5t-14.5 -35.5z" />
    <glyph glyph-name="Ncaron" unicode="&#x147;" horiz-adv-x="703" 
d="M88 0v688h52l21 -87v-601h-73zM564 0l-435 590l11 98l434 -590zM564 0l-22 83v605h74v-688h-52zM485 946l32 -31l-137 -155h-56l-137 155l32 31l156 -135h-47z" />
    <glyph glyph-name="ncaron" unicode="&#x148;" horiz-adv-x="544" 
d="M413 0v276q0 62 -36.5 100.5t-96.5 38.5q-41 0 -72 -18t-49 -49t-18 -71l-32 18q0 53 25 95t68 66t97 24t96 -26t65.5 -70t23.5 -96v-288h-71zM71 0v470h70v-470h-70zM406 728l31 -31l-136 -155h-57l-136 155l31 31l157 -135h-47z" />
    <glyph glyph-name="Eng" unicode="&#x14a;" horiz-adv-x="703" 
d="M88 0v688h52l21 -87v-601h-73zM564 0l-435 590l11 98l434 -590zM564 0l-22 83v605h74v-688h-52zM467 -208q-41 0 -71 14t-53 40l46 46q15 -18 33.5 -26t41.5 -8q34 0 58 20t24 63v529h70v-528q0 -49 -20.5 -82.5t-54.5 -50.5t-74 -17z" />
    <glyph glyph-name="eng" unicode="&#x14b;" horiz-adv-x="544" 
d="M335 -208q-41 0 -71 14t-54 40l46 46q16 -18 34 -26t41 -8q34 0 58 20t24 63v251h71v-250q0 -49 -21 -82.5t-54.5 -50.5t-73.5 -17zM413 0v276q0 62 -36.5 100.5t-96.5 38.5q-41 0 -72 -18t-49 -49t-18 -71l-32 18q0 53 25 95t68 66t97 24t96 -26t65.5 -70t23.5 -96v-288
h-71zM71 0v470h70v-470h-70z" />
    <glyph glyph-name="Omacron" unicode="&#x14c;" horiz-adv-x="794" 
d="M398 -10q-73 0 -135.5 27.5t-109.5 76t-73.5 113t-26.5 138.5q0 75 26 139t73 112t109 75t135 27t135.5 -27t109.5 -75t73 -112.5t26 -139.5q0 -74 -26 -138.5t-72.5 -112.5t-108.5 -75.5t-135 -27.5zM396 61q78 0 138.5 37t95 101t34.5 146q0 61 -20 112.5t-56 90
t-84.5 59.5t-107.5 21q-77 0 -137.5 -36.5t-95 -100.5t-34.5 -146q0 -61 20 -113t56 -90.5t85 -59.5t106 -21zM226 848h343v-59h-343v59z" />
    <glyph glyph-name="omacron" unicode="&#x14d;" horiz-adv-x="568" 
d="M284 -10q-68 0 -123.5 33t-88 89t-32.5 125q0 68 32.5 123t88 87.5t123.5 32.5q69 0 124 -32t87.5 -87.5t32.5 -123.5q0 -70 -32.5 -125.5t-87.5 -88.5t-124 -33zM284 58q50 0 88.5 23t61 64t22.5 92t-22.5 90.5t-61 62.5t-88.5 23q-49 0 -88 -23t-61 -62.5t-22 -90.5
q0 -52 22 -92.5t61 -63.5t88 -23zM113 630h343v-59h-343v59z" />
    <glyph glyph-name="Ohungarumlaut" unicode="&#x150;" horiz-adv-x="794" 
d="M398 -10q-73 0 -135.5 27.5t-109.5 76t-73.5 113t-26.5 138.5q0 75 26 139t73 112t109 75t135 27t135.5 -27t109.5 -75t73 -112.5t26 -139.5q0 -74 -26 -138.5t-72.5 -112.5t-108.5 -75.5t-135 -27.5zM396 61q78 0 138.5 37t95 101t34.5 146q0 61 -20 112.5t-56 90
t-84.5 59.5t-107.5 21q-77 0 -137.5 -36.5t-95 -100.5t-34.5 -146q0 -61 20 -113t56 -90.5t85 -59.5t106 -21zM299 754l-42 15l53 200l74 -27zM451 754l-42 15l53 200l75 -27z" />
    <glyph glyph-name="ohungarumlaut" unicode="&#x151;" horiz-adv-x="568" 
d="M284 -10q-68 0 -123.5 33t-88 89t-32.5 125q0 68 32.5 123t88 87.5t123.5 32.5q69 0 124 -32t87.5 -87.5t32.5 -123.5q0 -70 -32.5 -125.5t-87.5 -88.5t-124 -33zM284 58q50 0 88.5 23t61 64t22.5 92t-22.5 90.5t-61 62.5t-88.5 23q-49 0 -88 -23t-61 -62.5t-22 -90.5
q0 -52 22 -92.5t61 -63.5t88 -23zM186 536l-42 15l53 200l75 -27zM339 536l-42 15l53 200l74 -27z" />
    <glyph glyph-name="OE" unicode="&#x152;" horiz-adv-x="1166" 
d="M398 -10q-73 0 -135.5 27.5t-109.5 76t-73.5 113t-26.5 138.5q0 75 26 139t73 112t109 75t135 27q75 0 135 -27t102.5 -75t65.5 -112.5t23 -139.5q0 -74 -23 -138.5t-65 -112.5t-102 -75.5t-134 -27.5zM396 61q81 0 141 37t93.5 101t33.5 146q0 81 -33.5 145t-94 101
t-140.5 37q-77 0 -137.5 -36.5t-95 -100.5t-34.5 -146q0 -61 20 -113t56 -90.5t85 -59.5t106 -21zM664 0v688h74v-688h-74zM713 0v67h404v-67h-404zM713 320v65h372v-65h-372zM713 621v67h399v-67h-399z" />
    <glyph glyph-name="oe" unicode="&#x153;" horiz-adv-x="956" 
d="M284 -10q-68 0 -123.5 33t-88 89t-32.5 125q0 68 32.5 123t88 87.5t123.5 32.5q69 0 124 -32t87.5 -87.5t32.5 -123.5q0 -70 -32.5 -125.5t-87.5 -88.5t-124 -33zM284 58q50 0 88.5 23t61 64t22.5 92t-22.5 90.5t-61 62.5t-88.5 23q-49 0 -88 -23t-61 -62.5t-22 -90.5
q0 -52 22 -92.5t61 -63.5t88 -23zM706 -10q-71 0 -127 32t-88.5 88t-32.5 126q0 69 32 124.5t87 87.5t123 32q64 0 113.5 -29t78 -80.5t28.5 -118.5q0 -8 -1 -18.5t-4 -24.5h-407v60h369l-25 -22q1 52 -17.5 89.5t-53 58t-83.5 20.5q-51 0 -89 -22t-59.5 -61.5t-21.5 -93.5
t22.5 -95t63 -64t93.5 -23q43 0 79 15.5t61 46.5l45 -46q-33 -39 -81.5 -60.5t-104.5 -21.5z" />
    <glyph glyph-name="Racute" unicode="&#x154;" horiz-adv-x="633" 
d="M135 308v62h200q68 0 104 34.5t36 92.5q0 56 -36 91.5t-104 35.5h-200v64h200q67 0 115 -24.5t73.5 -67.5t25.5 -98q0 -57 -25.5 -100t-73.5 -66.5t-115 -23.5h-200zM88 0v688h73v-688h-73zM504 0l-258 318l71 23l281 -341h-94zM229 761l-32 32l133 158l56 -56z" />
    <glyph glyph-name="racute" unicode="&#x155;" horiz-adv-x="414" 
d="M71 0v470h70v-470h-70zM141 274l-29 13q0 89 43.5 141t119.5 52q35 0 64 -12.5t54 -39.5l-46 -49q-17 19 -37.5 27t-46.5 8q-54 0 -88 -35.5t-34 -104.5zM146 543l-32 32l133 158l56 -56z" />
    <glyph glyph-name="uni0156" unicode="&#x156;" horiz-adv-x="633" 
d="M135 308v62h200q68 0 104 34.5t36 92.5q0 56 -36 91.5t-104 35.5h-200v64h200q67 0 115 -24.5t73.5 -67.5t25.5 -98q0 -57 -25.5 -100t-73.5 -66.5t-115 -23.5h-200zM88 0v688h73v-688h-73zM504 0l-258 318l71 23l281 -341h-94zM293 -310l-43 23l57 111l26 6
q-4 -9 -11 -15.5t-18 -6.5q-19 0 -34.5 15.5t-15.5 38.5q0 24 17 41.5t42 17.5q23 0 40 -17.5t17 -41.5q0 -10 -3.5 -23.5t-14.5 -35.5z" />
    <glyph glyph-name="uni0157" unicode="&#x157;" horiz-adv-x="414" 
d="M71 0v470h70v-470h-70zM141 274l-29 13q0 89 43.5 141t119.5 52q35 0 64 -12.5t54 -39.5l-46 -49q-17 19 -37.5 27t-46.5 8q-54 0 -88 -35.5t-34 -104.5zM89 -310l-43 23l57 111l26 6q-4 -9 -11 -15.5t-18 -6.5q-19 0 -34.5 15.5t-15.5 38.5q0 24 17 41.5t42 17.5
q23 0 40 -17.5t17 -41.5q0 -10 -3.5 -23.5t-14.5 -35.5z" />
    <glyph glyph-name="Rcaron" unicode="&#x158;" horiz-adv-x="633" 
d="M135 308v62h200q68 0 104 34.5t36 92.5q0 56 -36 91.5t-104 35.5h-200v64h200q67 0 115 -24.5t73.5 -67.5t25.5 -98q0 -57 -25.5 -100t-73.5 -66.5t-115 -23.5h-200zM88 0v688h73v-688h-73zM504 0l-258 318l71 23l281 -341h-94zM425 946l31 -31l-136 -155h-57l-136 155
l31 31l157 -135h-47z" />
    <glyph glyph-name="rcaron" unicode="&#x159;" horiz-adv-x="414" 
d="M71 0v470h70v-470h-70zM141 274l-29 13q0 89 43.5 141t119.5 52q35 0 64 -12.5t54 -39.5l-46 -49q-17 19 -37.5 27t-46.5 8q-54 0 -88 -35.5t-34 -104.5zM342 728l31 -31l-136 -155h-57l-136 155l31 31l157 -135h-47z" />
    <glyph glyph-name="Sacute" unicode="&#x15a;" horiz-adv-x="554" 
d="M278 -10q-80 0 -138 30.5t-102 85.5l51 50q35 -49 81.5 -73t110.5 -24q66 0 107 30t41 83q0 41 -19 67.5t-49.5 43t-67.5 29.5t-73.5 27.5t-67.5 36.5t-49.5 56t-18.5 87q0 56 27 96t74 61.5t107 21.5q67 0 119.5 -26t87.5 -70l-50 -50q-32 38 -70 58t-89 20
q-60 0 -96 -28t-36 -78q0 -39 18.5 -63t49.5 -40t67.5 -28.5t73.5 -27.5t67.5 -38t49.5 -58.5t19 -90.5q0 -89 -60.5 -138.5t-164.5 -49.5zM229 761l-32 32l133 158l56 -56z" />
    <glyph glyph-name="sacute" unicode="&#x15b;" horiz-adv-x="424" 
d="M215 -10q-38 0 -73 10.5t-63.5 29.5t-49.5 45l45 46q28 -34 63.5 -50.5t79.5 -16.5q47 0 73.5 18t26.5 50q0 30 -19 47t-48.5 27t-62.5 19.5t-63 24t-48.5 40.5t-18.5 68q0 40 19.5 69.5t56 46t86.5 16.5q53 0 96 -19t69 -56l-45 -45q-21 27 -52.5 41.5t-70.5 14.5
q-45 0 -68.5 -17.5t-23.5 -45.5q0 -27 19 -42.5t48.5 -25t62.5 -19t63 -25t48.5 -42t18.5 -71.5q0 -63 -45.5 -100.5t-123.5 -37.5zM156 543l-32 32l133 158l56 -56z" />
    <glyph glyph-name="Scedilla" unicode="&#x15e;" horiz-adv-x="554" 
d="M278 -10q-80 0 -138 30.5t-102 85.5l51 50q35 -49 81.5 -73t110.5 -24q66 0 107 30t41 83q0 41 -19 67.5t-49.5 43t-67.5 29.5t-73.5 27.5t-67.5 36.5t-49.5 56t-18.5 87q0 56 27 96t74 61.5t107 21.5q67 0 119.5 -26t87.5 -70l-50 -50q-32 38 -70 58t-89 20
q-60 0 -96 -28t-36 -78q0 -39 18.5 -63t49.5 -40t67.5 -28.5t73.5 -27.5t67.5 -38t49.5 -58.5t19 -90.5q0 -89 -60.5 -138.5t-164.5 -49.5zM268 -208q-33 0 -62 10t-53 28l35 39q14 -12 33 -19.5t43 -7.5q32 0 48.5 10.5t16.5 27.5q0 18 -17 29t-50 11h-36l28 91h58l-23 -70
l-27 23q61 1 95.5 -22.5t34.5 -62.5t-33.5 -63t-90.5 -24z" />
    <glyph glyph-name="scedilla" unicode="&#x15f;" horiz-adv-x="424" 
d="M215 -10q-38 0 -73 10.5t-63.5 29.5t-49.5 45l45 46q28 -34 63.5 -50.5t79.5 -16.5q47 0 73.5 18t26.5 50q0 30 -19 47t-48.5 27t-62.5 19.5t-63 24t-48.5 40.5t-18.5 68q0 40 19.5 69.5t56 46t86.5 16.5q53 0 96 -19t69 -56l-45 -45q-21 27 -52.5 41.5t-70.5 14.5
q-45 0 -68.5 -17.5t-23.5 -45.5q0 -27 19 -42.5t48.5 -25t62.5 -19t63 -25t48.5 -42t18.5 -71.5q0 -63 -45.5 -100.5t-123.5 -37.5zM205 -208q-33 0 -62 10t-53 28l35 39q14 -12 33 -19.5t43 -7.5q32 0 48.5 10.5t16.5 27.5q0 18 -17 29t-50 11h-36l28 91h58l-23 -70l-27 23
q61 1 95.5 -22.5t34.5 -62.5t-33.5 -63t-90.5 -24z" />
    <glyph glyph-name="Scaron" unicode="&#x160;" horiz-adv-x="554" 
d="M278 -10q-80 0 -138 30.5t-102 85.5l51 50q35 -49 81.5 -73t110.5 -24q66 0 107 30t41 83q0 41 -19 67.5t-49.5 43t-67.5 29.5t-73.5 27.5t-67.5 36.5t-49.5 56t-18.5 87q0 56 27 96t74 61.5t107 21.5q67 0 119.5 -26t87.5 -70l-50 -50q-32 38 -70 58t-89 20
q-60 0 -96 -28t-36 -78q0 -39 18.5 -63t49.5 -40t67.5 -28.5t73.5 -27.5t67.5 -38t49.5 -58.5t19 -90.5q0 -89 -60.5 -138.5t-164.5 -49.5zM425 946l31 -31l-136 -155h-57l-136 155l31 31l157 -135h-47z" />
    <glyph glyph-name="scaron" unicode="&#x161;" horiz-adv-x="424" 
d="M215 -10q-38 0 -73 10.5t-63.5 29.5t-49.5 45l45 46q28 -34 63.5 -50.5t79.5 -16.5q47 0 73.5 18t26.5 50q0 30 -19 47t-48.5 27t-62.5 19.5t-63 24t-48.5 40.5t-18.5 68q0 40 19.5 69.5t56 46t86.5 16.5q53 0 96 -19t69 -56l-45 -45q-21 27 -52.5 41.5t-70.5 14.5
q-45 0 -68.5 -17.5t-23.5 -45.5q0 -27 19 -42.5t48.5 -25t62.5 -19t63 -25t48.5 -42t18.5 -71.5q0 -63 -45.5 -100.5t-123.5 -37.5zM352 728l31 -31l-136 -155h-57l-136 155l31 31l157 -135h-47z" />
    <glyph glyph-name="Tcaron" unicode="&#x164;" horiz-adv-x="632" 
d="M279 0v669h74v-669h-74zM37 621v67h558v-67h-558zM449 946l32 -31l-137 -155h-56l-137 155l32 31l156 -135h-47z" />
    <glyph glyph-name="tcaron" unicode="&#x165;" horiz-adv-x="440" 
d="M144 0v668h70v-668h-70zM25 407v63h307v-63h-307zM284 502l-43 23l57 111l26 6q-4 -10 -11 -16t-18 -6q-19 0 -34.5 15t-15.5 38q0 25 17 42t42 17q23 0 40 -17t17 -42q0 -10 -3.5 -23.5t-14.5 -34.5z" />
    <glyph glyph-name="Umacron" unicode="&#x16a;" horiz-adv-x="676" 
d="M339 -10q-75 0 -133.5 33.5t-92.5 92t-34 131.5v441h74v-437q0 -58 24 -101t66.5 -66t95.5 -23t94.5 23t66 65.5t24.5 100.5v438h73v-442q0 -73 -33.5 -131t-92 -91.5t-132.5 -33.5zM167 848h343v-59h-343v59z" />
    <glyph glyph-name="umacron" unicode="&#x16b;" horiz-adv-x="515" 
d="M257 -10q-57 0 -102 26.5t-70.5 72.5t-25.5 108v273h71v-270q0 -43 15.5 -75t44.5 -50t67 -18q59 0 93.5 39t34.5 104v270h70v-273q0 -61 -25 -108t-70 -73t-103 -26zM86 630h343v-59h-343v59z" />
    <glyph glyph-name="Ubreve" unicode="&#x16c;" horiz-adv-x="676" 
d="M339 -10q-75 0 -133.5 33.5t-92.5 92t-34 131.5v441h74v-437q0 -58 24 -101t66.5 -66t95.5 -23t94.5 23t66 65.5t24.5 100.5v438h73v-442q0 -73 -33.5 -131t-92 -91.5t-132.5 -33.5zM503 909q0 -46 -21.5 -83t-58 -59t-83.5 -22q-49 0 -86.5 22t-59 59t-21.5 83h65
q0 -44 27.5 -73.5t75.5 -29.5q27 0 49.5 13.5t35.5 37t13 52.5h64z" />
    <glyph glyph-name="ubreve" unicode="&#x16d;" horiz-adv-x="515" 
d="M257 -10q-57 0 -102 26.5t-70.5 72.5t-25.5 108v273h71v-270q0 -43 15.5 -75t44.5 -50t67 -18q59 0 93.5 39t34.5 104v270h70v-273q0 -61 -25 -108t-70 -73t-103 -26zM423 691q0 -46 -21.5 -83t-58 -59t-83.5 -22q-49 0 -86.5 22t-59 59t-21.5 83h65q0 -44 27.5 -73.5
t75.5 -29.5q27 0 49.5 13.5t35.5 37t13 52.5h64z" />
    <glyph glyph-name="Uring" unicode="&#x16e;" horiz-adv-x="676" 
d="M339 -10q-75 0 -133.5 33.5t-92.5 92t-34 131.5v441h74v-437q0 -58 24 -101t66.5 -66t95.5 -23t94.5 23t66 65.5t24.5 100.5v438h73v-442q0 -73 -33.5 -131t-92 -91.5t-132.5 -33.5zM339 745q-33 0 -59 15t-41 40.5t-15 57.5t15 57.5t41 40.5t59 15q32 0 57.5 -15
t40 -40.5t14.5 -57.5t-14.5 -57.5t-39.5 -40.5t-58 -15zM340 798q23 0 40 17t17 43t-17 43.5t-40 17.5q-28 0 -44.5 -17.5t-16.5 -43.5q0 -25 16.5 -42.5t44.5 -17.5z" />
    <glyph glyph-name="uring" unicode="&#x16f;" horiz-adv-x="515" 
d="M257 -10q-57 0 -102 26.5t-70.5 72.5t-25.5 108v273h71v-270q0 -43 15.5 -75t44.5 -50t67 -18q59 0 93.5 39t34.5 104v270h70v-273q0 -61 -25 -108t-70 -73t-103 -26zM259 527q-33 0 -59 15t-41 40.5t-15 57.5t15 57.5t41 40.5t59 15q32 0 57.5 -15t40 -40.5t14.5 -57.5
t-14.5 -57.5t-39.5 -40.5t-58 -15zM260 580q23 0 40 17t17 43t-17 43.5t-40 17.5q-28 0 -44.5 -17.5t-16.5 -43.5q0 -25 16.5 -42.5t44.5 -17.5z" />
    <glyph glyph-name="Uhungarumlaut" unicode="&#x170;" horiz-adv-x="676" 
d="M339 -10q-75 0 -133.5 33.5t-92.5 92t-34 131.5v441h74v-437q0 -58 24 -101t66.5 -66t95.5 -23t94.5 23t66 65.5t24.5 100.5v438h73v-442q0 -73 -33.5 -131t-92 -91.5t-132.5 -33.5zM240 754l-42 15l53 200l74 -27zM392 754l-42 15l53 200l75 -27z" />
    <glyph glyph-name="uhungarumlaut" unicode="&#x171;" horiz-adv-x="515" 
d="M257 -10q-57 0 -102 26.5t-70.5 73t-25.5 107.5v273h71v-270q0 -43 15.5 -75t44.5 -50t67 -18q59 0 93.5 39t34.5 104v270h70v-273q0 -61 -25 -108t-69.5 -73t-103.5 -26zM159 536l-42 15l53 200l75 -27zM312 536l-42 15l53 200l74 -27z" />
    <glyph glyph-name="Uogonek" unicode="&#x172;" horiz-adv-x="676" 
d="M339 -10q-75 0 -133.5 33.5t-92.5 92t-34 131.5v441h74v-437q0 -58 24 -101t66.5 -66t95.5 -23t94.5 23t66 65.5t24.5 100.5v438h73v-442q0 -73 -33.5 -131t-92 -91.5t-132.5 -33.5zM406 -198q-39 0 -68 21t-29 66q0 37 25 74t68 65l40 -18q-35 -27 -56 -54t-21 -59
q0 -24 12.5 -36t36.5 -12q14 0 25.5 4.5t21.5 10.5l20 -39q-14 -9 -32 -16t-43 -7z" />
    <glyph glyph-name="uogonek" unicode="&#x173;" horiz-adv-x="515" 
d="M257 -10q-57 0 -102 26.5t-70.5 72.5t-25.5 108v273h71v-270q0 -43 15.5 -75t44.5 -50t67 -18q59 0 93.5 39t34.5 104v270h70v-273q0 -61 -25 -108t-70 -73t-103 -26zM312 -198q-39 0 -68 21t-29 66q0 37 25 74t68 65l40 -18q-35 -27 -56 -54t-21 -59q0 -24 12.5 -36
t36.5 -12q14 0 25.5 4.5t21.5 10.5l20 -39q-14 -9 -32 -16t-43 -7z" />
    <glyph glyph-name="Wcircumflex" unicode="&#x174;" horiz-adv-x="979" 
d="M261 0l-222 688h73l187 -592h-22l185 592h55l186 -592h-23l187 592h74l-223 -688h-54l-185 591h21l-185 -591h-54zM357 760l-32 32l137 154h56l137 -154l-32 -32l-156 136l47 -1z" />
    <glyph glyph-name="wcircumflex" unicode="&#x175;" horiz-adv-x="746" 
d="M202 0l-181 470h73l143 -390l-26 -1l142 391h41l142 -391l-26 1l142 390h74l-182 -470h-41l-145 385h30l-144 -385h-42zM240 542l-32 32l137 154h56l137 -154l-32 -32l-156 136l47 -1z" />
    <glyph glyph-name="Ycircumflex" unicode="&#x176;" horiz-adv-x="659" 
d="M308 284l-273 404h86l227 -339h-36l229 339h83l-275 -404h-41zM293 0v337h74v-337h-74zM197 760l-32 32l137 154h56l137 -154l-32 -32l-156 136l47 -1z" />
    <glyph glyph-name="ycircumflex" unicode="&#x177;" horiz-adv-x="510" 
d="M228 -2l-206 472h77l166 -394h-29l175 394h78l-221 -472h-40zM100 -198l129 267l39 -71l-91 -196h-77zM122 542l-32 32l137 154h56l137 -154l-32 -32l-156 136l47 -1z" />
    <glyph glyph-name="Ydieresis" unicode="&#x178;" horiz-adv-x="659" 
d="M308 284l-273 404h86l227 -339h-36l229 339h83l-275 -404h-41zM293 0v337h74v-337h-74zM234 770q-20 0 -34 14.5t-14 34.5q0 21 14 35t34 14q22 0 35.5 -14t13.5 -35q0 -20 -13.5 -34.5t-35.5 -14.5zM424 770q-20 0 -34 14.5t-14 34.5q0 21 14 35t34 14q22 0 35.5 -14
t13.5 -35q0 -20 -13.5 -34.5t-35.5 -14.5z" />
    <glyph glyph-name="Zacute" unicode="&#x179;" horiz-adv-x="577" 
d="M43 49l402 590h87l-402 -590h-87zM43 0v49l63 18h418v-67h-481zM62 621v67h470v-49l-64 -18h-406zM229 761l-32 32l133 158l56 -56z" />
    <glyph glyph-name="zacute" unicode="&#x17a;" horiz-adv-x="442" 
d="M30 39l297 393h83l-297 -393h-83zM30 0v39l61 25h313v-64h-374zM47 407v63h363v-38l-66 -25h-297zM173 543l-32 32l133 158l56 -56z" />
    <glyph glyph-name="Zdotaccent" unicode="&#x17b;" horiz-adv-x="577" 
d="M43 49l402 590h87l-402 -590h-87zM43 0v49l63 18h418v-67h-481zM62 621v67h470v-49l-64 -18h-406zM291 770q-20 0 -34 14.5t-14 34.5q0 21 14 35t34 14q22 0 35.5 -14t13.5 -35q0 -20 -13.5 -34.5t-35.5 -14.5z" />
    <glyph glyph-name="zdotaccent" unicode="&#x17c;" horiz-adv-x="442" 
d="M30 39l297 393h83l-297 -393h-83zM30 0v39l61 25h313v-64h-374zM47 407v63h363v-38l-66 -25h-297zM235 552q-20 0 -34 14.5t-14 34.5q0 21 14 35t34 14q22 0 35.5 -14t13.5 -35q0 -20 -13.5 -34.5t-35.5 -14.5z" />
    <glyph glyph-name="Zcaron" unicode="&#x17d;" horiz-adv-x="577" 
d="M43 49l402 590h87l-402 -590h-87zM43 0v49l63 18h418v-67h-481zM62 621v67h470v-49l-64 -18h-406zM424 946l32 -31l-137 -155h-56l-137 155l32 31l156 -135h-47z" />
    <glyph glyph-name="zcaron" unicode="&#x17e;" horiz-adv-x="442" 
d="M30 39l297 393h83l-297 -393h-83zM30 0v39l61 25h313v-64h-374zM47 407v63h363v-38l-66 -25h-297zM369 728l31 -31l-136 -155h-57l-136 155l31 31l157 -135h-47z" />
    <glyph glyph-name="uni01CD" unicode="&#x1cd;" horiz-adv-x="690" 
d="M37 0l282 688h55l279 -688h-79l-243 608h29l-245 -608h-78zM166 179v65h360v-65h-360zM478 946l32 -31l-137 -155h-56l-137 155l32 31l156 -135h-47z" />
    <glyph glyph-name="uni01CE" unicode="&#x1ce;" horiz-adv-x="585" 
d="M275 -10q-67 0 -120 32.5t-83.5 87.5t-30.5 124q0 70 30.5 125.5t83.5 88t119 32.5q54 0 96.5 -21.5t69 -60t32.5 -89.5v-147q-6 -51 -32.5 -90t-69 -60.5t-95.5 -21.5zM286 57q73 0 117.5 49t44.5 129q0 53 -20.5 93.5t-57 63t-85.5 22.5q-50 0 -88.5 -23t-61 -63.5
t-22.5 -92.5t22.5 -92t61.5 -63t89 -23zM444 0v126l14 116l-14 113v115h70v-470h-70zM430 728l32 -31l-137 -155h-56l-137 155l32 31l156 -135h-47z" />
    <glyph glyph-name="uni0218" unicode="&#x218;" horiz-adv-x="554" 
d="M278 -10q-80 0 -138 30.5t-102 85.5l51 50q35 -49 81.5 -73t110.5 -24q66 0 107 30t41 83q0 41 -19 67.5t-49.5 43t-67.5 29.5t-73.5 27.5t-67.5 36.5t-49.5 56t-18.5 87q0 56 27 96t74 61.5t107 21.5q67 0 119.5 -26t87.5 -70l-50 -50q-32 38 -70 58t-89 20
q-60 0 -96 -28t-36 -78q0 -39 18.5 -63t49.5 -40t67.5 -28.5t73.5 -27.5t67.5 -38t49.5 -58.5t19 -90.5q0 -89 -60.5 -138.5t-164.5 -49.5zM265 -310l-43 23l57 111l26 6q-4 -9 -11 -15.5t-18 -6.5q-19 0 -34.5 15.5t-15.5 38.5q0 24 17 41.5t42 17.5q23 0 40 -17.5
t17 -41.5q0 -10 -3.5 -23.5t-14.5 -35.5z" />
    <glyph glyph-name="uni0219" unicode="&#x219;" horiz-adv-x="424" 
d="M215 -10q-38 0 -73 10.5t-63.5 29.5t-49.5 45l45 46q28 -34 63.5 -50.5t79.5 -16.5q47 0 73.5 18t26.5 50q0 30 -19 47t-48.5 27t-62.5 19.5t-63 24t-48.5 40.5t-18.5 68q0 40 19.5 69.5t56 46t86.5 16.5q53 0 96 -19t69 -56l-45 -45q-21 27 -52.5 41.5t-70.5 14.5
q-45 0 -68.5 -17.5t-23.5 -45.5q0 -27 19 -42.5t48.5 -25t62.5 -19t63 -25t48.5 -42t18.5 -71.5q0 -63 -45.5 -100.5t-123.5 -37.5zM202 -310l-43 23l57 111l26 6q-4 -9 -11 -15.5t-18 -6.5q-19 0 -34.5 15.5t-15.5 38.5q0 24 17 41.5t42 17.5q23 0 40 -17.5t17 -41.5
q0 -10 -3.5 -23.5t-14.5 -35.5z" />
    <glyph glyph-name="uni021A" unicode="&#x21a;" horiz-adv-x="632" 
d="M279 0v669h74v-669h-74zM37 621v67h558v-67h-558zM300 -310l-43 23l57 111l26 6q-4 -9 -11 -15.5t-18 -6.5q-19 0 -34.5 15.5t-15.5 38.5q0 24 17 41.5t42 17.5q23 0 40 -17.5t17 -41.5q0 -10 -3.5 -23.5t-14.5 -35.5z" />
    <glyph glyph-name="uni021B" unicode="&#x21b;" horiz-adv-x="357" 
d="M144 0v668h70v-668h-70zM25 407v63h307v-63h-307zM163 -310l-43 23l57 111l26 6q-4 -9 -11 -15.5t-18 -6.5q-19 0 -34.5 15.5t-15.5 38.5q0 24 17 41.5t42 17.5q23 0 40 -17.5t17 -41.5q0 -10 -3.5 -23.5t-14.5 -35.5z" />
    <glyph glyph-name="uni0237" unicode="&#x237;" horiz-adv-x="218" 
d="M-2 -208q-41 0 -71 14t-53 40l46 46q15 -18 33.5 -26t41.5 -8q34 0 58 20t24 63v529h70v-528q0 -49 -20.5 -82.5t-54.5 -50.5t-74 -17z" />
    <glyph glyph-name="apostrophe" unicode="&#x2bc;" horiz-adv-x="252" 
d="M55 511l75 111l28 6q-4 -10 -11 -16t-18 -6q-19 0 -34.5 15t-15.5 38q0 25 17 42t42 17q24 0 40.5 -16.5t16.5 -41.5q0 -10 -4.5 -24.5t-17.5 -34.5l-75 -113z" />
    <glyph glyph-name="circumflex" unicode="&#x2c6;" horiz-adv-x="410" 
d="M72 542l-32 32l137 154h56l137 -154l-32 -32l-156 136l47 -1z" />
    <glyph glyph-name="caron" unicode="&#x2c7;" horiz-adv-x="410" 
d="M338 728l32 -31l-137 -155h-56l-137 155l32 31l156 -135h-47z" />
    <glyph glyph-name="breve" unicode="&#x2d8;" horiz-adv-x="410" 
d="M370 691q0 -46 -21.5 -83t-58 -59t-83.5 -22q-49 0 -86.5 22t-59 59t-21.5 83h65q0 -44 27.5 -73.5t75.5 -29.5q27 0 49.5 13.5t35.5 37t13 52.5h64z" />
    <glyph glyph-name="dotaccent" unicode="&#x2d9;" horiz-adv-x="277" 
d="M138 552q-20 0 -34 14.5t-14 34.5q0 21 14 35t34 14q22 0 35.5 -14t13.5 -35q0 -20 -13.5 -34.5t-35.5 -14.5z" />
    <glyph glyph-name="ring" unicode="&#x2da;" horiz-adv-x="307" 
d="M155 527q-33 0 -59 15t-41 40.5t-15 57.5t15 57.5t41 40.5t59 15q32 0 57.5 -15t40 -40.5t14.5 -57.5t-14.5 -57.5t-39.5 -40.5t-58 -15zM156 580q23 0 40 17t17 43t-17 43.5t-40 17.5q-28 0 -44.5 -17.5t-16.5 -43.5q0 -25 16.5 -42.5t44.5 -17.5z" />
    <glyph glyph-name="ogonek" unicode="&#x2db;" horiz-adv-x="250" 
d="M135 -208q-39 0 -68 21t-29 66q0 37 25 74t68 65l40 -18q-35 -27 -56 -54t-21 -59q0 -24 12.5 -36t36.5 -12q14 0 25.5 4.5t21.5 10.5l20 -39q-14 -9 -32 -16t-43 -7z" />
    <glyph glyph-name="tilde" unicode="&#x2dc;" horiz-adv-x="435" 
d="M291 548q-32 0 -54 11.5t-42.5 22.5t-45.5 11q-27 0 -42 -10t-28 -28l-39 38q22 27 46.5 44t61.5 17q33 0 55.5 -11t42.5 -22.5t44 -11.5t39 9.5t27 27.5l39 -37q-21 -28 -45.5 -44.5t-58.5 -16.5z" />
    <glyph glyph-name="hungarumlaut" unicode="&#x2dd;" horiz-adv-x="360" 
d="M82 526l-42 15l53 200l75 -27zM235 526l-42 15l53 200l74 -27z" />
    <glyph glyph-name="gravecomb" unicode="&#x300;" 
d="M197 538l-157 134l56 56l133 -158z" />
    <glyph glyph-name="acutecomb" unicode="&#x301;" 
d="M72 543l-32 32l133 158l56 -56z" />
    <glyph glyph-name="uni0302" unicode="&#x302;" 
d="M72 542l-32 32l137 154h56l137 -154l-32 -32l-156 136l47 -1z" />
    <glyph glyph-name="tildecomb" unicode="&#x303;" 
d="M291 548q-32 0 -54 11.5t-42.5 22.5t-45.5 11q-27 0 -42 -10t-28 -28l-39 38q22 27 46.5 44t61.5 17q33 0 55.5 -11t42.5 -22.5t44 -11.5t39 9.5t27 27.5l39 -37q-21 -28 -45.5 -44.5t-58.5 -16.5z" />
    <glyph glyph-name="uni0304" unicode="&#x304;" 
d="M40 630h343v-59h-343v59z" />
    <glyph glyph-name="uni0306" unicode="&#x306;" 
d="M370 691q0 -46 -21.5 -83t-58 -59t-83.5 -22q-49 0 -86.5 22t-59 59t-21.5 83h65q0 -44 27.5 -73.5t75.5 -29.5q27 0 49.5 13.5t35.5 37t13 52.5h64z" />
    <glyph glyph-name="uni0307" unicode="&#x307;" 
d="M138 552q-20 0 -34 14.5t-14 34.5q0 21 14 35t34 14q22 0 35.5 -14t13.5 -35q0 -20 -13.5 -34.5t-35.5 -14.5z" />
    <glyph glyph-name="uni0308" unicode="&#x308;" 
d="M108 552q-20 0 -34 14.5t-14 34.5q0 21 14 35t34 14q22 0 35.5 -14t13.5 -35q0 -20 -13.5 -34.5t-35.5 -14.5zM298 552q-20 0 -34 14.5t-14 34.5q0 21 14 35t34 14q22 0 35.5 -14t13.5 -35q0 -20 -13.5 -34.5t-35.5 -14.5z" />
    <glyph glyph-name="uni030A" unicode="&#x30a;" 
d="M155 527q-33 0 -59 15t-41 40.5t-15 57.5t15 57.5t41 40.5t59 15q32 0 57.5 -15t40 -40.5t14.5 -57.5t-14.5 -57.5t-39.5 -40.5t-58 -15zM156 580q23 0 40 17t17 43t-17 43.5t-40 17.5q-28 0 -44.5 -17.5t-16.5 -43.5q0 -25 16.5 -42.5t44.5 -17.5z" />
    <glyph glyph-name="uni030B" unicode="&#x30b;" 
d="M82 526l-42 15l53 200l75 -27zM235 526l-42 15l53 200l74 -27z" />
    <glyph glyph-name="uni030C" unicode="&#x30c;" 
d="M338 728l32 -31l-137 -155h-56l-137 155l32 31l156 -135h-47z" />
    <glyph glyph-name="uni0312" unicode="&#x312;" 
d="M160 735l-57 -111l-25 -6q4 9 11 15.5t17 6.5q19 0 34.5 -15t15.5 -39t-17 -41.5t-41 -17.5q-23 0 -40.5 17.5t-17.5 41.5q0 10 4 23.5t14 35.5l60 113z" />
    <glyph glyph-name="uni0326" unicode="&#x326;" 
d="M84 -310l-43 23l57 111l26 6q-4 -9 -11 -15.5t-18 -6.5q-19 0 -34.5 15.5t-15.5 38.5q0 24 17 41.5t42 17.5q23 0 40 -17.5t17 -41.5q0 -10 -3.5 -23.5t-14.5 -35.5z" />
    <glyph glyph-name="uni0327" unicode="&#x327;" 
d="M131 -208q-33 0 -62 10t-53 28l35 39q14 -12 33 -19.5t43 -7.5q32 0 48.5 10.5t16.5 27.5q0 18 -17 29t-50 11h-36l28 91h58l-23 -70l-27 23q61 1 95.5 -22.5t34.5 -62.5t-33.5 -63t-90.5 -24z" />
    <glyph glyph-name="uni0328" unicode="&#x328;" 
d="M135 -208q-39 0 -68 21t-29 66q0 37 25 74t68 65l40 -18q-35 -27 -56 -54t-21 -59q0 -24 12.5 -36t36.5 -12q14 0 25.5 4.5t21.5 10.5l20 -39q-14 -9 -32 -16t-43 -7z" />
    <glyph glyph-name="Wgrave" unicode="&#x1e80;" horiz-adv-x="979" 
d="M261 0l-222 688h73l187 -592h-22l185 592h55l186 -592h-23l187 592h74l-223 -688h-54l-185 591h21l-185 -591h-54zM529 756l-157 134l56 56l133 -158z" />
    <glyph glyph-name="wgrave" unicode="&#x1e81;" horiz-adv-x="746" 
d="M202 0l-181 470h73l143 -390l-26 -1l142 391h41l142 -391l-26 1l142 390h74l-182 -470h-41l-145 385h30l-144 -385h-42zM413 538l-157 134l56 56l133 -158z" />
    <glyph glyph-name="Wacute" unicode="&#x1e82;" horiz-adv-x="979" 
d="M261 0l-222 688h73l187 -592h-22l185 592h55l186 -592h-23l187 592h74l-223 -688h-54l-185 591h21l-185 -591h-54zM427 761l-32 32l133 158l56 -56z" />
    <glyph glyph-name="wacute" unicode="&#x1e83;" horiz-adv-x="746" 
d="M202 0l-181 470h73l143 -390l-26 -1l142 391h41l142 -391l-26 1l142 390h74l-182 -470h-41l-145 385h30l-144 -385h-42zM311 543l-32 32l133 158l56 -56z" />
    <glyph glyph-name="Wdieresis" unicode="&#x1e84;" horiz-adv-x="979" 
d="M261 0l-222 688h73l187 -592h-22l185 592h55l186 -592h-23l187 592h74l-223 -688h-54l-185 591h21l-185 -591h-54zM394 770q-20 0 -34 14.5t-14 34.5q0 21 14 35t34 14q22 0 35.5 -14t13.5 -35q0 -20 -13.5 -34.5t-35.5 -14.5zM584 770q-20 0 -34 14.5t-14 34.5
q0 21 14 35t34 14q22 0 35.5 -14t13.5 -35q0 -20 -13.5 -34.5t-35.5 -14.5z" />
    <glyph glyph-name="wdieresis" unicode="&#x1e85;" horiz-adv-x="746" 
d="M202 0l-181 470h73l143 -390l-26 -1l142 391h41l142 -391l-26 1l142 390h74l-182 -470h-41l-145 385h30l-144 -385h-42zM278 552q-20 0 -34 14.5t-14 34.5q0 21 14 35t34 14q22 0 35.5 -14t13.5 -35q0 -20 -13.5 -34.5t-35.5 -14.5zM468 552q-20 0 -34 14.5t-14 34.5
q0 21 14 35t34 14q22 0 35.5 -14t13.5 -35q0 -20 -13.5 -34.5t-35.5 -14.5z" />
    <glyph glyph-name="uni1E9E" unicode="&#x1e9e;" horiz-adv-x="714" 
d="M349 405l219 216l67 -23l-205 -199l-81 -39v45zM423 -6q-61 0 -103.5 17.5t-69.5 50.5l10 82q25 -38 68 -59.5t94 -21.5q50 0 86.5 19t57 53.5t20.5 80.5q0 47 -20.5 81t-58 53t-89.5 19q-17 0 -34.5 -2t-34.5 -7l28 41q17 9 37 14t44 5q57 0 103 -26.5t72.5 -73
t26.5 -107.5q0 -65 -30 -114t-83.5 -77t-123.5 -28zM375 705q56 0 103.5 -8t82.5 -19.5t54.5 -19.5l19.5 -8v-52l-16 4t-43 11t-61 13.5t-70 10.5t-69 4q-66 0 -115 -21t-76 -57.5t-27 -81.5v-481h-70v485q0 68 38 117t103 76t146 27z" />
    <glyph glyph-name="Ygrave" unicode="&#x1ef2;" horiz-adv-x="659" 
d="M308 284l-273 404h86l227 -339h-36l229 339h83l-275 -404h-41zM293 0v337h74v-337h-74zM369 756l-157 134l56 56l133 -158z" />
    <glyph glyph-name="ygrave" unicode="&#x1ef3;" horiz-adv-x="510" 
d="M228 -2l-206 472h77l166 -394h-29l175 394h78l-221 -472h-40zM100 -198l129 267l39 -71l-91 -196h-77zM295 538l-157 134l56 56l133 -158z" />
    <glyph glyph-name="endash" unicode="&#x2013;" horiz-adv-x="545" 
d="M71 224v60h403v-60h-403z" />
    <glyph glyph-name="emdash" unicode="&#x2014;" horiz-adv-x="843" 
d="M71 225v58h698v-58h-698z" />
    <glyph glyph-name="quoteleft" unicode="&#x2018;" horiz-adv-x="246" 
d="M180 695l-57 -111l-26 -6q4 9 11.5 15.5t17.5 6.5q19 0 34.5 -15t15.5 -39t-17.5 -41.5t-41.5 -17.5q-23 0 -40 17.5t-17 41.5q0 10 3.5 23.5t14.5 35.5l59 113z" />
    <glyph glyph-name="quoteright" unicode="&#x2019;" horiz-adv-x="246" 
d="M67 491l57 111l25 6q-4 -10 -11 -16t-17 -6q-19 0 -34.5 15t-15.5 38q0 25 17 42t41 17q23 0 40.5 -17t17.5 -42q0 -10 -3.5 -23.5t-14.5 -34.5l-60 -113z" />
    <glyph glyph-name="quotesinglbase" unicode="&#x201a;" horiz-adv-x="274" 
d="M81 -103l57 111l25 6q-4 -9 -11 -15.5t-17 -6.5q-19 0 -34.5 15.5t-15.5 38.5q0 24 17 41.5t41 17.5q23 0 40.5 -17.5t17.5 -41.5q0 -10 -3.5 -23.5t-14.5 -35.5l-60 -113z" />
    <glyph glyph-name="quotedblleft" unicode="&#x201c;" horiz-adv-x="410" 
d="M180 695l-57 -111l-26 -6q4 9 11.5 15.5t17.5 6.5q19 0 34.5 -15t15.5 -39t-17.5 -41.5t-41.5 -17.5q-23 0 -40 17.5t-17 41.5q0 10 3.5 23.5t14.5 35.5l59 113zM344 695l-57 -111l-26 -6q4 9 11.5 15.5t17.5 6.5q19 0 34.5 -15t15.5 -39t-17.5 -41.5t-41.5 -17.5
q-23 0 -40 17.5t-17 41.5q0 10 3.5 23.5t14.5 35.5l59 113z" />
    <glyph glyph-name="quotedblright" unicode="&#x201d;" horiz-adv-x="410" 
d="M231 491l57 111l25 6q-4 -10 -11 -16t-17 -6q-19 0 -34.5 15t-15.5 38q0 25 17 42t41 17q23 0 40.5 -17t17.5 -42q0 -10 -3.5 -23.5t-14.5 -34.5l-60 -113zM67 491l57 111l25 6q-4 -10 -11 -16t-17 -6q-19 0 -34.5 15t-15.5 38q0 25 17 42t41 17q23 0 40.5 -17t17.5 -42
q0 -10 -3.5 -23.5t-14.5 -34.5l-60 -113z" />
    <glyph glyph-name="quotedblbase" unicode="&#x201e;" horiz-adv-x="438" 
d="M245 -102l57 111l25 6q-4 -10 -11 -16t-17 -6q-19 0 -34.5 15t-15.5 38q0 25 17 42t41 17q23 0 40.5 -17t17.5 -42q0 -10 -3.5 -23.5t-14.5 -34.5l-60 -113zM81 -102l57 111l25 6q-4 -10 -11 -16t-17 -6q-19 0 -34.5 15t-15.5 38q0 25 17 42t41 17q23 0 40.5 -17
t17.5 -42q0 -10 -3.5 -23.5t-14.5 -34.5l-60 -113z" />
    <glyph glyph-name="bullet" unicode="&#x2022;" horiz-adv-x="318" 
d="M159 272q-26 0 -46 12t-31.5 32.5t-11.5 45.5q0 24 11.5 44.5t31.5 32.5t46 12t46 -12t31.5 -32.5t11.5 -44.5q0 -25 -11.5 -45.5t-31.5 -32.5t-46 -12z" />
    <glyph glyph-name="ellipsis" unicode="&#x2026;" horiz-adv-x="729" 
d="M365 -10q-25 0 -41 17t-16 41t16 40.5t41 16.5q24 0 40 -16.5t16 -40.5t-16 -41t-40 -17zM585 -10q-25 0 -41 17t-16 41t16 40.5t41 16.5q24 0 40 -16.5t16 -40.5t-16 -41t-40 -17zM145 -10q-25 0 -41 17t-16 41t16 40.5t41 16.5q24 0 40 -16.5t16 -40.5t-16 -41t-40 -17
z" />
    <glyph glyph-name="guilsinglleft" unicode="&#x2039;" horiz-adv-x="271" 
d="M157 82l-114 156l114 156h73l-118 -156l118 -156h-73z" />
    <glyph glyph-name="guilsinglright" unicode="&#x203a;" horiz-adv-x="271" 
d="M42 82l117 156l-117 156h73l114 -156l-114 -156h-73z" />
    <glyph glyph-name="fraction" unicode="&#x2044;" horiz-adv-x="637" 
d="M271 300l31 -28l-198 -285l-62 58zM360 391l-31 27l198 285l62 -57z" />
    <glyph glyph-name="uni2074" unicode="&#x2074;" horiz-adv-x="351" 
d="M38 454l119 234h68l-121 -234h-66zM38 419v35l19 18h256v-53h-275zM210 340v219h62v-219h-62z" />
    <glyph glyph-name="Euro" unicode="&#x20ac;" horiz-adv-x="730" 
d="M424 -10q-74 0 -134 27t-104 76t-67.5 113.5t-23.5 138.5t23.5 138.5t67 112.5t103.5 75t133 27q77 0 135 -28t105 -77l-50 -50q-36 41 -83 63.5t-109 22.5q-76 0 -132.5 -36.5t-87.5 -101t-31 -146.5q0 -83 31.5 -147.5t88.5 -101.5t134 -37q64 0 111 23.5t83 64.5
l50 -51q-46 -49 -106 -77.5t-137 -28.5zM28 403v59h472l-19 -59h-453zM28 228v59h431l-19 -59h-412z" />
    <glyph glyph-name="uni2120" unicode="&#x2120;" horiz-adv-x="650" 
d="M145 314q-41 0 -70 15t-51 43l26 25q18 -24 41 -36t55 -12q33 0 53.5 15t20.5 41q0 21 -9 34t-24.5 21.5t-34.5 15t-37 13.5t-33.5 18t-25 28t-9.5 44t13.5 47.5t37 31t53.5 10.5q34 0 60.5 -13t43.5 -35l-25 -25q-16 19 -35 29t-45 10q-30 0 -48 -14t-18 -39
q0 -19 9.5 -31t25 -20t34 -14.5t37 -14t33.5 -19t24.5 -29t9.5 -45.5q0 -44 -30 -69t-82 -25zM294 319v344h26l149 -243h-19l150 243h26v-344h-37v280l8 -2l-124 -203h-27l-124 203l9 2v-280h-37z" />
    <glyph glyph-name="trademark" unicode="&#x2122;" horiz-adv-x="685" 
d="M145 319v335h37v-335h-37zM24 630v33h280v-33h-280zM329 319v344h26l149 -243h-19l150 243h26v-344h-37v280l8 -2l-124 -203h-27l-124 203l9 2v-280h-37z" />
    <glyph glyph-name="arrowleft" unicode="&#x2190;" horiz-adv-x="658" 
d="M115 305v67h496v-67h-496zM373 580l-241 -242l241 -241h-94l-241 241l241 242h94z" />
    <glyph glyph-name="arrowup" unicode="&#x2191;" horiz-adv-x="658" 
d="M296 553h67v-496h-67v496zM571 294l-242 242l-241 -242v94l241 242l242 -242v-94z" />
    <glyph glyph-name="arrowright" unicode="&#x2192;" horiz-adv-x="658" 
d="M544 372v-67h-496v67h496zM285 97l242 241l-242 242h94l242 -242l-242 -241h-94z" />
    <glyph glyph-name="arrowdown" unicode="&#x2193;" horiz-adv-x="658" 
d="M363 124h-67v496h67v-496zM88 382l241 -241l242 241v-94l-242 -241l-241 241v94z" />
    <glyph glyph-name="uni2196" unicode="&#x2196;" horiz-adv-x="658" 
d="M119 501l47 48l405 -405l-48 -47zM496 513h-342v-341l-66 66v342h342z" />
    <glyph glyph-name="uni2197" unicode="&#x2197;" horiz-adv-x="658" 
d="M492 549l48 -48l-405 -404l-47 47zM504 172v341h-341l66 67h342v-342z" />
    <glyph glyph-name="uni2198" unicode="&#x2198;" horiz-adv-x="658" 
d="M540 175l-48 -47l-404 404l47 48zM163 163h341v342l67 -66v-342h-342z" />
    <glyph glyph-name="uni2199" unicode="&#x2199;" horiz-adv-x="658" 
d="M166 128l-47 47l404 405l48 -48zM154 505v-342h342l-66 -66h-342v342z" />
    <glyph glyph-name="minus" unicode="&#x2212;" horiz-adv-x="537" 
d="M64 302v63h409v-63h-409z" />
    <glyph glyph-name="uni2215" unicode="&#x2215;" horiz-adv-x="380" 
d="M20 -40l274 765h66l-274 -765h-66z" />
    <glyph glyph-name="uni2713" unicode="&#x2713;" horiz-adv-x="757" 
d="M258 85l-232 229l44 45l226 -224l-37 -1l427 461l46 -45l-436 -465h-38z" />
    <glyph glyph-name="T_T" horiz-adv-x="1105" 
d="M279 0v669h74v-669h-74zM37 621v67h558v-67h-558zM752 0v669h74v-669h-74zM510 621v67h558v-67h-558z" />
    <glyph glyph-name="T_h" horiz-adv-x="1095" 
d="M279 0v669h74v-669h-74zM37 621v67h607v-67h-607zM964 0v276q0 62 -37 100.5t-97 38.5q-41 0 -72 -18t-48.5 -49t-17.5 -71l-32 18q0 53 24.5 95t67.5 66t97 24q55 0 96.5 -24.5t65 -67.5t23.5 -100v-288h-70zM621 0v688h71v-688h-71z" />
    <glyph glyph-name="T_l" horiz-adv-x="762" 
d="M279 0v669h74v-669h-74zM37 621v67h618v-67h-618zM621 0v688h71v-688h-71z" />
    <glyph glyph-name="ae.ss01" horiz-adv-x="915" 
d="M696 -10q-71 0 -127 33t-88.5 89t-32.5 125q0 68 32.5 123t88 87.5t125.5 32.5q63 0 111.5 -26.5t79.5 -74.5l-303 -304l-41 43l282 283l1 -50q-20 30 -52 47t-77 17q-52 0 -92 -23t-62.5 -63.5t-22.5 -91.5q0 -53 22.5 -93.5t63 -64t92.5 -23.5q46 0 80 14.5t60 41.5
l46 -46q-35 -37 -81.5 -56.5t-104.5 -19.5zM275 -10q-67 0 -120 32.5t-83.5 87.5t-30.5 124q0 70 30.5 125.5t83.5 88t119 32.5q54 0 96.5 -21.5t69 -60t32.5 -89.5v-147q-6 -51 -32.5 -90t-69 -60.5t-95.5 -21.5zM286 57q73 0 117.5 49t44.5 129q0 53 -20.5 93.5t-57 63
t-85.5 22.5q-50 0 -88.5 -23t-61 -63.5t-22.5 -92.5t22.5 -92t61.5 -63t89 -23zM444 0v126l14 116l-14 113v115h70v-470h-70z" />
    <glyph glyph-name="e.ss01" horiz-adv-x="507" 
d="M288 -10q-71 0 -127 33t-88.5 89t-32.5 125q0 68 32.5 123t88 87.5t125.5 32.5q63 0 111.5 -26.5t79.5 -74.5l-303 -304l-41 43l282 283l1 -50q-20 30 -52 47t-77 17q-52 0 -92 -23t-62.5 -63.5t-22.5 -91.5q0 -53 22.5 -93.5t63 -64t92.5 -23.5q46 0 80 14.5t60 41.5
l46 -46q-35 -37 -81.5 -56.5t-104.5 -19.5z" />
    <glyph glyph-name="eacute.ss01" horiz-adv-x="507" 
d="M288 -10q-71 0 -127 33t-88.5 89t-32.5 125q0 68 32.5 123t88 87.5t125.5 32.5q63 0 111.5 -26.5t79.5 -74.5l-303 -304l-41 43l282 283l1 -50q-20 30 -52 47t-77 17q-52 0 -92 -23t-62.5 -63.5t-22.5 -91.5q0 -53 22.5 -93.5t63 -64t92.5 -23.5q46 0 80 14.5t60 41.5
l46 -46q-35 -37 -81.5 -56.5t-104.5 -19.5zM219 543l-32 32l133 158l56 -56z" />
    <glyph glyph-name="ecaron.ss01" horiz-adv-x="507" 
d="M288 -10q-71 0 -127 33t-88.5 89t-32.5 125q0 68 32.5 123t88 87.5t125.5 32.5q63 0 111.5 -26.5t79.5 -74.5l-303 -304l-41 43l282 283l1 -50q-20 30 -52 47t-77 17q-52 0 -92 -23t-62.5 -63.5t-22.5 -91.5q0 -53 22.5 -93.5t63 -64t92.5 -23.5q46 0 80 14.5t60 41.5
l46 -46q-35 -37 -81.5 -56.5t-104.5 -19.5zM414 728l32 -31l-137 -155h-56l-137 155l32 31l156 -135h-47z" />
    <glyph glyph-name="ecircumflex.ss01" horiz-adv-x="507" 
d="M288 -10q-71 0 -127 33t-88.5 89t-32.5 125q0 68 32.5 123t88 87.5t125.5 32.5q63 0 111.5 -26.5t79.5 -74.5l-303 -304l-41 43l282 283l1 -50q-20 30 -52 47t-77 17q-52 0 -92 -23t-62.5 -63.5t-22.5 -91.5q0 -53 22.5 -93.5t63 -64t92.5 -23.5q46 0 80 14.5t60 41.5
l46 -46q-35 -37 -81.5 -56.5t-104.5 -19.5zM148 542l-32 32l137 154h56l137 -154l-32 -32l-156 136l47 -1z" />
    <glyph glyph-name="edieresis.ss01" horiz-adv-x="507" 
d="M288 -10q-71 0 -127 33t-88.5 89t-32.5 125q0 68 32.5 123t88 87.5t125.5 32.5q63 0 111.5 -26.5t79.5 -74.5l-303 -304l-41 43l282 283l1 -50q-20 30 -52 47t-77 17q-52 0 -92 -23t-62.5 -63.5t-22.5 -91.5q0 -53 22.5 -93.5t63 -64t92.5 -23.5q46 0 80 14.5t60 41.5
l46 -46q-35 -37 -81.5 -56.5t-104.5 -19.5zM186 552q-20 0 -34 14.5t-14 34.5q0 21 14 35t34 14q22 0 35.5 -14t13.5 -35q0 -20 -13.5 -34.5t-35.5 -14.5zM376 552q-20 0 -34 14.5t-14 34.5q0 21 14 35t34 14q22 0 35.5 -14t13.5 -35q0 -20 -13.5 -34.5t-35.5 -14.5z" />
    <glyph glyph-name="edotaccent.ss01" horiz-adv-x="507" 
d="M288 -10q-71 0 -127 33t-88.5 89t-32.5 125q0 68 32.5 123t88 87.5t125.5 32.5q63 0 111.5 -26.5t79.5 -74.5l-303 -304l-41 43l282 283l1 -50q-20 30 -52 47t-77 17q-52 0 -92 -23t-62.5 -63.5t-22.5 -91.5q0 -53 22.5 -93.5t63 -64t92.5 -23.5q46 0 80 14.5t60 41.5
l46 -46q-35 -37 -81.5 -56.5t-104.5 -19.5zM281 552q-20 0 -34 14.5t-14 34.5q0 21 14 35t34 14q22 0 35.5 -14t13.5 -35q0 -20 -13.5 -34.5t-35.5 -14.5z" />
    <glyph glyph-name="egrave.ss01" horiz-adv-x="507" 
d="M288 -10q-71 0 -127 33t-88.5 89t-32.5 125q0 68 32.5 123t88 87.5t125.5 32.5q63 0 111.5 -26.5t79.5 -74.5l-303 -304l-41 43l282 283l1 -50q-20 30 -52 47t-77 17q-52 0 -92 -23t-62.5 -63.5t-22.5 -91.5q0 -53 22.5 -93.5t63 -64t92.5 -23.5q46 0 80 14.5t60 41.5
l46 -46q-35 -37 -81.5 -56.5t-104.5 -19.5zM321 538l-157 134l56 56l133 -158z" />
    <glyph glyph-name="emacron.ss01" horiz-adv-x="507" 
d="M288 -10q-71 0 -127 33t-88.5 89t-32.5 125q0 68 32.5 123t88 87.5t125.5 32.5q63 0 111.5 -26.5t79.5 -74.5l-303 -304l-41 43l282 283l1 -50q-20 30 -52 47t-77 17q-52 0 -92 -23t-62.5 -63.5t-22.5 -91.5q0 -53 22.5 -93.5t63 -64t92.5 -23.5q46 0 80 14.5t60 41.5
l46 -46q-35 -37 -81.5 -56.5t-104.5 -19.5zM110 630h343v-59h-343v59z" />
    <glyph glyph-name="eogonek.ss01" horiz-adv-x="507" 
d="M288 -10q-71 0 -127 33t-88.5 89t-32.5 125q0 68 32.5 123t88 87.5t125.5 32.5q63 0 111.5 -26.5t79.5 -74.5l-303 -304l-41 43l282 283l1 -50q-20 30 -52 47t-77 17q-52 0 -92 -23t-62.5 -63.5t-22.5 -91.5q0 -53 22.5 -93.5t63 -64t92.5 -23.5q46 0 80 14.5t60 41.5
l46 -46q-35 -37 -81.5 -56.5t-104.5 -19.5zM357 -198q-39 0 -68 21t-29 66q0 37 25 74t68 65l40 -18q-35 -27 -56 -54t-21 -59q0 -24 12.5 -36t36.5 -12q14 0 25.5 4.5t21.5 10.5l20 -39q-14 -9 -32 -16t-43 -7z" />
    <glyph glyph-name="g.ss01" horiz-adv-x="496" 
d="M239 -208q-60 0 -108 22.5t-76 62.5t-28 92q0 40 12.5 68t37.5 51l54 -39q-15 -14 -23.5 -32.5t-8.5 -42.5q0 -53 38.5 -84t101.5 -31q65 0 103 33t38 89q0 37 -18 66t-49 45.5t-71 16.5q-52 0 -94 24.5t-66.5 66t-24.5 94.5t25 95t68 66.5t95 24.5t94.5 -24t67.5 -65
t25 -91t-24 -90t-65 -63.5t-92 -23.5l-7 39q61 0 108 -23.5t73.5 -65t26.5 -96.5t-26 -96.5t-74 -65t-113 -23.5zM245 175q34 0 61 15.5t42.5 43t15.5 60.5q0 35 -15.5 61.5t-42.5 42.5t-61 16q-35 0 -62 -15.5t-42.5 -42.5t-15.5 -62q0 -33 15.5 -60.5t43 -43t61.5 -15.5z
M375 379l-43 43l106 106l43 -43z" />
    <glyph glyph-name="k.ss01" horiz-adv-x="474" 
d="M399 -13l-265 254l256 242l46 -45l-233 -218l2 46l244 -231zM71 0v708h70v-708h-70z" />
    <glyph glyph-name="uni0137.ss01" horiz-adv-x="474" 
d="M399 -13l-265 254l256 242l46 -45l-233 -218l2 46l244 -231zM71 0v708h70v-708h-70zM241 -310l-43 23l57 111l26 6q-4 -9 -11 -15.5t-18 -6.5q-19 0 -34.5 15.5t-15.5 38.5q0 24 17 41.5t42 17.5q23 0 40 -17.5t17 -41.5q0 -10 -3.5 -23.5t-14.5 -35.5z" />
    <glyph glyph-name="m.ss01" horiz-adv-x="833" 
d="M60 0v281q0 61 25 105.5t69.5 69t101.5 24.5q62 0 106.5 -30.5t63.5 -85.5h-20q20 55 64.5 85.5t106.5 30.5q58 0 102 -24.5t69 -69t25 -105.5v-281h-70v273q0 68 -34.5 104t-91.5 36t-91 -36t-34 -104v-273h-71v273q0 68 -34 104t-91 36t-91.5 -36t-34.5 -104v-273h-70z
" />
    <glyph glyph-name="n.ss01" horiz-adv-x="524" 
d="M59 0v271q0 62 25.5 109t71.5 73.5t106 26.5q62 0 107.5 -26t70.5 -73t25 -110v-271h-70v267q0 65 -35 105.5t-98 40.5q-62 0 -97 -40.5t-35 -105.5v-267h-71z" />
    <glyph glyph-name="nacute.ss01" horiz-adv-x="524" 
d="M59 0v271q0 62 25.5 109t71.5 73.5t106 26.5q62 0 107.5 -26t70.5 -73t25 -110v-271h-70v267q0 65 -35 105.5t-98 40.5q-62 0 -97 -40.5t-35 -105.5v-267h-71zM200 543l-32 32l133 158l56 -56z" />
    <glyph glyph-name="ncaron.ss01" horiz-adv-x="524" 
d="M59 0v271q0 62 25.5 109t71.5 73.5t106 26.5q62 0 107.5 -26t70.5 -73t25 -110v-271h-70v267q0 65 -35 105.5t-98 40.5q-62 0 -97 -40.5t-35 -105.5v-267h-71zM396 728l31 -31l-136 -155h-57l-136 155l31 31l157 -135h-47z" />
    <glyph glyph-name="uni0146.ss01" horiz-adv-x="524" 
d="M59 0v271q0 62 25.5 109t71.5 73.5t106 26.5q62 0 107.5 -26t70.5 -73t25 -110v-271h-70v267q0 65 -35 105.5t-98 40.5q-62 0 -97 -40.5t-35 -105.5v-267h-71zM246 -310l-43 23l57 111l26 6q-4 -9 -11 -15.5t-18 -6.5q-19 0 -34.5 15.5t-15.5 38.5q0 24 17 41.5t42 17.5
q23 0 40 -17.5t17 -41.5q0 -10 -3.5 -23.5t-14.5 -35.5z" />
    <glyph glyph-name="ntilde.ss01" horiz-adv-x="524" 
d="M59 0v271q0 62 25.5 109t71.5 73.5t106 26.5q62 0 107.5 -26t70.5 -73t25 -110v-271h-70v267q0 65 -35 105.5t-98 40.5q-62 0 -97 -40.5t-35 -105.5v-267h-71zM336 548q-32 0 -54 11.5t-42.5 22.5t-45.5 11q-27 0 -42 -10t-28 -28l-39 38q22 27 46.5 44t61.5 17
q33 0 55.5 -11t42.5 -22.5t44 -11.5t39 9.5t27 27.5l39 -37q-21 -28 -45.5 -44.5t-58.5 -16.5z" />
    <glyph glyph-name="eng.ss01" horiz-adv-x="524" 
d="M316 -208q-41 0 -71 14t-53 40l46 46q15 -18 33.5 -26t41.5 -8q34 0 58 20t24 63v251h70v-250q0 -49 -20.5 -82.5t-54.5 -50.5t-74 -17zM59 0v271q0 62 25.5 109t71.5 73.5t106 26.5q62 0 107.5 -26t70.5 -73t25 -110v-271h-70v267q0 65 -35 105.5t-98 40.5
q-62 0 -97 -40.5t-35 -105.5v-267h-71z" />
    <glyph glyph-name="oe.ss01" horiz-adv-x="925" 
d="M284 -10q-68 0 -123.5 33t-88 89t-32.5 125q0 68 32.5 123t88 87.5t123.5 32.5q69 0 124 -32t87.5 -87.5t32.5 -123.5q0 -70 -32.5 -125.5t-87.5 -88.5t-124 -33zM284 58q50 0 88.5 23t61 64t22.5 92t-22.5 90.5t-61 62.5t-88.5 23q-49 0 -88 -23t-61 -62.5t-22 -90.5
q0 -52 22 -92.5t61 -63.5t88 -23zM706 -10q-71 0 -127 33t-88.5 89t-32.5 125q0 68 32.5 123t88 87.5t125.5 32.5q63 0 111.5 -26.5t79.5 -74.5l-303 -304l-41 43l282 283l1 -50q-20 30 -52 47t-77 17q-52 0 -92 -23t-62.5 -63.5t-22.5 -91.5q0 -53 22.5 -93.5t63 -64
t92.5 -23.5q46 0 80 14.5t60 41.5l46 -46q-35 -37 -81.5 -56.5t-104.5 -19.5z" />
    <glyph glyph-name="t.ss01" horiz-adv-x="440" 
d="M290 -10q-41 0 -74.5 17.5t-52.5 51t-19 82.5v527h71v-525q0 -43 21 -65t58 -22q23 0 41 8t34 25l44 -44q-24 -27 -53 -41t-70 -14zM25 405v65h371v-65h-371z" />
    <glyph glyph-name="tcaron.ss01" horiz-adv-x="440" 
d="M290 -10q-41 0 -74.5 17.5t-52.5 51t-19 82.5v527h71v-525q0 -43 21 -65t58 -22q23 0 41 8t34 25l44 -44q-24 -27 -53 -41t-70 -14zM25 405v65h371v-65h-371zM301 502l-43 23l57 111l26 6q-4 -10 -11 -16t-18 -6q-19 0 -34.5 15t-15.5 38q0 25 17 42t42 17q23 0 40 -17
t17 -42q0 -10 -3.5 -23.5t-14.5 -34.5z" />
    <glyph glyph-name="uni021B.ss01" horiz-adv-x="440" 
d="M290 -10q-41 0 -74.5 17.5t-52.5 51t-19 82.5v527h71v-525q0 -43 21 -65t58 -22q23 0 41 8t34 25l44 -44q-24 -27 -53 -41t-70 -14zM25 405v65h371v-65h-371zM237 -310l-43 23l57 111l26 6q-4 -9 -11 -15.5t-18 -6.5q-19 0 -34.5 15.5t-15.5 38.5q0 24 17 41.5t42 17.5
q23 0 40 -17.5t17 -41.5q0 -10 -3.5 -23.5t-14.5 -35.5z" />
    <glyph glyph-name="f_t" horiz-adv-x="630" 
d="M140 0v550q0 49 21.5 87t60 59.5t87.5 21.5v-66q-47 0 -72.5 -27.5t-25.5 -76.5v-548h-71zM22 407v63h583v-63h-583zM416 0v668h71v-668h-71z" />
    <glyph glyph-name="r_f" horiz-adv-x="684" 
d="M71 0v470h70v-470h-70zM430 0v550q0 49 21.5 87t59.5 59.5t88 21.5q38 0 67 -13.5t52 -37.5l-46 -46q-15 16 -33 23.5t-41 7.5q-46 0 -71.5 -27.5t-25.5 -76.5v-548h-71zM141 269l-29 13q0 89 46.5 138.5t141.5 49.5h358v-63h-370q-72 0 -109.5 -34.5t-37.5 -103.5z" />
    <glyph glyph-name="r_t" horiz-adv-x="646" 
d="M71 0v470h70v-470h-70zM141 269l-29 13q0 89 46.5 138.5t141.5 49.5h321v-63h-333q-72 0 -109.5 -34.5t-37.5 -103.5zM432 0v668h71v-668h-71z" />
    <glyph glyph-name="t_f" horiz-adv-x="674" 
d="M144 0v668h71v-668h-71zM25 407v63h623v-63h-623zM420 0v550q0 49 21.5 87t59.5 59.5t88 21.5q38 0 67 -13.5t52 -37.5l-46 -46q-15 16 -33 23.5t-41 7.5q-46 0 -71.5 -27.5t-25.5 -76.5v-548h-71z" />
    <glyph glyph-name="one.ss01" horiz-adv-x="344" 
d="M185 0v634l24 54h48v-688h-72zM76 471l-41 41l174 176l-1 -82z" />
    <glyph glyph-name="zero.tf" horiz-adv-x="590" 
d="M296 -10q-73 0 -133.5 44t-96.5 124t-36 187q0 109 35.5 187.5t95.5 122t134 43.5q73 0 133.5 -43t96 -122.5t35.5 -188.5q0 -108 -35.5 -188t-95.5 -123t-133 -43zM295 59q56 0 99 33.5t67.5 97t24.5 155.5q0 91 -25 154.5t-68 96.5t-98 33t-98 -33t-68 -96t-25 -155
t25 -155.5t68 -97t98 -33.5z" />
    <glyph glyph-name="one.tf" horiz-adv-x="590" 
d="M281 0v688h72v-688h-72zM84 623v65h255v-65h-255zM84 0v66h433v-66h-433z" />
    <glyph glyph-name="two.tf" horiz-adv-x="590" 
d="M56 45l263 266q47 47 72 79t35 58.5t10 55.5q0 59 -38.5 92.5t-101.5 33.5q-57 0 -101 -26t-79 -80l-52 45q41 63 99 96t135 33q64 0 111 -24t73.5 -68t26.5 -103q0 -41 -11.5 -74.5t-40 -70t-80.5 -88.5l-223 -222zM56 0v45l60 21h411v-66h-471z" />
    <glyph glyph-name="three.tf" horiz-adv-x="590" 
d="M275 -10q-69 0 -125 26t-95 75l50 49q27 -38 71 -59.5t98 -21.5q52 0 90.5 19t60 53.5t21.5 80.5q0 47 -21.5 81t-61 53t-93.5 19q-17 0 -35.5 -2t-36.5 -7l29 41q16 9 37 14t45 5q61 0 108.5 -26.5t75 -73t27.5 -107.5q0 -65 -31 -114t-86.5 -77t-127.5 -28zM198 356v45
l228 245l86 -3l-233 -248zM87 623v65h425v-45l-64 -20h-361z" />
    <glyph glyph-name="four.tf" horiz-adv-x="590" 
d="M37 228l254 460h83l-260 -460h-77zM37 182v46l31 20h486v-66h-517zM381 0v459h72v-459h-72z" />
    <glyph glyph-name="five.tf" horiz-adv-x="590" 
d="M274 -10q-68 0 -124 25.5t-96 75.5l50 49q27 -38 70.5 -59.5t98.5 -21.5q52 0 91.5 19.5t62.5 55t23 83.5q0 49 -22 84.5t-60 54.5t-85 19q-44 0 -81.5 -11.5t-67.5 -36.5l-1 48q19 20 42.5 33t53 20t65.5 7q71 0 122.5 -29.5t79.5 -79.5t28 -113q0 -65 -32.5 -115
t-88.5 -79t-129 -29zM134 327l-39 40l31 321h68l-34 -328zM146 623l-20 65h366v-65h-346z" />
    <glyph glyph-name="six.tf" horiz-adv-x="590" 
d="M295 -10q-67 0 -121.5 31.5t-86.5 84.5t-32 118q0 88 62 172l220 292h86l-217 -283l-26 -10q14 18 32.5 30.5t43.5 19.5t55 7q62 0 113 -29.5t81.5 -80.5t30.5 -116t-32.5 -118.5t-87 -85.5t-121.5 -32zM295 58q47 0 84.5 22.5t60 61t22.5 84.5q0 47 -22.5 85t-60 60.5
t-84.5 22.5q-46 0 -84 -22.5t-60 -60t-22 -85.5q0 -47 22 -85.5t60 -60.5t84 -22z" />
    <glyph glyph-name="seven.tf" horiz-adv-x="590" 
d="M186 0l275 647l71 -5l-270 -642h-76zM56 623v65h476v-46l-32 -19h-444z" />
    <glyph glyph-name="eight.tf" horiz-adv-x="590" 
d="M295 -10q-68 0 -121 26t-82.5 71.5t-29.5 103.5q0 45 18.5 84t53.5 66.5t81 37.5l9 -21q-41 11 -70 35t-44 57t-15 71q0 53 26 92.5t71 62.5t103 23t103 -23t71 -62.5t26 -92.5q0 -38 -15 -71t-43.5 -57t-70.5 -35l9 21q47 -10 81.5 -37.5t53 -66.5t18.5 -84
q0 -58 -29.5 -103.5t-82 -71.5t-121.5 -26zM295 56q47 0 84 18t57.5 50.5t20.5 73.5q0 42 -20.5 73.5t-57.5 50t-84 18.5t-84 -18.5t-57.5 -50t-20.5 -73.5q0 -41 20.5 -73.5t57 -50.5t84.5 -18zM295 397q57 0 94 33.5t37 86.5t-37 86t-94 33t-94 -33t-37 -86t37 -86.5
t94 -33.5z" />
    <glyph glyph-name="nine.tf" horiz-adv-x="590" 
d="M167 0l218 284l25 10q-14 -18 -32.5 -31t-42.5 -20t-56 -7q-61 0 -112 30t-81.5 81t-30.5 115q0 66 32.5 119.5t87 85t121.5 31.5t121.5 -31t86 -84t31.5 -118q0 -89 -61 -172l-221 -293h-86zM295 295q47 0 85 22t60 60.5t22 84.5q0 48 -22 86t-60 60.5t-85 22.5
q-46 0 -84 -22.5t-60.5 -61t-22.5 -85.5q0 -46 22.5 -84t60.5 -60.5t84 -22.5z" />
    <glyph glyph-name="ampersand.ss01" horiz-adv-x="627" 
d="M298 -10q-73 0 -127 26t-83 71.5t-29 103.5q0 69 41 120.5t114 69.5l6 -22q-37 7 -66.5 30t-46 57.5t-16.5 74.5q0 52 25.5 92t71 63t107.5 23q69 0 115 -29t73 -70l-50 -45q-23 34 -55.5 55.5t-83.5 21.5q-65 0 -99.5 -33t-34.5 -84q0 -31 15 -58t41 -43t59 -16v-59
q-40 0 -73 -18t-52.5 -49.5t-19.5 -74.5q0 -41 21 -73t59 -50t88 -18q51 0 88.5 18t59 50t21.5 73q0 40 -16 69t-42.5 47t-58.5 20l37 47q48 -12 81.5 -39t51.5 -65.5t18 -84.5q0 -58 -30.5 -103.5t-84 -71.5t-125.5 -26zM350 333v65h248v-65h-248z" />
    <glyph glyph-name="uni030C.alt" 
d="M129 240l-43 23l57 111l26 6q-4 -10 -11 -16t-18 -6q-19 0 -34.5 15t-15.5 38q0 25 17 42t42 17q23 0 40 -17t17 -42q0 -10 -3.5 -23.5t-14.5 -34.5z" />
    </font>
</defs>
</svg>
