<?xml version="1.0" standalone="no"?>
<!DOCTYPE svg PUBLIC "-//W3C//DTD SVG 1.1//EN" "http://www.w3.org/Graphics/SVG/1.1/DTD/svg11.dtd" >
<svg xmlns="http://www.w3.org/2000/svg" xmlns:xlink="http://www.w3.org/1999/xlink" version="1.1">
<metadata>
Created by FontForge 20201107 at Fri Mar 17 16:10:02 2023
 By 
Copyright 2021 The Outfit Project Authors (https://github.com/Outfitio/Outfit-Fonts)
</metadata>
<defs>
<font id="Outfit-ExtraLight" horiz-adv-x="0" >
  <font-face 
    font-family="Outfit ExtraLight"
    font-weight="250"
    font-stretch="normal"
    units-per-em="1000"
    panose-1="0 0 0 0 0 0 0 0 0 0"
    ascent="800"
    descent="-200"
    x-height="465"
    cap-height="682"
    bbox="-125 -282 3531 954"
    underline-thickness="50"
    underline-position="-125"
    unicode-range="U+000D-FB02"
  />
<missing-glyph horiz-adv-x="679" 
d="M93 0v682h493v-682h-493zM146 52h387v578h-387v-578zM208 448l25 25l238 -239l-25 -25zM452 480l26 -26l-251 -251l-26 26z" />
    <glyph glyph-name="fi" unicode="fi" horiz-adv-x="542" 
d="M147 0v558q0 45 19 79.5t53.5 54t78.5 19.5q33 0 60.5 -11.5t48.5 -33.5l-33 -33q-17 17 -36 24.5t-41 7.5q-47 0 -73 -30t-26 -80v-555h-51zM26 420v45h417v-45h-417zM415 0v465h51v-465h-51zM440 530q-17 0 -28.5 12.5t-11.5 29.5t11.5 28.5t28.5 11.5q18 0 29.5 -11.5
t11.5 -28.5t-11.5 -29.5t-29.5 -12.5z" />
    <glyph glyph-name="fl" unicode="fl" horiz-adv-x="542" 
d="M147 0v550q0 46 20 82.5t56.5 57.5t83.5 21l-1 -46q-52 0 -80 -32.5t-28 -84.5v-548h-51zM26 420v45h410v-45h-410zM416 0v713h50v-713h-50z" />
    <glyph glyph-name="f_f" unicode="ff" horiz-adv-x="659" 
d="M147 0v540q0 47 20.5 83.5t56.5 57t83 20.5t79.5 -20t50 -55t17.5 -78h-38q-3 46 -29.5 76.5t-79.5 30.5t-81 -31.5t-28 -85.5v-538h-51zM26 420v45h604v-45h-604zM416 0v553q0 47 20 82.5t55.5 55.5t81.5 20q35 0 63 -12t49 -35l-33 -34q-17 18 -37 26.5t-43 8.5
q-50 0 -77.5 -31t-27.5 -84v-550h-51z" />
    <glyph glyph-name="f_j" unicode="fj" horiz-adv-x="541" 
d="M147 0v558q0 45 19 79.5t53.5 54t78.5 19.5q33 0 60.5 -11.5t48.5 -33.5l-33 -33q-17 17 -36 24.5t-41 7.5q-47 0 -73 -30t-26 -80v-555h-51zM26 420v45h417v-45h-417zM327 -207q-36 0 -65 12.5t-50 36.5l33 33q17 -18 37 -26.5t44 -8.5q37 0 63 22t26 70v533h51v-532
q0 -46 -19 -77t-51 -47t-69 -16zM440 530q-17 0 -28.5 12.5t-11.5 29.5t11.5 28.5t28.5 11.5q18 0 29.5 -11.5t11.5 -28.5t-11.5 -29.5t-29.5 -12.5z" />
    <glyph glyph-name="o_u_t_f_i_t" unicode="outfit" horiz-adv-x="2233" 
d="M286 -10q-68 0 -122.5 32.5t-86.5 88t-32 123.5t32 122.5t86.5 86.5t122.5 32q67 0 121.5 -32t86.5 -86.5t32 -122.5q0 -69 -32 -124t-86.5 -87.5t-121.5 -32.5zM286 38q53 0 95.5 26t67 70.5t24.5 100.5q0 55 -24.5 98t-67 68.5t-95.5 25.5q-54 0 -96.5 -25.5
t-67.5 -68.5t-25 -99t25 -100t67.5 -70t96.5 -26zM828 -10q-56 0 -99.5 26t-68.5 72t-25 106v271h51v-269q0 -47 17.5 -82.5t50 -55.5t74.5 -20q64 0 103 43.5t39 114.5v269h50v-271q0 -60 -24.5 -106t-67.5 -72t-100 -26zM998 420v45h1207v-45h-1207zM1219 0v662h52v-662
h-52zM1488 0v558q0 45 19.5 79.5t53.5 54t78 19.5q34 0 61.5 -11.5t48.5 -33.5l-34 -33q-17 17 -36 24.5t-40 7.5q-47 0 -73 -30t-26 -80v-555h-52zM1757 0v465h52v-465h-52zM1782 539q-16 0 -27.5 12t-11.5 28q0 17 11.5 28.5t27.5 11.5q17 0 28.5 -11.5t11.5 -28.5
q0 -16 -11.5 -28t-28.5 -12zM2026 0v662h52v-662h-52z" />
    <glyph glyph-name="o_u_t_f_i_t_t_e_d" unicode="outfitted" horiz-adv-x="3607" 
d="M286 -10q-68 0 -122.5 32.5t-86.5 88t-32 123.5t32 122.5t86.5 86.5t122.5 32q67 0 121.5 -32t86.5 -86.5t32 -122.5q0 -69 -32 -124t-86.5 -87.5t-121.5 -32.5zM286 38q53 0 95.5 26t67 70.5t24.5 100.5q0 55 -24.5 98t-67 68.5t-95.5 25.5q-54 0 -96.5 -25.5
t-67.5 -68.5t-25 -99t25 -100t67.5 -70t96.5 -26zM828 -10q-56 0 -99.5 26t-68.5 72t-25 106v271h51v-269q0 -47 17.5 -82.5t50 -55.5t74.5 -20q64 0 103 43.5t39 114.5v269h50v-271q0 -60 -24.5 -106t-67.5 -72t-100 -26zM1219 0v662h52v-662h-52zM1488 0v558
q0 45 19.5 79.5t53.5 54t78 19.5q34 0 61.5 -11.5t48.5 -33.5l-34 -33q-17 17 -36 24.5t-40 7.5q-47 0 -73 -30t-26 -80v-555h-52zM1757 0v465h52v-465h-52zM998 420v45h1475v-45h-1475zM1782 539q-16 0 -27.5 12t-11.5 28q0 17 11.5 28.5t27.5 11.5q17 0 28.5 -11.5
t11.5 -28.5q0 -16 -11.5 -28t-28.5 -12zM2026 0v662h52v-662h-52zM2295 0v662h52v-662h-52zM2769 -10q-70 0 -125 32t-87 87t-32 124t31 123.5t85.5 86.5t121.5 32q63 0 111.5 -28.5t76.5 -78.5t28 -115q0 -6 -1 -15.5t-3 -23.5h-414v44h385l-17 -14q2 55 -18 96.5t-58 64.5
t-91 23q-56 0 -97.5 -24.5t-65 -67.5t-23.5 -100q0 -60 24.5 -104.5t68.5 -69t103 -24.5q45 0 83.5 16.5t64.5 49.5l33 -33q-32 -38 -80 -59.5t-104 -21.5zM3295 -10q-65 0 -117.5 32t-82 86.5t-29.5 123.5t30 124t82 87t117 32q52 0 95.5 -20t73.5 -57.5t38 -88.5v-152
q-9 -50 -38 -87.5t-72.5 -58.5t-96.5 -21zM3304 38q53 0 93.5 25t63 68.5t22.5 100.5q0 58 -23 102t-63.5 68.5t-94.5 24.5q-53 0 -94.5 -24.5t-65.5 -68.5t-24 -101t24 -101t66 -69t96 -25zM3481 0v125l12 114l-12 113v350h50v-702h-50z" />
    <glyph glyph-name="o_u_t_f_i_t_t_e_r" unicode="outfitter" horiz-adv-x="3428" 
d="M286 -10q-68 0 -122.5 32.5t-86.5 88t-32 123.5t32 122.5t86.5 86.5t122.5 32q67 0 121.5 -32t86.5 -86.5t32 -122.5q0 -69 -32 -124t-86.5 -87.5t-121.5 -32.5zM286 38q53 0 95.5 26t67 70.5t24.5 100.5q0 55 -24.5 98t-67 68.5t-95.5 25.5q-54 0 -96.5 -25.5
t-67.5 -68.5t-25 -99t25 -100t67.5 -70t96.5 -26zM828 -10q-56 0 -99.5 26t-68.5 72t-25 106v271h51v-269q0 -47 17.5 -82.5t50 -55.5t74.5 -20q64 0 103 43.5t39 114.5v269h50v-271q0 -60 -24.5 -106t-67.5 -72t-100 -26zM1219 0v662h52v-662h-52zM1488 0v558
q0 45 19.5 79.5t53.5 54t78 19.5q34 0 61.5 -11.5t48.5 -33.5l-34 -33q-17 17 -36 24.5t-40 7.5q-47 0 -73 -30t-26 -80v-555h-52zM1757 0v465h52v-465h-52zM998 420v45h1475v-45h-1475zM1782 539q-16 0 -27.5 12t-11.5 28q0 17 11.5 28.5t27.5 11.5q17 0 28.5 -11.5
t11.5 -28.5q0 -16 -11.5 -28t-28.5 -12zM2026 0v662h52v-662h-52zM2295 0v662h52v-662h-52zM2769 -10q-70 0 -125 32t-87 87t-32 124t31 123.5t85.5 86.5t121.5 32q63 0 111.5 -28.5t76.5 -78.5t28 -115q0 -6 -1 -15.5t-3 -23.5h-414v44h385l-17 -14q2 55 -18 96.5t-58 64.5
t-91 23q-56 0 -97.5 -24.5t-65 -67.5t-23.5 -100q0 -60 24.5 -104.5t68.5 -69t103 -24.5q45 0 83.5 16.5t64.5 49.5l33 -33q-32 -38 -80 -59.5t-104 -21.5zM3095 0v465h51v-465h-51zM3146 278l-25 9q0 89 45 138.5t118 49.5q34 0 63.5 -12t54.5 -39l-34 -36q-19 21 -41.5 30
t-51.5 9q-57 0 -93 -38.5t-36 -110.5z" />
    <glyph glyph-name="t_t" unicode="tt" horiz-adv-x="616" 
d="M148 0v662h52v-662h-52zM28 420v45h560v-45h-560zM417 0v662h52v-662h-52z" />
    <glyph glyph-name=".notdef" horiz-adv-x="679" 
d="M93 0v682h493v-682h-493zM146 52h387v578h-387v-578zM208 448l25 25l238 -239l-25 -25zM452 480l26 -26l-251 -251l-26 26z" />
    <glyph glyph-name=".null" 
 />
    <glyph glyph-name="nonmarkingreturn" horiz-adv-x="333" 
 />
    <glyph glyph-name="CR" unicode="&#xd;" horiz-adv-x="600" 
 />
    <glyph glyph-name="space" unicode=" " horiz-adv-x="223" 
 />
    <glyph glyph-name="exclam" unicode="!" horiz-adv-x="260" 
d="M109 197l-9 505h58l-9 -505h-40zM128 -10q-21 0 -34.5 14.5t-13.5 34.5t13.5 34.5t34.5 14.5t34.5 -14.5t13.5 -34.5t-13.5 -34.5t-34.5 -14.5z" />
    <glyph glyph-name="quotedbl" unicode="&#x22;" horiz-adv-x="348" 
d="M219 502l-14 200h60l-14 -200h-32zM97 502l-13 200h59l-14 -200h-32z" />
    <glyph glyph-name="numbersign" unicode="#" horiz-adv-x="637" 
d="M348 0l97 682h46l-98 -682h-45zM59 223v41h489v-41h-489zM137 0l98 682h45l-98 -682h-45zM88 430v41h489v-41h-489z" />
    <glyph glyph-name="dollar" unicode="$" horiz-adv-x="595" 
d="M303 -10q-76 0 -132 30.5t-97 84.5l36 36q38 -53 85.5 -78t109.5 -25q68 0 111 33t43 93q0 45 -18.5 73t-49 46t-67 32t-73 28.5t-67.5 36t-49 55.5t-18 86t24.5 90.5t67.5 59.5t100 21q63 0 113 -25.5t85 -71.5l-36 -35q-32 40 -71.5 62t-91.5 22q-63 0 -101.5 -31.5
t-38.5 -88.5q0 -42 18.5 -68t49.5 -43.5t67.5 -30.5t73 -28t67.5 -37.5t49.5 -57.5t18.5 -89q0 -87 -56.5 -133.5t-152.5 -46.5zM293 -100v882h40v-882h-40z" />
    <glyph glyph-name="percent" unicode="%" horiz-adv-x="664" 
d="M86 0l438 682h54l-438 -682h-54zM456 -10q-37 0 -68.5 18.5t-50.5 50t-19 69.5q0 39 18.5 70t50.5 49.5t69 18.5q39 0 70.5 -18.5t50.5 -49.5t19 -70q0 -38 -19 -69.5t-50.5 -50t-70.5 -18.5zM456 33q40 0 67 26.5t27 69.5q0 41 -27.5 67.5t-66.5 26.5t-65.5 -26.5
t-26.5 -67.5q0 -43 26.5 -69.5t65.5 -26.5zM207 416q-38 0 -69 18t-50 50t-19 70q0 39 18.5 70t50 49t69.5 18t69.5 -18t50.5 -49t19 -70q0 -38 -18.5 -70t-50 -50t-70.5 -18zM206 459q41 0 67.5 26.5t26.5 69.5q0 41 -27.5 67t-66.5 26q-38 0 -64.5 -26t-26.5 -67
q0 -43 26.5 -69.5t64.5 -26.5z" />
    <glyph glyph-name="ampersand" unicode="&#x26;" horiz-adv-x="638" 
d="M556 0l-332 342q-43 43 -63 84t-20 87q0 53 23.5 93t65.5 63t96 23q38 0 69.5 -11t56.5 -30.5t42 -47.5l-37 -35q-24 36 -56 55.5t-74 19.5q-60 0 -97 -36t-37 -96q0 -39 17 -71t57 -73l355 -367h-66zM288 -10q-63 0 -111.5 26t-76 71t-27.5 104q0 63 34 116.5t93 81.5
l27 -33q-46 -22 -74.5 -66.5t-28.5 -98.5q0 -45 21.5 -79t59 -53.5t85.5 -19.5q55 0 99 25t67 67l34 -37q-19 -31 -50.5 -54.5t-70 -36.5t-81.5 -13z" />
    <glyph glyph-name="quotesingle" unicode="'" horiz-adv-x="226" 
d="M97 502l-13 200h59l-14 -200h-32z" />
    <glyph glyph-name="parenleft" unicode="(" horiz-adv-x="310" 
d="M238 -111q-59 46 -99 112t-60.5 144.5t-20.5 161.5t20.5 161.5t60.5 144.5t99 112l31 -29q-82 -66 -123.5 -167t-41.5 -222q0 -120 41.5 -221t123.5 -168z" />
    <glyph glyph-name="parenright" unicode=")" horiz-adv-x="309" 
d="M71 -111l-30 29q81 67 123 168t42 221q0 121 -42 222t-123 167l30 29q59 -46 99 -112t61 -144.5t21 -161.5t-21 -161.5t-61 -144.5t-99 -112z" />
    <glyph glyph-name="asterisk" unicode="*" horiz-adv-x="487" 
d="M240 373l-14 159l-140 -82l-23 45l151 62l-124 105l36 35l108 -121l64 147l46 -22l-85 -137l164 -13l-7 -50l-162 36l37 -157z" />
    <glyph glyph-name="plus" unicode="+" horiz-adv-x="531" 
d="M70 311v44h392v-44h-392zM243 539h46v-412h-46v412z" />
    <glyph glyph-name="comma" unicode="," horiz-adv-x="272" 
d="M90 -96l52 103l20 4q-3 -8 -9.5 -13.5t-17.5 -5.5q-17 0 -30.5 13t-13.5 33q0 21 15 35.5t36 14.5q19 0 33.5 -14.5t14.5 -35.5q0 -9 -2.5 -20.5t-11.5 -29.5l-52 -102z" />
    <glyph glyph-name="hyphen" unicode="-" horiz-adv-x="460" 
d="M75 229v48h309v-48h-309z" />
    <glyph glyph-name="period" unicode="." horiz-adv-x="289" 
d="M144 -10q-20 0 -34 15t-14 34q0 21 14 35t34 14q21 0 35 -14t14 -35q0 -19 -14 -34t-35 -15z" />
    <glyph glyph-name="slash" unicode="/" horiz-adv-x="369" 
d="M25 -40l272 758h47l-272 -758h-47z" />
    <glyph glyph-name="zero" unicode="0" horiz-adv-x="658" 
d="M331 -10q-75 0 -137 43.5t-98.5 122.5t-36.5 186q0 108 36 186t97.5 121t135.5 43q76 0 137.5 -43t97.5 -121.5t36 -186.5q0 -107 -36 -186t-97 -122t-135 -43zM329 40q62 0 111 35.5t77.5 103.5t28.5 163t-28.5 162t-77.5 103t-112 36q-61 0 -110 -36t-77.5 -103
t-28.5 -162t28.5 -163t77.5 -103.5t111 -35.5z" />
    <glyph glyph-name="one" unicode="1" horiz-adv-x="330" 
d="M188 0v682h51v-682h-51zM40 635v47h189v-47h-189z" />
    <glyph glyph-name="two" unicode="2" horiz-adv-x="540" 
d="M43 34l253 262q51 52 77.5 86.5t36.5 62.5t10 59q0 65 -40.5 102t-108.5 37q-59 0 -103 -27t-78 -80l-38 34q41 60 95 91t125 31q61 0 105.5 -23.5t69.5 -65.5t25 -100q0 -40 -11.5 -73.5t-40 -71t-81.5 -91.5l-225 -230zM43 0v34l41 13h406v-47h-447z" />
    <glyph glyph-name="three" unicode="3" horiz-adv-x="533" 
d="M249 -10q-65 0 -118.5 26t-89.5 75l36 35q27 -41 72 -64t100 -23q52 0 91.5 20.5t62 58t22.5 86.5q0 51 -22.5 88.5t-62.5 58t-94 20.5q-17 0 -33.5 -2t-35.5 -7l17 28q14 11 33 15.5t43 4.5q59 0 106 -26.5t74.5 -73.5t27.5 -107q0 -63 -29.5 -111t-81 -75t-118.5 -27z
M177 362v33l233 259l60 -5l-237 -261zM70 635v47h400v-33l-46 -14h-354z" />
    <glyph glyph-name="four" unicode="4" horiz-adv-x="595" 
d="M43 217l260 465h59l-265 -465h-54zM43 183v34l22 13h488v-47h-510zM397 0v460h51v-460h-51z" />
    <glyph glyph-name="five" unicode="5" horiz-adv-x="534" 
d="M249 -10q-66 0 -119 26t-89 75l36 35q27 -41 71.5 -64t99.5 -23q53 0 93 21t63.5 59.5t23.5 89.5q0 53 -22.5 91.5t-61.5 60t-89 21.5q-44 0 -82 -13t-66 -38l-4 35q19 21 43 33.5t52.5 19t61.5 6.5q68 0 117 -28t76.5 -77.5t27.5 -112.5t-30.5 -112t-82.5 -77t-119 -28z
M107 331l-27 28l29 323h49l-32 -326zM127 635l-18 47h345v-47h-327z" />
    <glyph glyph-name="six" unicode="6" horiz-adv-x="567" 
d="M283 -10q-65 0 -117.5 30.5t-83.5 82.5t-31 116q0 84 58 161l230 302h62l-219 -282l-18 -2q16 15 35.5 26t43.5 17t50 6q61 0 111.5 -30.5t81 -81t30.5 -114.5q0 -63 -31.5 -116t-84.5 -84t-117 -31zM283 37q50 0 90.5 25.5t65 67t24.5 91.5t-24.5 92t-65 66.5
t-90.5 24.5t-90.5 -24t-64.5 -65.5t-24 -93.5q0 -51 24 -93t64.5 -66.5t90.5 -24.5z" />
    <glyph glyph-name="seven" unicode="7" horiz-adv-x="530" 
d="M169 0l269 656l50 -8l-264 -648h-55zM40 635v47h448v-34l-24 -13h-424z" />
    <glyph glyph-name="eight" unicode="8" horiz-adv-x="554" 
d="M277 -10q-64 0 -115 26t-79.5 71t-28.5 102q0 45 18 83.5t51 65.5t77 37l14 -16q-40 11 -69 34.5t-44 56.5t-15 71q0 50 24.5 88.5t68 60.5t98.5 22q56 0 99 -22t67.5 -60.5t24.5 -88.5q0 -38 -15 -71t-43.5 -56.5t-68.5 -34.5l13 16q44 -10 77 -37t51.5 -65.5
t18.5 -83.5q0 -57 -29 -102t-79.5 -71t-115.5 -26zM277 36q51 0 89.5 20t60.5 55.5t22 81.5q0 45 -22 80t-60.5 55t-89.5 20q-50 0 -89 -20t-61 -55t-22 -80q0 -46 22 -81.5t61 -55.5t89 -20zM277 388q62 0 101.5 36t39.5 95q0 57 -39.5 93t-101.5 36t-101 -36t-39 -93
q0 -59 39 -95t101 -36z" />
    <glyph glyph-name="nine" unicode="9" horiz-adv-x="567" 
d="M166 0l219 282l18 2q-16 -15 -36 -26t-43 -17t-51 -6q-60 0 -110.5 30.5t-81 82t-30.5 113.5q0 64 31.5 116.5t84.5 83.5t117 31q65 0 117.5 -30.5t83 -82.5t30.5 -116q0 -84 -58 -161l-229 -302h-62zM283 278q50 0 91 24.5t65 66t24 92.5q0 52 -24 93.5t-65 66t-91 24.5
q-49 0 -90 -25t-65 -66.5t-24 -92.5q0 -50 24 -91.5t65 -66.5t90 -25z" />
    <glyph glyph-name="colon" unicode=":" horiz-adv-x="270" 
d="M134 -10q-20 0 -33.5 15t-13.5 34q0 21 13.5 35t33.5 14q21 0 35 -14t14 -35q0 -19 -14 -34t-35 -15zM134 307q-20 0 -33.5 15t-13.5 34q0 21 13.5 35t33.5 14q21 0 35 -14t14 -35q0 -19 -14 -34t-35 -15z" />
    <glyph glyph-name="semicolon" unicode=";" horiz-adv-x="269" 
d="M87 -96l51 103l20 4q-3 -8 -9.5 -13.5t-16.5 -5.5q-17 0 -30.5 13t-13.5 33t14.5 35t35.5 15q19 0 34 -14.5t15 -35.5q0 -9 -2.5 -20.5t-12.5 -29.5l-52 -102zM135 307q-21 0 -34 15t-13 34q0 21 13 35t34 14t35 -14t14 -35q0 -19 -14 -34t-35 -15z" />
    <glyph glyph-name="less" unicode="&#x3c;" horiz-adv-x="531" 
d="M462 138l-392 180v35l392 180v-50l-355 -159v22l355 -159v-49z" />
    <glyph glyph-name="equal" unicode="=" horiz-adv-x="531" 
d="M70 426v44h392v-44h-392zM70 196v44h392v-44h-392z" />
    <glyph glyph-name="greater" unicode="&#x3e;" horiz-adv-x="531" 
d="M70 483v50l392 -180v-35l-392 -180v49l355 159v-22z" />
    <glyph glyph-name="question" unicode="?" horiz-adv-x="504" 
d="M229 197l-2 184l25 1q40 1 70.5 21t48 52.5t17.5 70.5t-17.5 69t-48.5 49t-74 18q-57 0 -95.5 -25.5t-61.5 -65.5l-37 34q27 47 77 77t118 30q58 0 101 -24t67 -65.5t24 -94.5q0 -50 -23.5 -92.5t-65 -69t-95.5 -30.5l19 23l-4 -162h-43zM249 -10q-21 0 -34.5 14.5
t-13.5 34.5t13.5 34.5t34.5 14.5t34.5 -14.5t13.5 -34.5t-13.5 -34.5t-34.5 -14.5z" />
    <glyph glyph-name="at" unicode="@" horiz-adv-x="777" 
d="M391 -83q-66 0 -123.5 24t-100.5 67.5t-67.5 102t-24.5 126.5t25 126.5t69 102.5t102.5 68.5t125.5 24.5q90 0 158.5 -41t108 -113t39.5 -165q0 -43 -8.5 -75.5t-27.5 -61.5l-43 7q13 20 20 37.5t10.5 39.5t3.5 56q0 83 -33 144.5t-91.5 95t-135.5 33.5q-78 0 -140.5 -35
t-99 -98.5t-36.5 -146.5q0 -82 35.5 -144.5t96.5 -97.5t135 -35q60 0 105.5 16t79.5 48l30 -31q-43 -37 -96.5 -56t-116.5 -19zM375 93q-39 0 -70.5 19.5t-50 52t-18.5 72.5q0 41 18.5 73.5t50 52t70.5 19.5q50 0 82.5 -26.5t32.5 -67.5v-102q0 -39 -32 -66t-83 -27z
M376 132q45 0 72.5 29.5t27.5 76.5q0 48 -27 77t-72 29q-41 0 -70 -29.5t-29 -76.5t28.5 -76.5t69.5 -29.5zM487 103v38h180v-38h-180zM475 103v70l9 69l-9 65v69h41v-273h-41z" />
    <glyph glyph-name="A" unicode="A" horiz-adv-x="684" 
d="M44 0l278 682h42l277 -682h-58l-251 628h21l-253 -628h-56zM165 201v47h355v-47h-355z" />
    <glyph glyph-name="B" unicode="B" horiz-adv-x="626" 
d="M125 0v47h227q74 0 118.5 40.5t44.5 104.5q0 42 -19.5 74.5t-54 51t-80.5 18.5h-236v45h228q60 0 95.5 34t35.5 93q0 60 -39 93.5t-104 33.5h-216v47h216q62 0 105.5 -21.5t67 -59.5t23.5 -89q0 -58 -30.5 -100t-87.5 -61l6 18q67 -19 105.5 -66.5t38.5 -113.5
q0 -55 -27 -98t-76.5 -67t-118.5 -24h-222zM93 0v682h53v-682h-53z" />
    <glyph glyph-name="C" unicode="C" horiz-adv-x="698" 
d="M402 -10q-73 0 -135.5 27t-109 75t-72 112t-25.5 138t25 137.5t71.5 111t108 74.5t134.5 27q76 0 138.5 -28t109.5 -77l-37 -37q-38 43 -92 67t-119 24q-61 0 -113 -22.5t-90.5 -63t-59.5 -95t-21 -118.5t21.5 -119t59.5 -96t90.5 -63.5t113.5 -22.5q67 0 122 24.5
t93 67.5l37 -36q-46 -50 -109.5 -78.5t-140.5 -28.5z" />
    <glyph glyph-name="D" unicode="D" horiz-adv-x="739" 
d="M121 0v49h212q86 0 151.5 37.5t102.5 103.5t37 152q0 85 -37 151t-103 103t-151 37h-209v49h210q75 0 138 -25.5t109.5 -71t72 -108t25.5 -136.5q0 -73 -25.5 -135.5t-71.5 -108.5t-109 -71.5t-137 -25.5h-215zM93 0v682h53v-682h-53z" />
    <glyph glyph-name="E" unicode="E" horiz-adv-x="589" 
d="M93 0v682h53v-682h-53zM127 0v48h410v-48h-410zM127 327v46h379v-46h-379zM127 634v48h405v-48h-405z" />
    <glyph glyph-name="F" unicode="F" horiz-adv-x="567" 
d="M93 0v682h53v-682h-53zM127 316v48h374v-48h-374zM127 634v48h391v-48h-391z" />
    <glyph glyph-name="G" unicode="G" horiz-adv-x="774" 
d="M403 -9q-74 0 -137 26.5t-109 73.5t-71.5 111t-25.5 139t26 139t72.5 112t109.5 74.5t137 26.5q83 0 152 -33t112 -95l-37 -37q-38 55 -96.5 84.5t-130.5 29.5q-84 0 -150 -39t-103 -107t-37 -155t37 -155t101 -106t148 -38q80 0 139 33t92 96.5t33 151.5l27 -20h-301v48
h329v-9q0 -112 -39.5 -190.5t-111 -119.5t-166.5 -41z" />
    <glyph glyph-name="H" unicode="H" horiz-adv-x="693" 
d="M93 0v682h53v-682h-53zM547 0v682h53v-682h-53zM127 327v48h439v-48h-439z" />
    <glyph glyph-name="I" unicode="I" horiz-adv-x="239" 
d="M93 0v682h53v-682h-53z" />
    <glyph glyph-name="J" unicode="J" horiz-adv-x="496" 
d="M213 -10q-56 0 -97.5 21.5t-72.5 59.5l36 35q25 -32 57.5 -48.5t75.5 -16.5q37 0 70 16.5t54 52.5t21 93v479h53v-481q0 -68 -27.5 -115t-72.5 -71.5t-97 -24.5z" />
    <glyph glyph-name="K" unicode="K" horiz-adv-x="653" 
d="M536 0l-402 355l393 327h74l-412 -341v31l422 -372h-75zM93 0v682h53v-682h-53z" />
    <glyph glyph-name="L" unicode="L" horiz-adv-x="556" 
d="M93 0v682h53v-682h-53zM127 0v48h385v-48h-385z" />
    <glyph glyph-name="M" unicode="M" horiz-adv-x="833" 
d="M93 0v682h38l300 -492h-29l300 492h38v-682h-53v591l13 -3l-264 -433h-38l-264 433l12 3v-591h-53z" />
    <glyph glyph-name="N" unicode="N" horiz-adv-x="696" 
d="M93 0v682h38l15 -64v-618h-53zM565 0l-442 612l8 70l443 -611zM565 0l-15 62v620h53v-682h-38z" />
    <glyph glyph-name="O" unicode="O" horiz-adv-x="793" 
d="M398 -10q-72 0 -133.5 27t-107.5 75.5t-71.5 112.5t-25.5 137q0 74 25 137.5t71 111.5t107 74.5t133 26.5t133.5 -26.5t107 -74.5t71.5 -112t26 -138q0 -73 -25.5 -137t-71.5 -112t-106.5 -75t-132.5 -27zM396 41q82 0 145.5 39.5t100.5 107.5t37 154q0 64 -21.5 118.5
t-59.5 95t-89.5 63t-112.5 22.5q-81 0 -144.5 -39t-100 -106.5t-36.5 -153.5q0 -64 21 -119t59 -96t89.5 -63.5t111.5 -22.5z" />
    <glyph glyph-name="P" unicode="P" horiz-adv-x="609" 
d="M125 282v47h216q47 0 83 18.5t57 53t21 81.5t-21 81.5t-57 53t-83 18.5h-216v47h222q60 0 106.5 -24.5t74 -69.5t27.5 -106t-27.5 -105.5t-74 -69.5t-106.5 -25h-222zM93 0v682h53v-682h-53z" />
    <glyph glyph-name="Q" unicode="Q" horiz-adv-x="810" 
d="M398 -10q-72 0 -133.5 27t-107.5 75.5t-71.5 112.5t-25.5 137q0 74 25 137.5t71 111.5t107 74.5t133 26.5t133.5 -26.5t107.5 -74.5t71.5 -112t25.5 -138q0 -73 -25.5 -137t-71 -112t-106.5 -75t-133 -27zM754 -50l-344 344l34 34l344 -345zM396 41q82 0 145.5 39.5
t100.5 107.5t37 154q0 64 -21.5 118.5t-59.5 95t-89 63t-113 22.5q-81 0 -144.5 -39t-100 -106.5t-36.5 -153.5q0 -64 21 -119t59 -96t89.5 -63.5t111.5 -22.5z" />
    <glyph glyph-name="R" unicode="R" horiz-adv-x="635" 
d="M125 313v45h211q75 0 115 38t40 101q0 62 -39.5 100t-115.5 38h-211v47h209q66 0 113 -23.5t72 -65t25 -96.5t-25 -96.5t-72 -64.5t-113 -23h-209zM93 0v682h53v-682h-53zM525 0l-264 325l53 14l280 -339h-69z" />
    <glyph glyph-name="S" unicode="S" horiz-adv-x="553" 
d="M282 -10q-80 0 -138 30.5t-100 84.5l37 36q39 -53 88.5 -77.5t114.5 -24.5q70 0 114 33t44 92q0 45 -19 73t-50.5 46t-69 32t-75 28.5t-68.5 36t-50.5 55.5t-19.5 86t25.5 90.5t70 59.5t102.5 21q66 0 118 -25.5t87 -71.5l-37 -36q-33 41 -73.5 62.5t-95.5 21.5
q-64 0 -103.5 -31.5t-39.5 -87.5q0 -42 19 -68t50.5 -43.5t69 -30.5t74.5 -28t68.5 -37.5t50.5 -57.5t19 -89q0 -87 -57.5 -133.5t-155.5 -46.5z" />
    <glyph glyph-name="T" unicode="T" horiz-adv-x="638" 
d="M293 0v663h52v-663h-52zM43 634v48h552v-48h-552z" />
    <glyph glyph-name="U" unicode="U" horiz-adv-x="669" 
d="M335 -10q-72 0 -128.5 32t-89 88.5t-32.5 127.5v444h52v-440q0 -61 26 -106.5t71 -70t101 -24.5q57 0 101 24.5t70 70t26 105.5v441h53v-445q0 -71 -33 -127t-89 -88t-128 -32z" />
    <glyph glyph-name="V" unicode="V" horiz-adv-x="671" 
d="M313 0l-269 682h57l245 -627h-22l247 627h56l-271 -682h-43z" />
    <glyph glyph-name="W" unicode="W" horiz-adv-x="978" 
d="M264 0l-219 682h54l194 -619h-19l193 619h43l194 -619h-20l195 619h54l-219 -682h-41l-193 618h17l-192 -618h-41z" />
    <glyph glyph-name="X" unicode="X" horiz-adv-x="678" 
d="M572 0l-240 329h-9l-269 353h63l234 -308h9l275 -374h-63zM43 0l273 358l34 -33l-247 -325h-60zM364 334l-32 34l233 314h60z" />
    <glyph glyph-name="Y" unicode="Y" horiz-adv-x="652" 
d="M315 286l-273 396h62l234 -341h-23l236 341h60l-275 -396h-21zM300 0v329h53v-329h-53z" />
    <glyph glyph-name="Z" unicode="Z" horiz-adv-x="571" 
d="M48 34l412 615h62l-412 -615h-62zM48 0v34l44 14h423v-48h-467zM65 634v48h457v-33l-45 -15h-412z" />
    <glyph glyph-name="bracketleft" unicode="[" horiz-adv-x="331" 
d="M90 -96v798h44v-798h-44zM112 -96v41h176v-41h-176zM112 662v40h176v-40h-176z" />
    <glyph glyph-name="backslash" unicode="\" horiz-adv-x="369" 
d="M297 -40l-272 758h47l272 -758h-47z" />
    <glyph glyph-name="bracketright" unicode="]" horiz-adv-x="331" 
d="M197 -96v798h45v-798h-45zM43 -96v41h176v-41h-176zM43 662v40h176v-40h-176z" />
    <glyph glyph-name="asciicircum" unicode="^" horiz-adv-x="456" 
d="M341 457l-121 214h16l-121 -214h-47l141 245h37l143 -245h-48z" />
    <glyph glyph-name="underscore" unicode="_" horiz-adv-x="552" 
d="M60 -103v44h432v-44h-432z" />
    <glyph glyph-name="grave" unicode="`" horiz-adv-x="256" 
d="M194 538l-154 137l42 41l134 -156z" />
    <glyph glyph-name="a" unicode="a" horiz-adv-x="587" 
d="M281 -10q-67 0 -120.5 32t-84.5 86.5t-31 123.5q0 68 31 123t84 87.5t119 32.5q54 0 96.5 -20.5t70 -57.5t35.5 -88v-152q-9 -51 -36.5 -88.5t-69 -58t-94.5 -20.5zM288 38q80 0 127.5 53.5t47.5 140.5q0 59 -21.5 102.5t-61.5 68t-93 24.5q-55 0 -97.5 -25t-67 -69
t-24.5 -100q0 -57 24.5 -101t67.5 -69t98 -25zM461 0v125l11 114l-11 113v113h51v-465h-51z" />
    <glyph glyph-name="b" unicode="b" horiz-adv-x="587" 
d="M311 -10q-52 0 -95.5 21t-72.5 58.5t-38 87.5v152q9 51 38.5 88.5t73 57.5t94.5 20q66 0 118 -32t82 -87t30 -124t-30 -123.5t-82 -86.5t-118 -32zM75 0v702h51v-350l-12 -113l12 -114v-125h-51zM302 38q55 0 97 25t66 69t24 101t-24 101t-65.5 68.5t-94.5 24.5
q-54 0 -94.5 -24.5t-63.5 -68.5t-23 -102q0 -57 22.5 -100.5t63 -68.5t92.5 -25z" />
    <glyph glyph-name="c" unicode="c" horiz-adv-x="493" 
d="M286 -10q-68 0 -122.5 32.5t-86.5 88t-32 123.5t32 122.5t86.5 86.5t122.5 32q51 0 96 -19t77 -54l-34 -34q-26 28 -61.5 43.5t-77.5 15.5q-54 0 -96.5 -25.5t-67.5 -68.5t-25 -99t25 -100t67.5 -70t96.5 -26q42 0 78.5 15.5t62.5 44.5l34 -34q-33 -35 -78.5 -54.5
t-96.5 -19.5z" />
    <glyph glyph-name="d" unicode="d" horiz-adv-x="587" 
d="M276 -10q-66 0 -118 32t-82 86.5t-30 123.5t30 124t82 87t118 32q51 0 94.5 -20t73.5 -57.5t38 -88.5v-152q-9 -50 -38 -87.5t-72.5 -58.5t-95.5 -21zM285 38q53 0 93 25t62.5 68.5t22.5 100.5q0 58 -23 101.5t-63.5 68.5t-94.5 25q-53 0 -94.5 -25t-65.5 -68.5
t-24 -100.5t24 -101t66 -69t97 -25zM512 0h-51v125l12 114l-12 113v350h51v-702z" />
    <glyph glyph-name="e" unicode="e" horiz-adv-x="540" 
d="M289 -10q-69 0 -124.5 32t-87.5 87t-32 124t31 123.5t85.5 86.5t121.5 32q64 0 112.5 -28.5t76 -78.5t27.5 -115q0 -6 -1 -15.5t-3 -23.5h-414v44h385l-17 -14q2 55 -18 96.5t-58 64.5t-91 23q-55 0 -97 -24.5t-65.5 -67.5t-23.5 -100q0 -60 24.5 -104.5t68.5 -69
t103 -24.5q45 0 83.5 16.5t64.5 49.5l34 -33q-32 -38 -80.5 -59.5t-104.5 -21.5z" />
    <glyph glyph-name="f" unicode="f" horiz-adv-x="390" 
d="M147 0v553q0 47 20 82.5t55.5 55.5t81.5 20q35 0 63 -12t49 -35l-33 -34q-17 18 -37 26.5t-43 8.5q-50 0 -78 -31t-28 -84v-550h-50zM26 420v45h335v-45h-335z" />
    <glyph glyph-name="g" unicode="g" horiz-adv-x="586" 
d="M267 -207q-68 0 -123 25.5t-88 73.5l32 32q27 -38 73 -60.5t107 -22.5q89 0 140.5 48t51.5 129v117l12 108l-12 105v117h51v-447q0 -68 -30.5 -118t-85.5 -78.5t-128 -28.5zM277 3q-66 0 -118.5 30.5t-82.5 84t-30 121.5q0 67 30 120.5t82 84.5t118 31q54 0 97 -20.5
t71.5 -57.5t36.5 -88v-141q-9 -50 -37.5 -87.5t-71 -57.5t-95.5 -20zM286 50q52 0 92.5 23.5t62.5 66t22 99.5q0 56 -22.5 98t-62.5 66t-94 24t-96 -24t-66 -66t-24 -97t24 -98t66.5 -67.5t97.5 -24.5z" />
    <glyph glyph-name="h" unicode="h" horiz-adv-x="541" 
d="M425 0v276q0 68 -40 110t-106 42q-45 0 -79.5 -19.5t-54 -53.5t-19.5 -79l-26 15q0 53 25 94.5t68 65.5t98 24t96.5 -24.5t64.5 -68.5t23 -100v-282h-50zM75 0v702h51v-702h-51z" />
    <glyph glyph-name="i" unicode="i" horiz-adv-x="203" 
d="M76 0v465h50v-465h-50zM101 573q-17 0 -28.5 12.5t-11.5 29.5t11.5 28.5t28.5 11.5t29 -11.5t12 -28.5t-12 -29.5t-29 -12.5z" />
    <glyph glyph-name="j" unicode="j" horiz-adv-x="205" 
d="M-9 -207q-36 0 -65 12.5t-51 36.5l34 33q17 -18 37 -26.5t43 -8.5q38 0 64 22t26 70v533h51v-532q0 -46 -19.5 -77t-51 -47t-68.5 -16zM104 573q-17 0 -28 12.5t-11 29.5t11 28.5t28 11.5q18 0 29.5 -11.5t11.5 -28.5t-11.5 -29.5t-29.5 -12.5z" />
    <glyph glyph-name="k" unicode="k" horiz-adv-x="471" 
d="M378 0l-259 239l254 226h65l-270 -239l1 28l278 -254h-69zM75 0v702h51v-702h-51z" />
    <glyph glyph-name="l" unicode="l" horiz-adv-x="201" 
d="M75 0v702h51v-702h-51z" />
    <glyph glyph-name="m" unicode="m" horiz-adv-x="843" 
d="M75 0v465h51v-465h-51zM401 0v289q0 63 -37.5 101t-95.5 38q-39 0 -71 -17t-51.5 -48t-19.5 -72l-26 6q0 54 23.5 94t64 62t90.5 22t89 -22t62 -62t23 -94v-297h-51zM727 0v289q0 63 -37.5 101t-95.5 38q-39 0 -71.5 -17t-51.5 -48t-19 -72l-31 6q1 55 25.5 94.5
t65.5 61.5t91 22t89 -22t62.5 -62.5t23.5 -94.5v-296h-51z" />
    <glyph glyph-name="n" unicode="n" horiz-adv-x="541" 
d="M425 0v276q0 68 -40 110t-106 42q-45 0 -79.5 -19.5t-54 -53.5t-19.5 -79l-26 15q0 53 25 94.5t68 65.5t98 24t96.5 -25.5t64.5 -69.5t23 -98v-282h-50zM75 0v465h51v-465h-51z" />
    <glyph glyph-name="o" unicode="o" horiz-adv-x="571" 
d="M286 -10q-68 0 -122.5 32.5t-86.5 88t-32 123.5t32 122.5t86.5 86.5t122.5 32q67 0 121.5 -32t86.5 -86.5t32 -122.5q0 -69 -32 -124t-86.5 -87.5t-121.5 -32.5zM286 38q53 0 95.5 26t67 70.5t24.5 100.5q0 55 -24.5 98t-67 68.5t-95.5 25.5q-54 0 -96.5 -25.5
t-67.5 -68.5t-25 -99t25 -100t67.5 -70t96.5 -26z" />
    <glyph glyph-name="p" unicode="p" horiz-adv-x="587" 
d="M311 -10q-52 0 -95.5 21t-72.5 58.5t-38 87.5v152q9 51 38.5 88.5t73 57.5t94.5 20q66 0 118 -32t82 -87t30 -124t-30 -123.5t-82 -86.5t-118 -32zM75 -197v662h51v-116l-12 -113l12 -114v-319h-51zM302 38q55 0 97 25t66 69t24 101t-24 101t-65.5 68.5t-94.5 24.5
q-54 0 -94.5 -24.5t-63.5 -68.5t-23 -102q0 -57 22.5 -100.5t63 -68.5t92.5 -25z" />
    <glyph glyph-name="q" unicode="q" horiz-adv-x="588" 
d="M282 -10q-68 0 -121 32t-84 86.5t-31 123.5q0 68 31 123t84 87.5t119 32.5q54 0 96.5 -20.5t70 -57.5t35.5 -88v-152q-9 -51 -36.5 -88.5t-69.5 -58t-94 -20.5zM289 38q80 0 127.5 53.5t47.5 140.5q0 59 -22 102.5t-61.5 68t-92.5 24.5q-55 0 -97.5 -25t-67.5 -69
t-25 -100q0 -57 25 -101t68 -69t98 -25zM462 -197v319l11 114l-11 113v116h50v-662h-50z" />
    <glyph glyph-name="r" unicode="r" horiz-adv-x="408" 
d="M75 0v465h51v-465h-51zM126 278l-25 9q0 89 45 138.5t118 49.5q34 0 63.5 -12t54.5 -39l-34 -36q-19 21 -41 30t-52 9q-57 0 -93 -38.5t-36 -110.5z" />
    <glyph glyph-name="s" unicode="s" horiz-adv-x="420" 
d="M214 -10q-38 0 -71.5 10.5t-61 29.5t-48.5 44l34 34q28 -37 65.5 -54.5t82.5 -17.5q52 0 82 21t30 59q0 34 -19 53.5t-49.5 30.5t-64 21t-64 24t-49.5 39t-19 67q0 37 19 65t53.5 43.5t81.5 15.5q52 0 93.5 -18t66.5 -53l-33 -34q-20 28 -54 43.5t-76 15.5q-50 0 -76 -21
t-26 -54q0 -31 19 -49t49.5 -28t64 -19.5t64 -24.5t49.5 -41t19 -71q0 -60 -44 -95.5t-118 -35.5z" />
    <glyph glyph-name="t" unicode="t" horiz-adv-x="347" 
d="M148 0v662h51v-662h-51zM28 420v45h291v-45h-291z" />
    <glyph glyph-name="u" unicode="u" horiz-adv-x="513" 
d="M257 -10q-56 0 -100 26t-68.5 72t-24.5 106v271h51v-269q0 -47 17.5 -82.5t49.5 -55.5t75 -20q64 0 102.5 43.5t38.5 114.5v269h51v-271q0 -60 -24.5 -106t-68 -72t-99.5 -26z" />
    <glyph glyph-name="v" unicode="v" horiz-adv-x="513" 
d="M241 0l-217 465h56l192 -422h-31l193 422h55l-218 -465h-30z" />
    <glyph glyph-name="w" unicode="w" horiz-adv-x="742" 
d="M203 0l-176 465h53l149 -411h-22l149 411h30l149 -411h-22l149 411h53l-175 -465h-31l-151 412h27l-152 -412h-30z" />
    <glyph glyph-name="x" unicode="x" horiz-adv-x="493" 
d="M404 0l-167 219l-12 10l-190 236h63l158 -200l12 -8l199 -257h-63zM26 0l200 253l27 -39l-165 -214h-62zM269 229l-26 37l155 199h61z" />
    <glyph glyph-name="y" unicode="y" horiz-adv-x="506" 
d="M234 -1l-207 466h56l179 -413h-26l187 413h56l-219 -466h-26zM113 -197l120 246l27 -50l-92 -196h-55z" />
    <glyph glyph-name="z" unicode="z" horiz-adv-x="438" 
d="M33 28l310 409h60l-310 -409h-60zM33 0v28l40 17h325v-45h-365zM49 420v45h354v-28l-48 -17h-306z" />
    <glyph glyph-name="braceleft" unicode="{" horiz-adv-x="316" 
d="M234 -96q-69 0 -106 44.5t-26 136.5l13 112q6 46 -7 67t-41 21h-27v39h27q28 0 41 21.5t7 66.5l-13 109q-11 93 26 137t106 44h39v-40h-31q-51 0 -77.5 -31t-17.5 -106l12 -109q4 -33 -2 -58t-23.5 -41t-48.5 -25v22q31 -6 48.5 -22t23.5 -41t2 -58l-12 -112
q-8 -74 18 -105t77 -31h31v-41h-39z" />
    <glyph glyph-name="bar" unicode="|" horiz-adv-x="271" 
d="M112 -130v882h47v-882h-47z" />
    <glyph glyph-name="braceright" unicode="}" horiz-adv-x="316" 
d="M83 -96h-40v41h32q51 0 77 31t18 105l-12 112q-3 33 2.5 58t23 41t48.5 22v-22q-31 9 -48.5 25t-23 41t-2.5 58l12 109q9 75 -17.5 106t-77.5 31h-32v40h40q68 0 105.5 -44t25.5 -137l-13 -109q-6 -45 7.5 -66.5t40.5 -21.5h27v-39h-27q-27 0 -40.5 -21t-7.5 -67l13 -112
q12 -92 -25.5 -136.5t-105.5 -44.5z" />
    <glyph glyph-name="asciitilde" unicode="~" horiz-adv-x="531" 
d="M357 289q-25 0 -45.5 7t-40.5 15.5t-41.5 15t-47.5 6.5q-32 0 -52.5 -10t-35.5 -29l-30 28q20 27 47.5 42.5t69.5 15.5q28 0 50.5 -6.5t42.5 -15.5t39.5 -15.5t42.5 -6.5q27 0 47.5 10.5t35.5 28.5l29 -28q-19 -26 -46.5 -42t-64.5 -16z" />
    <glyph glyph-name="uni00A0" unicode="&#xa0;" horiz-adv-x="223" 
 />
    <glyph glyph-name="exclamdown" unicode="&#xa1;" horiz-adv-x="262" 
d="M102 -197l9 465h40l9 -465h-58zM130 377q-21 0 -35 14.5t-14 34.5q0 21 14 35t35 14q20 0 34 -14t14 -35q0 -20 -14 -34.5t-34 -14.5z" />
    <glyph glyph-name="cent" unicode="&#xa2;" horiz-adv-x="508" 
d="M293 99q-68 0 -122.5 32t-86.5 87.5t-32 124.5q0 68 32 122.5t86.5 86.5t122.5 32q51 0 96 -19.5t76 -54.5l-33 -34q-26 28 -62 43.5t-77 15.5q-54 0 -97 -25t-67.5 -68.5t-24.5 -98.5q0 -57 24.5 -101t67.5 -69.5t97 -25.5q42 0 78.5 15.5t62.5 44.5l34 -34
q-33 -36 -78.5 -55t-96.5 -19zM261 10v662h39v-662h-39z" />
    <glyph glyph-name="sterling" unicode="&#xa3;" horiz-adv-x="614" 
d="M178 8v482q0 64 26 109.5t71 69t99 23.5q67 0 109 -25.5t65 -58.5l-36 -36q-24 31 -56.5 51t-83.5 20q-39 0 -71 -17t-51.5 -50t-19.5 -81v-487h-52zM74 0v48h460v-48h-460zM74 305v44h375v-44h-375z" />
    <glyph glyph-name="currency" unicode="&#xa4;" horiz-adv-x="493" 
d="M247 146q-55 0 -99.5 26.5t-70 71t-25.5 99.5q0 54 25.5 98t70 69.5t99.5 25.5q54 0 98 -25t70 -69.5t26 -98.5q0 -56 -26 -100.5t-70 -70.5t-98 -26zM60 126l-29 28l78 78l28 -28zM247 192q41 0 73.5 20t51.5 54t19 77q0 42 -19 75.5t-51.5 53t-73.5 19.5
q-42 0 -74.5 -19.5t-51 -53t-18.5 -75.5q0 -44 18.5 -77.5t51.5 -53.5t74 -20zM435 126l-79 78l28 28l78 -78zM109 452l-78 77l29 28l77 -78zM384 452l-28 27l79 78l27 -28z" />
    <glyph glyph-name="yen" unicode="&#xa5;" horiz-adv-x="650" 
d="M313 284l-237 398h62l199 -347h-23l200 347h59l-238 -398h-22zM299 0v324h52v-324h-52zM240 451l19 -44h-159v44h140zM100 233v44h450v-44h-450zM387 407l25 44h138v-44h-163z" />
    <glyph glyph-name="brokenbar" unicode="&#xa6;" horiz-adv-x="271" 
d="M112 388v364h47v-364h-47zM112 -130v364h47v-364h-47z" />
    <glyph glyph-name="section" unicode="&#xa7;" horiz-adv-x="522" 
d="M269 140l1 39q58 0 92.5 26t34.5 66q0 41 -21.5 63t-54.5 35t-71 24t-71.5 27.5t-54.5 46t-21 80.5q0 42 20.5 75t58 51.5t90.5 18.5q57 0 102.5 -22.5t71.5 -61.5l-35 -35q-23 34 -61.5 52t-81.5 18q-56 0 -85.5 -26.5t-29.5 -66.5q0 -39 21 -60.5t54.5 -34.5t71 -24
t71 -28t54.5 -46.5t21 -79.5q0 -42 -22.5 -72.5t-62 -47.5t-92.5 -17zM250 -121q-56 0 -102 22.5t-72 62.5l35 35q23 -35 61.5 -53t81.5 -18q56 0 85.5 27t29.5 66t-21 61t-54.5 35t-71 23.5t-71 27.5t-54.5 46.5t-21 80.5q0 42 22.5 72t62.5 47t92 17l-1 -39
q-58 0 -92.5 -25.5t-34.5 -66.5q0 -40 21.5 -62.5t54.5 -35.5t71 -24t71.5 -27.5t54.5 -46t21 -79.5q0 -43 -20.5 -75.5t-58 -51.5t-90.5 -19z" />
    <glyph glyph-name="dieresis" unicode="&#xa8;" horiz-adv-x="381" 
d="M100 548q-17 0 -28.5 12.5t-11.5 29.5t11.5 28.5t28.5 11.5t29 -11.5t12 -28.5t-12 -29.5t-29 -12.5zM280 548q-17 0 -28.5 12.5t-11.5 29.5t11.5 28.5t28.5 11.5t29 -11.5t12 -28.5t-12 -29.5t-29 -12.5z" />
    <glyph glyph-name="copyright" unicode="&#xa9;" horiz-adv-x="850" 
d="M426 -10q-76 0 -140 27t-110.5 75t-72 112t-25.5 138q0 75 25 138.5t71.5 111t110 74t140.5 26.5q76 0 140 -27t110.5 -74t72 -111t25.5 -139q0 -74 -25.5 -138t-72 -112t-109.5 -74.5t-140 -26.5zM430 147q-54 0 -98.5 26t-70 70.5t-25.5 99.5q0 54 25.5 98t70 69.5
t98.5 25.5q41 0 76.5 -15t63.5 -44l-31 -33q-20 22 -47.5 34t-61.5 12q-40 0 -72.5 -19t-51.5 -52t-19 -76q0 -44 19 -78t51.5 -53t72.5 -19q33 0 61.5 11.5t49.5 34.5l30 -33q-26 -28 -62.5 -43.5t-78.5 -15.5zM425 24q92 0 162 42t109.5 114t39.5 162q0 89 -39.5 160.5
t-109.5 113.5t-162 42t-162 -41.5t-109 -113t-39 -161.5t39.5 -162t109.5 -114t161 -42z" />
    <glyph glyph-name="ordfeminine" unicode="&#xaa;" horiz-adv-x="353" 
d="M166 395q-40 0 -72 19t-50.5 52t-18.5 75t18.5 75.5t50.5 52.5t72 19q46 0 78.5 -26t39.5 -71v-99q-7 -44 -39 -70.5t-79 -26.5zM173 433q44 0 71 29.5t27 79.5q0 48 -27.5 78t-71.5 30q-46 0 -75.5 -31t-29.5 -77q0 -47 30 -78t76 -31zM269 401v75l8 69l-8 68v69h41
v-281h-41z" />
    <glyph glyph-name="guillemotleft" unicode="&#xab;" horiz-adv-x="423" 
d="M167 83l-119 153l119 154h54l-121 -154l121 -153h-54zM322 83l-119 153l119 154h54l-122 -154l122 -153h-54z" />
    <glyph glyph-name="logicalnot" unicode="&#xac;" horiz-adv-x="531" 
d="M70 361v44h392v-44h-392zM415 395h47v-213h-47v213z" />
    <glyph glyph-name="registered" unicode="&#xae;" horiz-adv-x="588" 
d="M295 267q-62 0 -110 28.5t-74.5 77t-26.5 108.5q0 59 26.5 107t73.5 76t109 28q63 0 110.5 -28.5t74.5 -76.5t27 -107q0 -60 -27 -108t-74 -76.5t-109 -28.5zM224 371v225h28v-225h-28zM361 371l-87 107h32l88 -107h-33zM293 290q56 0 98 25.5t65.5 68.5t23.5 97
q0 53 -23.5 95.5t-65.5 67.5t-98 25q-55 0 -96.5 -25t-65 -67.5t-23.5 -95.5q0 -54 23.5 -97t65.5 -68.5t96 -25.5zM234 474v26h70q20 0 30 9.5t10 24.5t-9.5 25.5t-30.5 10.5h-70v26h69q33 0 51.5 -17t18.5 -44t-18.5 -44t-51.5 -17h-69z" />
    <glyph glyph-name="macron" unicode="&#xaf;" horiz-adv-x="407" 
d="M40 610h327v-42h-327v42z" />
    <glyph glyph-name="degree" unicode="&#xb0;" horiz-adv-x="398" 
d="M199 392q-42 0 -76 19.5t-53.5 53.5t-19.5 76q0 44 19.5 77.5t53.5 53.5t76 20q43 0 76.5 -20t53 -53.5t19.5 -77.5q0 -42 -19.5 -76t-53 -53.5t-76.5 -19.5zM200 433q45 0 74 31.5t29 78.5t-29 77.5t-74 30.5q-46 0 -75.5 -30.5t-29.5 -77.5t29.5 -78.5t75.5 -31.5z" />
    <glyph glyph-name="plusminus" unicode="&#xb1;" horiz-adv-x="531" 
d="M70 366v44h392v-44h-392zM243 542h46v-308h-46v308zM70 124v45h392v-45h-392z" />
    <glyph glyph-name="uni00B2" unicode="&#xb2;" horiz-adv-x="329" 
d="M44 364l130 133q31 32 41.5 50.5t10.5 38.5q0 29 -17.5 45.5t-47.5 16.5q-26 0 -46.5 -13t-37.5 -39l-30 28q21 32 50 47.5t66 15.5q49 0 78.5 -27t29.5 -73q0 -30 -13 -54.5t-50 -60.5l-106 -108h-58zM44 337v27l37 12h199v-39h-236z" />
    <glyph glyph-name="uni00B3" unicode="&#xb3;" horiz-adv-x="329" 
d="M151 332q-35 0 -63 13.5t-47 36.5l30 30q12 -18 33 -29t47 -11q34 0 56 19.5t22 52.5t-22 53t-59 20q-8 0 -17 -1.5t-19 -3.5l18 24q13 6 23 8t19 2q44 0 73 -28.5t29 -74.5q0 -49 -34.5 -80t-88.5 -31zM112 512v27l107 119l50 -2l-109 -120zM59 644v38h210v-26l-36 -12
h-174z" />
    <glyph glyph-name="acute" unicode="&#xb4;" horiz-adv-x="256" 
d="M62 540l-22 22l135 157l41 -42z" />
    <glyph glyph-name="uni00B5" unicode="&#xb5;" horiz-adv-x="586" 
d="M112 -182v647h51v-647h-51zM309 -10q-81 0 -128 51t-47 133l29 15q0 -69 37.5 -110t99.5 -41t104 39.5t42 112.5v275h51v-279q0 -58 -24.5 -102.5t-67 -69t-96.5 -24.5z" />
    <glyph glyph-name="paragraph" unicode="&#xb6;" horiz-adv-x="681" 
d="M369 282h-89q-60 0 -107 24.5t-74.5 69.5t-27.5 106t27.5 105.5t74.5 69.5t107 25h339v-47h-334q-46 0 -82.5 -18.5t-57.5 -53t-21 -81.5t21 -81.5t57.5 -53t82.5 -18.5h84v-47zM390 -100h-47v782h47v-782zM527 -100h-47v782h47v-782z" />
    <glyph glyph-name="periodcentered" unicode="&#xb7;" horiz-adv-x="97" 
d="M48 309q-20 0 -34 15t-14 34q0 21 14 35t34 14q21 0 35 -14t14 -35q0 -19 -14 -34t-35 -15z" />
    <glyph glyph-name="cedilla" unicode="&#xb8;" horiz-adv-x="264" 
d="M132 -207q-31 0 -60 10t-53 29l31 31q14 -14 34.5 -22t45.5 -8q36 0 55 12t19 34q0 21 -20.5 33.5t-59.5 12.5h-28l27 85h46l-22 -70l-20 20q59 1 92.5 -21.5t33.5 -61.5t-32 -61.5t-89 -22.5z" />
    <glyph glyph-name="uni00B9" unicode="&#xb9;" horiz-adv-x="247" 
d="M113 337v345h44v-345h-44zM40 644v38h112v-38h-112z" />
    <glyph glyph-name="ordmasculine" unicode="&#xba;" horiz-adv-x="343" 
d="M172 394q-41 0 -75 20t-53 53.5t-19 74.5q0 42 19.5 74.5t53 52t74.5 19.5t74 -19t53 -52t20 -75q0 -41 -20 -75t-53 -53.5t-74 -19.5zM172 433q45 0 74.5 31.5t29.5 78.5q0 45 -30 75.5t-74 30.5q-45 0 -75 -30.5t-30 -76.5q0 -47 30 -78t75 -31z" />
    <glyph glyph-name="guillemotright" unicode="&#xbb;" horiz-adv-x="423" 
d="M202 83l121 153l-121 154h54l119 -154l-119 -153h-54zM47 83l122 153l-122 154h54l119 -154l-119 -153h-54z" />
    <glyph glyph-name="onequarter" unicode="&#xbc;" horiz-adv-x="649" 
d="M263 297l23 -18l-190 -290l-47 40zM347 386l-23 19l190 290l47 -41zM143 337v345h44v-345h-44zM71 644v38h111v-38h-111zM333 99l124 233h50l-127 -233h-47zM333 72v27l15 13h251v-40h-266zM508 -13v225h44v-225h-44z" />
    <glyph glyph-name="onehalf" unicode="&#xbd;" horiz-adv-x="643" 
d="M263 297l23 -18l-190 -290l-47 40zM347 386l-23 19l190 290l47 -41zM143 337v345h44v-345h-44zM71 644v38h111v-38h-111zM348 14l130 133q32 32 42.5 50.5t10.5 38.5q0 29 -18 45.5t-48 16.5q-26 0 -46 -13t-37 -39l-31 28q21 32 50 47.5t67 15.5q49 0 78 -27t29 -73
q0 -30 -13 -54.5t-50 -60.5l-106 -108h-58zM348 -13v27l37 12h199v-39h-236z" />
    <glyph glyph-name="threequarters" unicode="&#xbe;" horiz-adv-x="641" 
d="M284 299l23 -18l-185 -292l-47 40zM381 385l-23 17l184 293l48 -41zM164 332q-35 0 -63 13.5t-46 36.5l29 30q12 -18 33.5 -29t46.5 -11q34 0 56 19.5t22 52.5t-22 53t-59 20q-8 0 -16.5 -1.5t-18.5 -3.5l18 24q12 6 22.5 8t19.5 2q43 0 72.5 -28.5t29.5 -74.5
q0 -49 -34.5 -80t-89.5 -31zM126 512v27l107 119l49 -2l-108 -120zM72 644v38h210v-26l-36 -12h-174zM316 99l125 233h49l-127 -233h-47zM316 72v27l15 13h251v-40h-266zM491 -13v225h44v-225h-44z" />
    <glyph glyph-name="questiondown" unicode="&#xbf;" horiz-adv-x="500" 
d="M255 -207q-56 0 -99 24.5t-67 67t-24 95.5q0 54 23 95t65 65.5t96 29.5l-20 -24l5 122h43l2 -144h-25q-60 -3 -98 -41t-38 -101q0 -38 17 -69.5t48.5 -50.5t73.5 -19q57 0 95 26t61 65l37 -34q-27 -47 -77 -77t-118 -30zM257 377q-21 0 -35 14.5t-14 35.5q0 20 14 34
t35 14q20 0 34 -14t14 -34q0 -21 -14 -35.5t-34 -14.5z" />
    <glyph glyph-name="Agrave" unicode="&#xc0;" horiz-adv-x="684" 
d="M44 0l278 682h42l277 -682h-58l-251 628h21l-253 -628h-56zM165 201v47h355v-47h-355zM381 755l-154 137l42 41l134 -156z" />
    <glyph glyph-name="Aacute" unicode="&#xc1;" horiz-adv-x="684" 
d="M44 0l278 682h42l277 -682h-58l-251 628h21l-253 -628h-56zM165 201v47h355v-47h-355zM276 757l-22 22l135 157l41 -42z" />
    <glyph glyph-name="Acircumflex" unicode="&#xc2;" horiz-adv-x="684" 
d="M44 0l278 682h42l277 -682h-58l-251 628h21l-253 -628h-56zM165 201v47h355v-47h-355zM206 757l-22 22l137 154h43l137 -154l-22 -22l-153 136h33z" />
    <glyph glyph-name="Atilde" unicode="&#xc3;" horiz-adv-x="684" 
d="M44 0l278 682h42l277 -682h-58l-251 628h21l-253 -628h-56zM165 201v47h355v-47h-355zM416 764q-31 0 -53 11t-42.5 22t-46.5 11q-27 0 -42 -10t-28 -28l-29 26q18 25 40.5 40.5t57.5 15.5q33 0 56 -11t43 -22t43 -11q24 0 38.5 10t27.5 28l29 -27q-18 -24 -40.5 -39.5
t-53.5 -15.5z" />
    <glyph glyph-name="Adieresis" unicode="&#xc4;" horiz-adv-x="684" 
d="M44 0l278 682h42l277 -682h-58l-251 628h21l-253 -628h-56zM165 201v47h355v-47h-355zM252 765q-17 0 -28.5 12.5t-11.5 29.5t11.5 28.5t28.5 11.5t29 -11.5t12 -28.5t-12 -29.5t-29 -12.5zM432 765q-17 0 -28.5 12.5t-11.5 29.5t11.5 28.5t28.5 11.5t29 -11.5t12 -28.5
t-12 -29.5t-29 -12.5z" />
    <glyph glyph-name="Aring" unicode="&#xc5;" horiz-adv-x="684" 
d="M44 0l278 682h42l277 -682h-58l-251 628h21l-253 -628h-56zM165 201v47h355v-47h-355zM343 662q-32 0 -56.5 14.5t-38.5 38.5t-14 54q0 31 14 55.5t38.5 38.5t56.5 14q31 0 54.5 -14t37.5 -38.5t14 -54.5q0 -31 -14 -55.5t-37.5 -38.5t-54.5 -14zM344 702q26 0 45 19.5
t19 48.5t-19 48t-45 19q-31 0 -49.5 -19.5t-18.5 -47.5q0 -29 18.5 -48.5t49.5 -19.5z" />
    <glyph glyph-name="AE" unicode="&#xc6;" horiz-adv-x="956" 
d="M44 0l278 682h205v-48h-172l-255 -634h-56zM177 264v46h342v-46h-342zM530 0v48h375v-48h-375zM497 0v682h53v-682h-53zM526 327v46h348v-46h-348zM530 634v48h369v-48h-369z" />
    <glyph glyph-name="Ccedilla" unicode="&#xc7;" horiz-adv-x="698" 
d="M402 -10q-73 0 -135.5 27t-109 75t-72 112t-25.5 138t25 137.5t71.5 111t108 74.5t134.5 27q76 0 138.5 -28t109.5 -77l-37 -37q-38 43 -92 67t-119 24q-61 0 -113 -22.5t-90.5 -63t-59.5 -95t-21 -118.5t21.5 -119t59.5 -96t90.5 -63.5t113.5 -22.5q67 0 122 24.5
t93 67.5l37 -36q-46 -50 -109.5 -78.5t-140.5 -28.5zM373 -207q-31 0 -60 10t-53 29l31 31q14 -14 34.5 -22t45.5 -8q36 0 55 12t19 34q0 21 -20.5 33.5t-59.5 12.5h-28l27 85h46l-22 -70l-20 20q59 1 92.5 -21.5t33.5 -61.5t-32 -61.5t-89 -22.5z" />
    <glyph glyph-name="Egrave" unicode="&#xc8;" horiz-adv-x="589" 
d="M93 0v682h53v-682h-53zM127 0v48h410v-48h-410zM127 327v46h379v-46h-379zM127 634v48h405v-48h-405zM356 755l-154 137l42 41l134 -156z" />
    <glyph glyph-name="Eacute" unicode="&#xc9;" horiz-adv-x="589" 
d="M93 0v682h53v-682h-53zM127 0v48h410v-48h-410zM127 327v46h379v-46h-379zM127 634v48h405v-48h-405zM250 757l-22 22l135 157l41 -42z" />
    <glyph glyph-name="Ecircumflex" unicode="&#xca;" horiz-adv-x="589" 
d="M93 0v682h53v-682h-53zM127 0v48h410v-48h-410zM127 327v46h379v-46h-379zM127 634v48h405v-48h-405zM180 757l-22 22l137 154h43l137 -154l-22 -22l-153 136h33z" />
    <glyph glyph-name="Edieresis" unicode="&#xcb;" horiz-adv-x="589" 
d="M93 0v682h53v-682h-53zM127 0v48h410v-48h-410zM127 327v46h379v-46h-379zM127 634v48h405v-48h-405zM226 765q-17 0 -28.5 12.5t-11.5 29.5t11.5 28.5t28.5 11.5t29 -11.5t12 -28.5t-12 -29.5t-29 -12.5zM406 765q-17 0 -28.5 12.5t-11.5 29.5t11.5 28.5t28.5 11.5
t29 -11.5t12 -28.5t-12 -29.5t-29 -12.5z" />
    <glyph glyph-name="Igrave" unicode="&#xcc;" horiz-adv-x="239" 
d="M93 0v682h53v-682h-53zM159 755l-154 137l42 41l134 -156z" />
    <glyph glyph-name="Iacute" unicode="&#xcd;" horiz-adv-x="239" 
d="M93 0v682h53v-682h-53zM54 757l-22 22l135 157l41 -42z" />
    <glyph glyph-name="Icircumflex" unicode="&#xce;" horiz-adv-x="239" 
d="M93 0v682h53v-682h-53zM-17 757l-22 22l137 154h43l137 -154l-22 -22l-153 136h33z" />
    <glyph glyph-name="Idieresis" unicode="&#xcf;" horiz-adv-x="239" 
d="M93 0v682h53v-682h-53zM30 765q-17 0 -28.5 12.5t-11.5 29.5t11.5 28.5t28.5 11.5t29 -11.5t12 -28.5t-12 -29.5t-29 -12.5zM210 765q-17 0 -28.5 12.5t-11.5 29.5t11.5 28.5t28.5 11.5t29 -11.5t12 -28.5t-12 -29.5t-29 -12.5z" />
    <glyph glyph-name="Eth" unicode="&#xd0;" horiz-adv-x="744" 
d="M17 372h352v-45h-352v45zM126 0v49h212q86 0 151.5 37.5t102.5 103.5t37 152q0 85 -37 151t-103 103t-151 37h-209v49h210q75 0 138 -25.5t109.5 -71t72 -108t25.5 -136.5q0 -73 -25.5 -135.5t-71.5 -108.5t-109 -71.5t-137 -25.5h-215zM98 0v682h53v-682h-53z" />
    <glyph glyph-name="Ntilde" unicode="&#xd1;" horiz-adv-x="696" 
d="M93 0v682h38l15 -64v-618h-53zM565 0l-442 612l8 70l443 -611zM565 0l-15 62v620h53v-682h-38zM422 764q-31 0 -53 11t-42.5 22t-46.5 11q-27 0 -42 -10t-28 -28l-29 26q18 25 40.5 40.5t57.5 15.5q33 0 56 -11t43 -22t43 -11q24 0 38.5 10t27.5 28l29 -27
q-18 -24 -40.5 -39.5t-53.5 -15.5z" />
    <glyph glyph-name="Ograve" unicode="&#xd2;" horiz-adv-x="793" 
d="M398 -10q-72 0 -133.5 27t-107.5 75.5t-71.5 112.5t-25.5 137q0 74 25 137.5t71 111.5t107 74.5t133 26.5t133.5 -26.5t107 -74.5t71.5 -112t26 -138q0 -73 -25.5 -137t-71.5 -112t-106.5 -75t-132.5 -27zM396 41q82 0 145.5 39.5t100.5 107.5t37 154q0 64 -21.5 118.5
t-59.5 95t-89.5 63t-112.5 22.5q-81 0 -144.5 -39t-100 -106.5t-36.5 -153.5q0 -64 21 -119t59 -96t89.5 -63.5t111.5 -22.5zM436 755l-154 137l42 41l134 -156z" />
    <glyph glyph-name="Oacute" unicode="&#xd3;" horiz-adv-x="793" 
d="M398 -10q-72 0 -133.5 27t-107.5 75.5t-71.5 112.5t-25.5 137q0 74 25 137.5t71 111.5t107 74.5t133 26.5t133.5 -26.5t107 -74.5t71.5 -112t26 -138q0 -73 -25.5 -137t-71.5 -112t-106.5 -75t-132.5 -27zM396 41q82 0 145.5 39.5t100.5 107.5t37 154q0 64 -21.5 118.5
t-59.5 95t-89.5 63t-112.5 22.5q-81 0 -144.5 -39t-100 -106.5t-36.5 -153.5q0 -64 21 -119t59 -96t89.5 -63.5t111.5 -22.5zM331 757l-22 22l135 157l41 -42z" />
    <glyph glyph-name="Ocircumflex" unicode="&#xd4;" horiz-adv-x="793" 
d="M398 -10q-72 0 -133.5 27t-107.5 75.5t-71.5 112.5t-25.5 137q0 74 25 137.5t71 111.5t107 74.5t133 26.5t133.5 -26.5t107 -74.5t71.5 -112t26 -138q0 -73 -25.5 -137t-71.5 -112t-106.5 -75t-132.5 -27zM396 41q82 0 145.5 39.5t100.5 107.5t37 154q0 64 -21.5 118.5
t-59.5 95t-89.5 63t-112.5 22.5q-81 0 -144.5 -39t-100 -106.5t-36.5 -153.5q0 -64 21 -119t59 -96t89.5 -63.5t111.5 -22.5zM261 757l-22 22l137 154h43l137 -154l-22 -22l-153 136h33z" />
    <glyph glyph-name="Otilde" unicode="&#xd5;" horiz-adv-x="793" 
d="M398 -10q-72 0 -133.5 27t-107.5 75.5t-71.5 112.5t-25.5 137q0 74 25 137.5t71 111.5t107 74.5t133 26.5t133.5 -26.5t107 -74.5t71.5 -112t26 -138q0 -73 -25.5 -137t-71.5 -112t-106.5 -75t-132.5 -27zM396 41q82 0 145.5 39.5t100.5 107.5t37 154q0 64 -21.5 118.5
t-59.5 95t-89.5 63t-112.5 22.5q-81 0 -144.5 -39t-100 -106.5t-36.5 -153.5q0 -64 21 -119t59 -96t89.5 -63.5t111.5 -22.5zM471 764q-31 0 -53 11t-42.5 22t-46.5 11q-27 0 -42 -10t-28 -28l-29 26q18 25 40.5 40.5t57.5 15.5q33 0 56 -11t43 -22t43 -11q24 0 38.5 10
t27.5 28l29 -27q-18 -24 -40.5 -39.5t-53.5 -15.5z" />
    <glyph glyph-name="Odieresis" unicode="&#xd6;" horiz-adv-x="793" 
d="M398 -10q-72 0 -133.5 27t-107.5 75.5t-71.5 112.5t-25.5 137q0 74 25 137.5t71 111.5t107 74.5t133 26.5t133.5 -26.5t107 -74.5t71.5 -112t26 -138q0 -73 -25.5 -137t-71.5 -112t-106.5 -75t-132.5 -27zM396 41q82 0 145.5 39.5t100.5 107.5t37 154q0 64 -21.5 118.5
t-59.5 95t-89.5 63t-112.5 22.5q-81 0 -144.5 -39t-100 -106.5t-36.5 -153.5q0 -64 21 -119t59 -96t89.5 -63.5t111.5 -22.5zM307 765q-17 0 -28.5 12.5t-11.5 29.5t11.5 28.5t28.5 11.5t29 -11.5t12 -28.5t-12 -29.5t-29 -12.5zM487 765q-17 0 -28.5 12.5t-11.5 29.5
t11.5 28.5t28.5 11.5t29 -11.5t12 -28.5t-12 -29.5t-29 -12.5z" />
    <glyph glyph-name="multiply" unicode="&#xd7;" horiz-adv-x="531" 
d="M111 145l-33 33l343 343l33 -33zM413 152l-328 329l33 33l328 -329z" />
    <glyph glyph-name="Oslash" unicode="&#xd8;" horiz-adv-x="793" 
d="M691 670l34 -35l-624 -623l-34 35zM397 -10q-72 0 -133.5 27t-107.5 75.5t-71.5 112.5t-25.5 137q0 74 25 137.5t71 111.5t107 74.5t133 26.5t133.5 -26.5t107.5 -74.5t71.5 -112t25.5 -138q0 -73 -25.5 -137t-71 -112t-106.5 -75t-133 -27zM395 41q82 0 145.5 39.5
t100.5 107.5t37 154q0 64 -21.5 118.5t-59.5 95t-89 63t-113 22.5q-81 0 -144.5 -39t-100 -106.5t-36.5 -153.5q0 -64 21 -119t59 -96t89.5 -63.5t111.5 -22.5z" />
    <glyph glyph-name="Ugrave" unicode="&#xd9;" horiz-adv-x="669" 
d="M335 -10q-72 0 -128.5 32t-89 88.5t-32.5 127.5v444h52v-440q0 -61 26 -106.5t71 -70t101 -24.5q57 0 101 24.5t70 70t26 105.5v441h53v-445q0 -71 -33 -127t-89 -88t-128 -32zM374 755l-154 137l42 41l134 -156z" />
    <glyph glyph-name="Uacute" unicode="&#xda;" horiz-adv-x="669" 
d="M335 -10q-72 0 -128.5 32t-89 88.5t-32.5 127.5v444h52v-440q0 -61 26 -106.5t71 -70t101 -24.5q57 0 101 24.5t70 70t26 105.5v441h53v-445q0 -71 -33 -127t-89 -88t-128 -32zM268 757l-22 22l135 157l41 -42z" />
    <glyph glyph-name="Ucircumflex" unicode="&#xdb;" horiz-adv-x="669" 
d="M335 -10q-72 0 -128.5 32t-89 88.5t-32.5 127.5v444h52v-440q0 -61 26 -106.5t71 -70t101 -24.5q57 0 101 24.5t70 70t26 105.5v441h53v-445q0 -71 -33 -127t-89 -88t-128 -32zM198 757l-22 22l137 154h43l137 -154l-22 -22l-153 136h33z" />
    <glyph glyph-name="Udieresis" unicode="&#xdc;" horiz-adv-x="669" 
d="M335 -10q-72 0 -128.5 32t-89 88.5t-32.5 127.5v444h52v-440q0 -61 26 -106.5t71 -70t101 -24.5q57 0 101 24.5t70 70t26 105.5v441h53v-445q0 -71 -33 -127t-89 -88t-128 -32zM244 765q-17 0 -28.5 12.5t-11.5 29.5t11.5 28.5t28.5 11.5t29 -11.5t12 -28.5t-12 -29.5
t-29 -12.5zM424 765q-17 0 -28.5 12.5t-11.5 29.5t11.5 28.5t28.5 11.5t29 -11.5t12 -28.5t-12 -29.5t-29 -12.5z" />
    <glyph glyph-name="Yacute" unicode="&#xdd;" horiz-adv-x="652" 
d="M315 286l-273 396h62l234 -341h-23l236 341h60l-275 -396h-21zM300 0v329h53v-329h-53zM260 757l-22 22l135 157l41 -42z" />
    <glyph glyph-name="Thorn" unicode="&#xde;" horiz-adv-x="609" 
d="M125 150v47h216q47 0 83 18.5t57 52.5t21 82q0 47 -21 81.5t-57 53t-83 18.5h-216v47h222q60 0 106.5 -25t74 -69.5t27.5 -105.5t-27.5 -106t-74 -69.5t-106.5 -24.5h-222zM93 0v682h53v-682h-53z" />
    <glyph glyph-name="germandbls" unicode="&#xdf;" horiz-adv-x="563" 
d="M314 -10q-42 0 -79 14t-64 41l32 37q20 -21 49.5 -32.5t62.5 -11.5q48 0 82 20.5t51.5 56t17.5 78.5q0 45 -20 80t-56.5 56.5t-86.5 21.5h-60v44h31q41 0 70.5 19.5t45.5 51.5t16 68t-16.5 66t-47.5 48t-74 18q-63 0 -102 -38.5t-39 -100.5v-527h-52v527q0 54 25 95.5
t68 65.5t100 24q59 0 101 -23.5t65 -63.5t23 -89q0 -62 -36.5 -107.5t-99.5 -58.5l2 18q59 -2 103.5 -27t69 -68.5t24.5 -99.5q0 -43 -14 -80t-40.5 -64.5t-65 -43t-86.5 -15.5z" />
    <glyph glyph-name="agrave" unicode="&#xe0;" horiz-adv-x="587" 
d="M281 -10q-67 0 -120.5 32t-84.5 86.5t-31 123.5q0 68 31 123t84 87.5t119 32.5q54 0 96.5 -20.5t70 -57.5t35.5 -88v-152q-9 -51 -36.5 -88.5t-69 -58t-94.5 -20.5zM288 38q80 0 127.5 53.5t47.5 140.5q0 59 -21.5 102.5t-61.5 68t-93 24.5q-55 0 -97.5 -25t-67 -69
t-24.5 -100q0 -57 24.5 -101t67.5 -69t98 -25zM461 0v125l11 114l-11 113v113h51v-465h-51zM340 538l-154 137l42 41l134 -156z" />
    <glyph glyph-name="aacute" unicode="&#xe1;" horiz-adv-x="587" 
d="M281 -10q-67 0 -120.5 32t-84.5 86.5t-31 123.5q0 68 31 123t84 87.5t119 32.5q54 0 96.5 -20.5t70 -57.5t35.5 -88v-152q-9 -51 -36.5 -88.5t-69 -58t-94.5 -20.5zM288 38q80 0 127.5 53.5t47.5 140.5q0 59 -21.5 102.5t-61.5 68t-93 24.5q-55 0 -97.5 -25t-67 -69
t-24.5 -100q0 -57 24.5 -101t67.5 -69t98 -25zM461 0v125l11 114l-11 113v113h51v-465h-51zM234 540l-22 22l135 157l41 -42z" />
    <glyph glyph-name="acircumflex" unicode="&#xe2;" horiz-adv-x="587" 
d="M281 -10q-67 0 -120.5 32t-84.5 86.5t-31 123.5q0 68 31 123t84 87.5t119 32.5q54 0 96.5 -20.5t70 -57.5t35.5 -88v-152q-9 -51 -36.5 -88.5t-69 -58t-94.5 -20.5zM288 38q80 0 127.5 53.5t47.5 140.5q0 59 -21.5 102.5t-61.5 68t-93 24.5q-55 0 -97.5 -25t-67 -69
t-24.5 -100q0 -57 24.5 -101t67.5 -69t98 -25zM461 0v125l11 114l-11 113v113h51v-465h-51zM164 540l-22 22l137 154h43l137 -154l-22 -22l-153 136h33z" />
    <glyph glyph-name="atilde" unicode="&#xe3;" horiz-adv-x="587" 
d="M281 -10q-67 0 -120.5 32t-84.5 86.5t-31 123.5q0 68 31 123t84 87.5t119 32.5q54 0 96.5 -20.5t70 -57.5t35.5 -88v-152q-9 -51 -36.5 -88.5t-69 -58t-94.5 -20.5zM288 38q80 0 127.5 53.5t47.5 140.5q0 59 -21.5 102.5t-61.5 68t-93 24.5q-55 0 -97.5 -25t-67 -69
t-24.5 -100q0 -57 24.5 -101t67.5 -69t98 -25zM461 0v125l11 114l-11 113v113h51v-465h-51zM374 547q-31 0 -53 11t-42.5 22t-46.5 11q-27 0 -42 -10t-28 -28l-29 26q18 25 40.5 40.5t57.5 15.5q33 0 56 -11t43 -22t43 -11q24 0 38.5 10t27.5 28l29 -27q-18 -24 -40.5 -39.5
t-53.5 -15.5z" />
    <glyph glyph-name="adieresis" unicode="&#xe4;" horiz-adv-x="587" 
d="M281 -10q-67 0 -120.5 32t-84.5 86.5t-31 123.5q0 68 31 123t84 87.5t119 32.5q54 0 96.5 -20.5t70 -57.5t35.5 -88v-152q-9 -51 -36.5 -88.5t-69 -58t-94.5 -20.5zM288 38q80 0 127.5 53.5t47.5 140.5q0 59 -21.5 102.5t-61.5 68t-93 24.5q-55 0 -97.5 -25t-67 -69
t-24.5 -100q0 -57 24.5 -101t67.5 -69t98 -25zM461 0v125l11 114l-11 113v113h51v-465h-51zM210 548q-17 0 -28.5 12.5t-11.5 29.5t11.5 28.5t28.5 11.5t29 -11.5t12 -28.5t-12 -29.5t-29 -12.5zM390 548q-17 0 -28.5 12.5t-11.5 29.5t11.5 28.5t28.5 11.5t29 -11.5
t12 -28.5t-12 -29.5t-29 -12.5z" />
    <glyph glyph-name="aring" unicode="&#xe5;" horiz-adv-x="587" 
d="M281 -10q-67 0 -120.5 32t-84.5 86.5t-31 123.5q0 68 31 123t84 87.5t119 32.5q54 0 96.5 -20.5t70 -57.5t35.5 -88v-152q-9 -51 -36.5 -88.5t-69 -58t-94.5 -20.5zM288 38q80 0 127.5 53.5t47.5 140.5q0 59 -21.5 102.5t-61.5 68t-93 24.5q-55 0 -97.5 -25t-67 -69
t-24.5 -100q0 -57 24.5 -101t67.5 -69t98 -25zM461 0v125l11 114l-11 113v113h51v-465h-51zM302 522q-32 0 -56.5 14.5t-38.5 38.5t-14 54q0 31 14 55.5t38.5 38.5t56.5 14q31 0 54.5 -14t37.5 -38.5t14 -54.5q0 -31 -14 -55.5t-37.5 -38.5t-54.5 -14zM303 562q26 0 45 19.5
t19 48.5t-19 48t-45 19q-31 0 -49.5 -19.5t-18.5 -47.5q0 -29 18.5 -48.5t49.5 -19.5z" />
    <glyph glyph-name="ae" unicode="&#xe6;" horiz-adv-x="958" 
d="M707 -10q-69 0 -124.5 32t-87.5 87t-32 124t31 123.5t85.5 86.5t121.5 32q64 0 112.5 -28.5t76 -78.5t27.5 -115q0 -6 -1 -15.5t-3 -23.5h-414v44h385l-17 -14q2 55 -18 96.5t-58 64.5t-91 23q-55 0 -97 -24.5t-65.5 -67.5t-23.5 -100q0 -60 24.5 -104.5t68.5 -69
t103 -24.5q45 0 83.5 16.5t64.5 49.5l34 -33q-32 -38 -80.5 -59.5t-104.5 -21.5zM281 -10q-67 0 -120.5 32t-84.5 86.5t-31 123.5q0 68 31 123t84 87.5t119 32.5q54 0 96.5 -20.5t70 -57.5t35.5 -88v-152q-9 -51 -36.5 -88.5t-69 -58t-94.5 -20.5zM288 38q80 0 127.5 53.5
t47.5 140.5q0 59 -21.5 102.5t-61.5 68t-93 24.5q-55 0 -97.5 -25t-67 -69t-24.5 -100q0 -57 24.5 -101t67.5 -69t98 -25zM461 0v125l11 114l-11 113v113h51v-465h-51z" />
    <glyph glyph-name="ccedilla" unicode="&#xe7;" horiz-adv-x="493" 
d="M286 -10q-68 0 -122.5 32.5t-86.5 88t-32 123.5t32 122.5t86.5 86.5t122.5 32q51 0 96 -19t77 -54l-34 -34q-26 28 -61.5 43.5t-77.5 15.5q-54 0 -96.5 -25.5t-67.5 -68.5t-25 -99t25 -100t67.5 -70t96.5 -26q42 0 78.5 15.5t62.5 44.5l34 -34q-33 -35 -78.5 -54.5
t-96.5 -19.5zM253 -207q-31 0 -60 10t-53 29l31 31q14 -14 34.5 -22t45.5 -8q36 0 55 12t19 34q0 21 -20.5 33.5t-59.5 12.5h-28l27 85h46l-22 -70l-20 20q59 1 92.5 -21.5t33.5 -61.5t-32 -61.5t-89 -22.5z" />
    <glyph glyph-name="egrave" unicode="&#xe8;" horiz-adv-x="540" 
d="M289 -10q-69 0 -124.5 32t-87.5 87t-32 124t31 123.5t85.5 86.5t121.5 32q64 0 112.5 -28.5t76 -78.5t27.5 -115q0 -6 -1 -15.5t-3 -23.5h-414v44h385l-17 -14q2 55 -18 96.5t-58 64.5t-91 23q-55 0 -97 -24.5t-65.5 -67.5t-23.5 -100q0 -60 24.5 -104.5t68.5 -69
t103 -24.5q45 0 83.5 16.5t64.5 49.5l34 -33q-32 -38 -80.5 -59.5t-104.5 -21.5zM322 538l-154 137l42 41l134 -156z" />
    <glyph glyph-name="eacute" unicode="&#xe9;" horiz-adv-x="540" 
d="M289 -10q-69 0 -124.5 32t-87.5 87t-32 124t31 123.5t85.5 86.5t121.5 32q64 0 112.5 -28.5t76 -78.5t27.5 -115q0 -6 -1 -15.5t-3 -23.5h-414v44h385l-17 -14q2 55 -18 96.5t-58 64.5t-91 23q-55 0 -97 -24.5t-65.5 -67.5t-23.5 -100q0 -60 24.5 -104.5t68.5 -69
t103 -24.5q45 0 83.5 16.5t64.5 49.5l34 -33q-32 -38 -80.5 -59.5t-104.5 -21.5zM217 540l-22 22l135 157l41 -42z" />
    <glyph glyph-name="ecircumflex" unicode="&#xea;" horiz-adv-x="540" 
d="M289 -10q-69 0 -124.5 32t-87.5 87t-32 124t31 123.5t85.5 86.5t121.5 32q64 0 112.5 -28.5t76 -78.5t27.5 -115q0 -6 -1 -15.5t-3 -23.5h-414v44h385l-17 -14q2 55 -18 96.5t-58 64.5t-91 23q-55 0 -97 -24.5t-65.5 -67.5t-23.5 -100q0 -60 24.5 -104.5t68.5 -69
t103 -24.5q45 0 83.5 16.5t64.5 49.5l34 -33q-32 -38 -80.5 -59.5t-104.5 -21.5zM147 540l-22 22l137 154h43l137 -154l-22 -22l-153 136h33z" />
    <glyph glyph-name="edieresis" unicode="&#xeb;" horiz-adv-x="540" 
d="M289 -10q-69 0 -124.5 32t-87.5 87t-32 124t31 123.5t85.5 86.5t121.5 32q64 0 112.5 -28.5t76 -78.5t27.5 -115q0 -6 -1 -15.5t-3 -23.5h-414v44h385l-17 -14q2 55 -18 96.5t-58 64.5t-91 23q-55 0 -97 -24.5t-65.5 -67.5t-23.5 -100q0 -60 24.5 -104.5t68.5 -69
t103 -24.5q45 0 83.5 16.5t64.5 49.5l34 -33q-32 -38 -80.5 -59.5t-104.5 -21.5zM193 548q-17 0 -28.5 12.5t-11.5 29.5t11.5 28.5t28.5 11.5t29 -11.5t12 -28.5t-12 -29.5t-29 -12.5zM373 548q-17 0 -28.5 12.5t-11.5 29.5t11.5 28.5t28.5 11.5t29 -11.5t12 -28.5
t-12 -29.5t-29 -12.5z" />
    <glyph glyph-name="igrave" unicode="&#xec;" horiz-adv-x="202" 
d="M75 0v465h52v-465h-52zM140 538l-154 137l42 41l134 -156z" />
    <glyph glyph-name="iacute" unicode="&#xed;" horiz-adv-x="202" 
d="M75 0v465h52v-465h-52zM35 540l-22 22l135 157l41 -42z" />
    <glyph glyph-name="icircumflex" unicode="&#xee;" horiz-adv-x="202" 
d="M75 0v465h52v-465h-52zM-35 540l-22 22l137 154h43l137 -154l-22 -22l-153 136h33z" />
    <glyph glyph-name="idieresis" unicode="&#xef;" horiz-adv-x="202" 
d="M75 0v465h52v-465h-52zM11 548q-17 0 -28.5 12.5t-11.5 29.5t11.5 28.5t28.5 11.5t29 -11.5t12 -28.5t-12 -29.5t-29 -12.5zM191 548q-17 0 -28.5 12.5t-11.5 29.5t11.5 28.5t28.5 11.5t29 -11.5t12 -28.5t-12 -29.5t-29 -12.5z" />
    <glyph glyph-name="eth" unicode="&#xf0;" horiz-adv-x="567" 
d="M284 -10q-64 0 -116.5 31t-84.5 84t-32 116q0 64 30.5 114.5t81 81t111.5 30.5q27 0 50.5 -6t43 -17t35.5 -26l-18 2l-219 282h62l230 -302q58 -77 58 -161q0 -64 -31 -116t-83.5 -82.5t-117.5 -30.5zM284 37q50 0 90.5 24.5t64.5 66.5t24 93q0 52 -24 93.5t-64.5 65.5
t-90.5 24q-49 0 -90 -24.5t-65.5 -66.5t-24.5 -92t24.5 -91.5t65 -67t90.5 -25.5zM123 504l-15 38l300 111l15 -38z" />
    <glyph glyph-name="ntilde" unicode="&#xf1;" horiz-adv-x="541" 
d="M425 0v276q0 68 -40 110t-106 42q-45 0 -79.5 -19.5t-54 -53.5t-19.5 -79l-26 15q0 53 25 94.5t68 65.5t98 24t96.5 -25.5t64.5 -69.5t23 -98v-282h-50zM75 0v465h51v-465h-51zM345 547q-31 0 -53 11t-42.5 22t-46.5 11q-27 0 -42 -10t-28 -28l-29 26q18 25 40.5 40.5
t57.5 15.5q33 0 56 -11t43 -22t43 -11q24 0 38.5 10t27.5 28l29 -27q-18 -24 -40.5 -39.5t-53.5 -15.5z" />
    <glyph glyph-name="ograve" unicode="&#xf2;" horiz-adv-x="571" 
d="M286 -10q-68 0 -122.5 32.5t-86.5 88t-32 123.5t32 122.5t86.5 86.5t122.5 32q67 0 121.5 -32t86.5 -86.5t32 -122.5q0 -69 -32 -124t-86.5 -87.5t-121.5 -32.5zM286 38q53 0 95.5 26t67 70.5t24.5 100.5q0 55 -24.5 98t-67 68.5t-95.5 25.5q-54 0 -96.5 -25.5
t-67.5 -68.5t-25 -99t25 -100t67.5 -70t96.5 -26zM325 538l-154 137l42 41l134 -156z" />
    <glyph glyph-name="oacute" unicode="&#xf3;" horiz-adv-x="571" 
d="M286 -10q-68 0 -122.5 32.5t-86.5 88t-32 123.5t32 122.5t86.5 86.5t122.5 32q67 0 121.5 -32t86.5 -86.5t32 -122.5q0 -69 -32 -124t-86.5 -87.5t-121.5 -32.5zM286 38q53 0 95.5 26t67 70.5t24.5 100.5q0 55 -24.5 98t-67 68.5t-95.5 25.5q-54 0 -96.5 -25.5
t-67.5 -68.5t-25 -99t25 -100t67.5 -70t96.5 -26zM220 540l-22 22l135 157l41 -42z" />
    <glyph glyph-name="ocircumflex" unicode="&#xf4;" horiz-adv-x="571" 
d="M286 -10q-68 0 -122.5 32.5t-86.5 88t-32 123.5t32 122.5t86.5 86.5t122.5 32q67 0 121.5 -32t86.5 -86.5t32 -122.5q0 -69 -32 -124t-86.5 -87.5t-121.5 -32.5zM286 38q53 0 95.5 26t67 70.5t24.5 100.5q0 55 -24.5 98t-67 68.5t-95.5 25.5q-54 0 -96.5 -25.5
t-67.5 -68.5t-25 -99t25 -100t67.5 -70t96.5 -26zM149 540l-22 22l137 154h43l137 -154l-22 -22l-153 136h33z" />
    <glyph glyph-name="otilde" unicode="&#xf5;" horiz-adv-x="571" 
d="M286 -10q-68 0 -122.5 32.5t-86.5 88t-32 123.5t32 122.5t86.5 86.5t122.5 32q67 0 121.5 -32t86.5 -86.5t32 -122.5q0 -69 -32 -124t-86.5 -87.5t-121.5 -32.5zM286 38q53 0 95.5 26t67 70.5t24.5 100.5q0 55 -24.5 98t-67 68.5t-95.5 25.5q-54 0 -96.5 -25.5
t-67.5 -68.5t-25 -99t25 -100t67.5 -70t96.5 -26zM360 547q-31 0 -53 11t-42.5 22t-46.5 11q-27 0 -42 -10t-28 -28l-29 26q18 25 40.5 40.5t57.5 15.5q33 0 56 -11t43 -22t43 -11q24 0 38.5 10t27.5 28l29 -27q-18 -24 -40.5 -39.5t-53.5 -15.5z" />
    <glyph glyph-name="odieresis" unicode="&#xf6;" horiz-adv-x="571" 
d="M286 -10q-68 0 -122.5 32.5t-86.5 88t-32 123.5t32 122.5t86.5 86.5t122.5 32q67 0 121.5 -32t86.5 -86.5t32 -122.5q0 -69 -32 -124t-86.5 -87.5t-121.5 -32.5zM286 38q53 0 95.5 26t67 70.5t24.5 100.5q0 55 -24.5 98t-67 68.5t-95.5 25.5q-54 0 -96.5 -25.5
t-67.5 -68.5t-25 -99t25 -100t67.5 -70t96.5 -26zM196 548q-17 0 -28.5 12.5t-11.5 29.5t11.5 28.5t28.5 11.5t29 -11.5t12 -28.5t-12 -29.5t-29 -12.5zM376 548q-17 0 -28.5 12.5t-11.5 29.5t11.5 28.5t28.5 11.5t29 -11.5t12 -28.5t-12 -29.5t-29 -12.5z" />
    <glyph glyph-name="divide" unicode="&#xf7;" horiz-adv-x="531" 
d="M70 311v44h392v-44h-392zM265 452q-17 0 -28 12t-11 29q0 18 11 29.5t28 11.5q18 0 29.5 -11.5t11.5 -29.5q0 -17 -11.5 -29t-29.5 -12zM265 132q-17 0 -28 12.5t-11 29.5t11 28.5t28 11.5q18 0 29.5 -11.5t11.5 -28.5t-11.5 -29.5t-29.5 -12.5z" />
    <glyph glyph-name="oslash" unicode="&#xf8;" horiz-adv-x="571" 
d="M69 -17l-33 33l466 466l33 -33zM286 -10q-68 0 -122.5 32.5t-86.5 88t-32 123.5t32 122.5t86.5 86.5t122.5 32q67 0 121.5 -32t86.5 -86.5t32 -122.5q0 -69 -32 -124t-86.5 -87.5t-121.5 -32.5zM286 38q53 0 95.5 26t67 70.5t24.5 100.5q0 55 -24.5 98t-67 68.5
t-95.5 25.5q-54 0 -96.5 -25.5t-67.5 -68.5t-25 -99t25 -100t67.5 -70t96.5 -26z" />
    <glyph glyph-name="ugrave" unicode="&#xf9;" horiz-adv-x="513" 
d="M257 -10q-56 0 -100 26t-68.5 72t-24.5 106v271h51v-269q0 -47 17.5 -82.5t49.5 -55.5t75 -20q64 0 102.5 43.5t38.5 114.5v269h51v-271q0 -60 -24.5 -106t-68 -72t-99.5 -26zM296 538l-154 137l42 41l134 -156z" />
    <glyph glyph-name="uacute" unicode="&#xfa;" horiz-adv-x="513" 
d="M257 -10q-56 0 -100 26t-68.5 72t-24.5 106v271h51v-269q0 -47 17.5 -82.5t49.5 -55.5t75 -20q64 0 102.5 43.5t38.5 114.5v269h51v-271q0 -60 -24.5 -106t-68 -72t-99.5 -26zM191 540l-22 22l135 157l41 -42z" />
    <glyph glyph-name="ucircumflex" unicode="&#xfb;" horiz-adv-x="513" 
d="M257 -10q-56 0 -100 26t-68.5 72t-24.5 106v271h51v-269q0 -47 17.5 -82.5t49.5 -55.5t75 -20q64 0 102.5 43.5t38.5 114.5v269h51v-271q0 -60 -24.5 -106t-68 -72t-99.5 -26zM120 540l-22 22l137 154h43l137 -154l-22 -22l-153 136h33z" />
    <glyph glyph-name="udieresis" unicode="&#xfc;" horiz-adv-x="513" 
d="M257 -10q-56 0 -100 26t-68.5 72t-24.5 106v271h51v-269q0 -47 17.5 -82.5t49.5 -55.5t75 -20q64 0 102.5 43.5t38.5 114.5v269h51v-271q0 -60 -24.5 -106t-68 -72t-99.5 -26zM167 548q-17 0 -28.5 12.5t-11.5 29.5t11.5 28.5t28.5 11.5t29 -11.5t12 -28.5t-12 -29.5
t-29 -12.5zM347 548q-17 0 -28.5 12.5t-11.5 29.5t11.5 28.5t28.5 11.5t29 -11.5t12 -28.5t-12 -29.5t-29 -12.5z" />
    <glyph glyph-name="yacute" unicode="&#xfd;" horiz-adv-x="506" 
d="M234 -1l-207 466h56l179 -413h-26l187 413h56l-219 -466h-26zM113 -197l120 246l27 -50l-92 -196h-55zM187 540l-22 22l135 157l41 -42z" />
    <glyph glyph-name="thorn" unicode="&#xfe;" horiz-adv-x="587" 
d="M311 -10q-52 0 -95.5 21t-72.5 58.5t-38 87.5v152q9 51 38.5 88.5t73 57.5t94.5 20q66 0 118 -32t82 -87t30 -124t-30 -123.5t-82 -86.5t-118 -32zM75 -197v899h51v-353l-12 -113l12 -114v-319h-51zM302 38q55 0 97.5 25t66 69t23.5 101t-23.5 101t-65.5 68.5t-95 24.5
q-54 0 -94.5 -24.5t-63.5 -68.5t-23 -102q0 -57 22.5 -100.5t63 -68.5t92.5 -25z" />
    <glyph glyph-name="ydieresis" unicode="&#xff;" horiz-adv-x="506" 
d="M234 -1l-207 466h56l179 -413h-26l187 413h56l-219 -466h-26zM113 -197l120 246l27 -50l-92 -196h-55zM163 548q-17 0 -28.5 12.5t-11.5 29.5t11.5 28.5t28.5 11.5t29 -11.5t12 -28.5t-12 -29.5t-29 -12.5zM343 548q-17 0 -28.5 12.5t-11.5 29.5t11.5 28.5t28.5 11.5
t29 -11.5t12 -28.5t-12 -29.5t-29 -12.5z" />
    <glyph glyph-name="Amacron" unicode="&#x100;" horiz-adv-x="684" 
d="M44 0l278 682h42l277 -682h-58l-251 628h21l-253 -628h-56zM165 201v47h355v-47h-355zM179 827h327v-42h-327v42z" />
    <glyph glyph-name="amacron" unicode="&#x101;" horiz-adv-x="587" 
d="M281 -10q-67 0 -120.5 32t-84.5 86.5t-31 123.5q0 68 31 123t84 87.5t119 32.5q54 0 96.5 -20.5t70 -57.5t35.5 -88v-152q-9 -51 -36.5 -88.5t-69 -58t-94.5 -20.5zM288 38q80 0 127.5 53.5t47.5 140.5q0 59 -21.5 102.5t-61.5 68t-93 24.5q-55 0 -97.5 -25t-67 -69
t-24.5 -100q0 -57 24.5 -101t67.5 -69t98 -25zM461 0v125l11 114l-11 113v113h51v-465h-51zM137 610h327v-42h-327v42z" />
    <glyph glyph-name="Abreve" unicode="&#x102;" horiz-adv-x="684" 
d="M44 0l278 682h42l277 -682h-58l-251 628h21l-253 -628h-56zM165 201v47h355v-47h-355zM501 898q0 -45 -20.5 -81t-55.5 -57t-81 -21t-82.5 21t-57 57t-20.5 81h47q0 -50 31 -83t84 -33q30 0 55 15t39.5 41.5t14.5 59.5h46z" />
    <glyph glyph-name="abreve" unicode="&#x103;" horiz-adv-x="587" 
d="M281 -10q-67 0 -120.5 32t-84.5 86.5t-31 123.5q0 68 31 123t84 87.5t119 32.5q54 0 96.5 -20.5t70 -57.5t35.5 -88v-152q-9 -51 -36.5 -88.5t-69 -58t-94.5 -20.5zM288 38q80 0 127.5 53.5t47.5 140.5q0 59 -21.5 102.5t-61.5 68t-93 24.5q-55 0 -97.5 -25t-67 -69
t-24.5 -100q0 -57 24.5 -101t67.5 -69t98 -25zM461 0v125l11 114l-11 113v113h51v-465h-51zM459 681q0 -45 -20.5 -81t-55.5 -57t-81 -21t-82.5 21t-57 57t-20.5 81h47q0 -50 31 -83t84 -33q30 0 55 15t39.5 41.5t14.5 59.5h46z" />
    <glyph glyph-name="Aogonek" unicode="&#x104;" horiz-adv-x="684" 
d="M44 0l278 682h42l277 -682h-58l-251 628h21l-253 -628h-56zM165 201v47h355v-47h-355zM614 -207q-37 0 -63.5 21t-26.5 63q0 34 24.5 72t61.5 67l31 -16q-35 -30 -55.5 -58.5t-20.5 -60.5q0 -27 14.5 -40t39.5 -13q14 0 25 4.5t23 11.5l16 -28q-14 -11 -31 -17t-38 -6z
" />
    <glyph glyph-name="aogonek" unicode="&#x105;" horiz-adv-x="587" 
d="M281 -10q-67 0 -120.5 32t-84.5 86.5t-31 123.5q0 68 31 123t84 87.5t119 32.5q54 0 96.5 -20.5t70 -57.5t35.5 -88v-152q-9 -51 -36.5 -88.5t-69 -58t-94.5 -20.5zM288 38q80 0 127.5 53.5t47.5 140.5q0 59 -21.5 102.5t-61.5 68t-93 24.5q-55 0 -97.5 -25t-67 -69
t-24.5 -100q0 -57 24.5 -101t67.5 -69t98 -25zM461 0v125l11 114l-11 113v113h51v-465h-51zM485 -207q-37 0 -63.5 21t-26.5 63q0 34 24.5 72t61.5 67l31 -16q-35 -30 -55.5 -58.5t-20.5 -60.5q0 -27 14.5 -40t39.5 -13q14 0 25 4.5t23 11.5l16 -28q-14 -11 -31 -17t-38 -6z
" />
    <glyph glyph-name="Cacute" unicode="&#x106;" horiz-adv-x="698" 
d="M402 -10q-73 0 -135.5 27t-109 75t-72 112t-25.5 138t25 137.5t71.5 111t108 74.5t134.5 27q76 0 138.5 -28t109.5 -77l-37 -37q-38 43 -92 67t-119 24q-61 0 -113 -22.5t-90.5 -63t-59.5 -95t-21 -118.5t21.5 -119t59.5 -96t90.5 -63.5t113.5 -22.5q67 0 122 24.5
t93 67.5l37 -36q-46 -50 -109.5 -78.5t-140.5 -28.5zM318 757l-22 22l135 157l41 -42z" />
    <glyph glyph-name="cacute" unicode="&#x107;" horiz-adv-x="493" 
d="M286 -10q-68 0 -122.5 32.5t-86.5 88t-32 123.5t32 122.5t86.5 86.5t122.5 32q51 0 96 -19t77 -54l-34 -34q-26 28 -61.5 43.5t-77.5 15.5q-54 0 -96.5 -25.5t-67.5 -68.5t-25 -99t25 -100t67.5 -70t96.5 -26q42 0 78.5 15.5t62.5 44.5l34 -34q-33 -35 -78.5 -54.5
t-96.5 -19.5zM208 540l-22 22l135 157l41 -42z" />
    <glyph glyph-name="Cdotaccent" unicode="&#x10a;" horiz-adv-x="698" 
d="M402 -10q-73 0 -135.5 27t-109 75t-72 112t-25.5 138t25 137.5t71.5 111t108 74.5t134.5 27q76 0 138.5 -28t109.5 -77l-37 -37q-38 43 -92 67t-119 24q-61 0 -113 -22.5t-90.5 -63t-59.5 -95t-21 -118.5t21.5 -119t59.5 -96t90.5 -63.5t113.5 -22.5q67 0 122 24.5
t93 67.5l37 -36q-46 -50 -109.5 -78.5t-140.5 -28.5zM384 765q-17 0 -28.5 12.5t-11.5 29.5t11.5 28.5t28.5 11.5t29 -11.5t12 -28.5t-12 -29.5t-29 -12.5z" />
    <glyph glyph-name="cdotaccent" unicode="&#x10b;" horiz-adv-x="493" 
d="M286 -10q-68 0 -122.5 32.5t-86.5 88t-32 123.5t32 122.5t86.5 86.5t122.5 32q51 0 96 -19t77 -54l-34 -34q-26 28 -61.5 43.5t-77.5 15.5q-54 0 -96.5 -25.5t-67.5 -68.5t-25 -99t25 -100t67.5 -70t96.5 -26q42 0 78.5 15.5t62.5 44.5l34 -34q-33 -35 -78.5 -54.5
t-96.5 -19.5zM274 548q-17 0 -28.5 12.5t-11.5 29.5t11.5 28.5t28.5 11.5t29 -11.5t12 -28.5t-12 -29.5t-29 -12.5z" />
    <glyph glyph-name="Ccaron" unicode="&#x10c;" horiz-adv-x="698" 
d="M402 -10q-73 0 -135.5 27t-109 75t-72 112t-25.5 138t25 137.5t71.5 111t108 74.5t134.5 27q76 0 138.5 -28t109.5 -77l-37 -37q-38 43 -92 67t-119 24q-61 0 -113 -22.5t-90.5 -63t-59.5 -95t-21 -118.5t21.5 -119t59.5 -96t90.5 -63.5t113.5 -22.5q67 0 122 24.5
t93 67.5l37 -36q-46 -50 -109.5 -78.5t-140.5 -28.5zM521 933l22 -22l-137 -154h-43l-137 154l22 22l153 -137l-33 1z" />
    <glyph glyph-name="ccaron" unicode="&#x10d;" horiz-adv-x="493" 
d="M286 -10q-68 0 -122.5 32.5t-86.5 88t-32 123.5t32 122.5t86.5 86.5t122.5 32q51 0 96 -19t77 -54l-34 -34q-26 28 -61.5 43.5t-77.5 15.5q-54 0 -96.5 -25.5t-67.5 -68.5t-25 -99t25 -100t67.5 -70t96.5 -26q42 0 78.5 15.5t62.5 44.5l34 -34q-33 -35 -78.5 -54.5
t-96.5 -19.5zM411 716l22 -22l-137 -154h-43l-137 154l22 22l153 -137l-33 1z" />
    <glyph glyph-name="Dcaron" unicode="&#x10e;" horiz-adv-x="739" 
d="M121 0v49h212q86 0 151.5 37.5t102.5 103.5t37 152q0 85 -37 151t-103 103t-151 37h-209v49h210q75 0 138 -25.5t109.5 -71t72 -108t25.5 -136.5q0 -73 -25.5 -135.5t-71.5 -108.5t-109 -71.5t-137 -25.5h-215zM93 0v682h53v-682h-53zM470 933l22 -22l-137 -154h-43
l-137 154l23 22l152 -137l-33 1z" />
    <glyph glyph-name="dcaron" unicode="&#x10f;" horiz-adv-x="757" 
d="M276 -10q-66 0 -118 32t-82 86.5t-30 123.5t30 124t82 87t118 32q51 0 94.5 -20t73.5 -57.5t38 -88.5v-152q-9 -50 -38 -87.5t-72.5 -58.5t-95.5 -21zM285 38q53 0 93 25t62.5 68.5t22.5 100.5q0 58 -23 101.5t-63.5 68.5t-94.5 25q-53 0 -94.5 -25t-65.5 -68.5
t-24 -100.5t24 -101t66 -69t97 -25zM512 0h-51v125l12 114l-12 113v350h51v-702zM608 483l-33 18l52 103l19 4q-3 -8 -9.5 -13.5t-16.5 -5.5q-17 0 -30.5 13.5t-13.5 32.5q0 21 15 35.5t35 14.5t34.5 -14.5t14.5 -35.5q0 -8 -2.5 -19.5t-11.5 -30.5z" />
    <glyph glyph-name="Dcroat" unicode="&#x110;" horiz-adv-x="743" 
d="M0 320v43h390v-43h-390zM126 0v49h212q85 0 151 37.5t103 103.5t37 152q0 85 -37 151t-103 103t-151 37h-209v49h210q75 0 137.5 -25.5t109.5 -71t72.5 -108t25.5 -136.5q0 -73 -25.5 -135.5t-72 -108.5t-109 -71.5t-136.5 -25.5h-215zM98 0v682h53v-682h-53z" />
    <glyph glyph-name="dcroat" unicode="&#x111;" horiz-adv-x="592" 
d="M283 571v48h309v-48h-309zM276 -10q-66 0 -118 32t-82 86.5t-30 123.5t30 124t82 87t118 32q51 0 94.5 -20t73.5 -57.5t38 -88.5v-152q-9 -50 -38 -87.5t-72.5 -58.5t-95.5 -21zM285 38q53 0 93 25t62.5 68.5t22.5 100.5q0 58 -23 101.5t-63.5 68.5t-94.5 25
q-53 0 -94.5 -25t-65.5 -68.5t-24 -100.5t24 -101t66 -69t97 -25zM512 0h-51v125l12 114l-12 113v350h51v-702z" />
    <glyph glyph-name="Emacron" unicode="&#x112;" horiz-adv-x="589" 
d="M93 0v682h53v-682h-53zM127 0v48h410v-48h-410zM127 327v46h379v-46h-379zM127 634v48h405v-48h-405zM153 827h327v-42h-327v42z" />
    <glyph glyph-name="emacron" unicode="&#x113;" horiz-adv-x="540" 
d="M289 -10q-69 0 -124.5 32t-87.5 87t-32 124t31 123.5t85.5 86.5t121.5 32q64 0 112.5 -28.5t76 -78.5t27.5 -115q0 -6 -1 -15.5t-3 -23.5h-414v44h385l-17 -14q2 55 -18 96.5t-58 64.5t-91 23q-55 0 -97 -24.5t-65.5 -67.5t-23.5 -100q0 -60 24.5 -104.5t68.5 -69
t103 -24.5q45 0 83.5 16.5t64.5 49.5l34 -33q-32 -38 -80.5 -59.5t-104.5 -21.5zM120 610h327v-42h-327v42z" />
    <glyph glyph-name="Edotaccent" unicode="&#x116;" horiz-adv-x="589" 
d="M93 0v682h53v-682h-53zM127 0v48h410v-48h-410zM127 327v46h379v-46h-379zM127 634v48h405v-48h-405zM316 765q-17 0 -28.5 12.5t-11.5 29.5t11.5 28.5t28.5 11.5t29 -11.5t12 -28.5t-12 -29.5t-29 -12.5z" />
    <glyph glyph-name="edotaccent" unicode="&#x117;" horiz-adv-x="540" 
d="M289 -10q-69 0 -124.5 32t-87.5 87t-32 124t31 123.5t85.5 86.5t121.5 32q64 0 112.5 -28.5t76 -78.5t27.5 -115q0 -6 -1 -15.5t-3 -23.5h-414v44h385l-17 -14q2 55 -18 96.5t-58 64.5t-91 23q-55 0 -97 -24.5t-65.5 -67.5t-23.5 -100q0 -60 24.5 -104.5t68.5 -69
t103 -24.5q45 0 83.5 16.5t64.5 49.5l34 -33q-32 -38 -80.5 -59.5t-104.5 -21.5zM283 548q-17 0 -28.5 12.5t-11.5 29.5t11.5 28.5t28.5 11.5t29 -11.5t12 -28.5t-12 -29.5t-29 -12.5z" />
    <glyph glyph-name="Eogonek" unicode="&#x118;" horiz-adv-x="589" 
d="M93 0v682h53v-682h-53zM127 0v48h410v-48h-410zM127 327v46h379v-46h-379zM127 634v48h405v-48h-405zM510 -207q-37 0 -63.5 21t-26.5 63q0 34 24.5 72t61.5 67l31 -16q-35 -30 -55.5 -58.5t-20.5 -60.5q0 -27 14.5 -40t39.5 -13q14 0 25 4.5t23 11.5l16 -28
q-14 -11 -31 -17t-38 -6z" />
    <glyph glyph-name="eogonek" unicode="&#x119;" horiz-adv-x="540" 
d="M289 -10q-69 0 -124.5 32t-87.5 87t-32 124t31 123.5t85.5 86.5t121.5 32q64 0 112.5 -28.5t76 -78.5t27.5 -115q0 -6 -1 -15.5t-3 -23.5h-414v44h385l-17 -14q2 55 -18 96.5t-58 64.5t-91 23q-55 0 -97 -24.5t-65.5 -67.5t-23.5 -100q0 -60 24.5 -104.5t68.5 -69
t103 -24.5q45 0 83.5 16.5t64.5 49.5l34 -33q-32 -38 -80.5 -59.5t-104.5 -21.5zM360 -197q-37 0 -63.5 21t-26.5 63q0 34 24.5 72t61.5 67l31 -16q-35 -30 -55.5 -58.5t-20.5 -60.5q0 -27 14.5 -40t39.5 -13q14 0 25 4.5t23 11.5l16 -28q-14 -11 -31 -17t-38 -6z" />
    <glyph glyph-name="Ecaron" unicode="&#x11a;" horiz-adv-x="589" 
d="M93 0v682h53v-682h-53zM127 0v48h410v-48h-410zM127 327v46h379v-46h-379zM127 634v48h405v-48h-405zM453 933l22 -22l-137 -154h-43l-137 154l22 22l153 -137l-33 1z" />
    <glyph glyph-name="ecaron" unicode="&#x11b;" horiz-adv-x="540" 
d="M289 -10q-69 0 -124.5 32t-87.5 87t-32 124t31 123.5t85.5 86.5t121.5 32q64 0 112.5 -28.5t76 -78.5t27.5 -115q0 -6 -1 -15.5t-3 -23.5h-414v44h385l-17 -14q2 55 -18 96.5t-58 64.5t-91 23q-55 0 -97 -24.5t-65.5 -67.5t-23.5 -100q0 -60 24.5 -104.5t68.5 -69
t103 -24.5q45 0 83.5 16.5t64.5 49.5l34 -33q-32 -38 -80.5 -59.5t-104.5 -21.5zM419 716l22 -22l-136 -154h-44l-136 154l22 22l153 -137l-34 1z" />
    <glyph glyph-name="Gbreve" unicode="&#x11e;" horiz-adv-x="774" 
d="M403 -9q-74 0 -137 26.5t-109 73.5t-71.5 111t-25.5 139t26 139t72.5 112t109.5 74.5t137 26.5q83 0 152 -33t112 -95l-37 -37q-38 55 -96.5 84.5t-130.5 29.5q-84 0 -150 -39t-103 -107t-37 -155t37 -155t101 -106t148 -38q80 0 139 33t92 96.5t33 151.5l27 -20h-301v48
h329v-9q0 -112 -39.5 -190.5t-111 -119.5t-166.5 -41zM556 898q0 -45 -20.5 -81t-55.5 -57t-81 -21t-82.5 21t-57 57t-20.5 81h47q0 -50 31 -83t84 -33q30 0 55 15t39.5 41.5t14.5 59.5h46z" />
    <glyph glyph-name="gbreve" unicode="&#x11f;" horiz-adv-x="586" 
d="M267 -207q-68 0 -123 25.5t-88 73.5l32 32q27 -38 73 -60.5t107 -22.5q89 0 140.5 48t51.5 129v117l12 108l-12 105v117h51v-447q0 -68 -30.5 -118t-85.5 -78.5t-128 -28.5zM277 3q-66 0 -118.5 30.5t-82.5 84t-30 121.5q0 67 30 120.5t82 84.5t118 31q54 0 97 -20.5
t71.5 -57.5t36.5 -88v-141q-9 -50 -37.5 -87.5t-71 -57.5t-95.5 -20zM286 50q52 0 92.5 23.5t62.5 66t22 99.5q0 56 -22.5 98t-62.5 66t-94 24t-96 -24t-66 -66t-24 -97t24 -98t66.5 -67.5t97.5 -24.5zM459 681q0 -45 -20.5 -81t-55.5 -57t-81 -21t-82.5 21t-57 57t-20.5 81
h47q0 -50 31 -83t84 -33q30 0 55 15t39.5 41.5t14.5 59.5h46z" />
    <glyph glyph-name="Gdotaccent" unicode="&#x120;" horiz-adv-x="774" 
d="M403 -9q-74 0 -137 26.5t-109 73.5t-71.5 111t-25.5 139t26 139t72.5 112t109.5 74.5t137 26.5q83 0 152 -33t112 -95l-37 -37q-38 55 -96.5 84.5t-130.5 29.5q-84 0 -150 -39t-103 -107t-37 -155t37 -155t101 -106t148 -38q80 0 139 33t92 96.5t33 151.5l27 -20h-301v48
h329v-9q0 -112 -39.5 -190.5t-111 -119.5t-166.5 -41zM397 765q-17 0 -28.5 12.5t-11.5 29.5t11.5 28.5t28.5 11.5t29 -11.5t12 -28.5t-12 -29.5t-29 -12.5z" />
    <glyph glyph-name="gdotaccent" unicode="&#x121;" horiz-adv-x="586" 
d="M267 -207q-68 0 -123 25.5t-88 73.5l32 32q27 -38 73 -60.5t107 -22.5q89 0 140.5 48t51.5 129v117l12 108l-12 105v117h51v-447q0 -68 -30.5 -118t-85.5 -78.5t-128 -28.5zM277 3q-66 0 -118.5 30.5t-82.5 84t-30 121.5q0 67 30 120.5t82 84.5t118 31q54 0 97 -20.5
t71.5 -57.5t36.5 -88v-141q-9 -50 -37.5 -87.5t-71 -57.5t-95.5 -20zM286 50q52 0 92.5 23.5t62.5 66t22 99.5q0 56 -22.5 98t-62.5 66t-94 24t-96 -24t-66 -66t-24 -97t24 -98t66.5 -67.5t97.5 -24.5zM300 548q-17 0 -28.5 12.5t-11.5 29.5t11.5 28.5t28.5 11.5t29 -11.5
t12 -28.5t-12 -29.5t-29 -12.5z" />
    <glyph glyph-name="uni0122" unicode="&#x122;" horiz-adv-x="774" 
d="M403 -9q-74 0 -137 26.5t-109 73.5t-71.5 111t-25.5 139t26 139t72.5 112t109.5 74.5t137 26.5q83 0 152 -33t112 -95l-37 -37q-38 55 -96.5 84.5t-130.5 29.5q-84 0 -150 -39t-103 -107t-37 -155t37 -155t101 -106t148 -38q80 0 139 33t92 96.5t33 151.5l27 -20h-301v48
h329v-9q0 -112 -39.5 -190.5t-111 -119.5t-166.5 -41zM381 -282l-33 18l51 103l20 4q-3 -8 -9.5 -13.5t-16.5 -5.5q-17 0 -30.5 13t-13.5 33q0 21 14.5 35.5t35.5 14.5q19 0 34 -14.5t15 -35.5q0 -9 -2.5 -20.5t-12.5 -29.5z" />
    <glyph glyph-name="uni0123" unicode="&#x123;" horiz-adv-x="586" 
d="M267 -207q-68 0 -123 25.5t-88 73.5l32 32q27 -38 73 -60.5t107 -22.5q89 0 140.5 48t51.5 129v117l12 108l-12 105v117h51v-447q0 -68 -30.5 -118t-85.5 -78.5t-128 -28.5zM277 3q-66 0 -118.5 30.5t-82.5 84t-30 121.5q0 67 30 120.5t82 84.5t118 31q54 0 97 -20.5
t71.5 -57.5t36.5 -88v-141q-9 -50 -37.5 -87.5t-71 -57.5t-95.5 -20zM286 50q52 0 92.5 23.5t62.5 66t22 99.5q0 56 -22.5 98t-62.5 66t-94 24t-96 -24t-66 -66t-24 -97t24 -98t66.5 -67.5t97.5 -24.5zM340 716l-51 -103l-20 -4q3 8 9.5 13.5t16.5 5.5q17 0 30.5 -13
t13.5 -33t-14.5 -35t-35.5 -15q-20 0 -34.5 14.5t-14.5 35.5q0 9 3 20.5t12 29.5l52 102z" />
    <glyph glyph-name="Hbar" unicode="&#x126;" horiz-adv-x="677" 
d="M0 530v42h677v-42h-677zM85 0v682h53v-682h-53zM539 0v682h53v-682h-53zM118 327v48h439v-48h-439z" />
    <glyph glyph-name="hbar" unicode="&#x127;" horiz-adv-x="541" 
d="M0 571v48h309v-48h-309zM425 0v276q0 68 -40 110t-106 42q-45 0 -79.5 -19.5t-54 -53.5t-19.5 -79l-26 15q0 53 25 94.5t68 65.5t98 24t96.5 -24.5t64.5 -68.5t23 -100v-282h-50zM75 0v702h51v-702h-51z" />
    <glyph glyph-name="Imacron" unicode="&#x12a;" horiz-adv-x="239" 
d="M-10 827h260v-42h-260v42zM93 0v682h53v-682h-53z" />
    <glyph glyph-name="imacron" unicode="&#x12b;" horiz-adv-x="202" 
d="M-29 610h260v-42h-260v42zM75 0v465h52v-465h-52z" />
    <glyph glyph-name="Iogonek" unicode="&#x12e;" horiz-adv-x="239" 
d="M93 0v682h53v-682h-53zM119 -207q-37 0 -63.5 21t-26.5 63q0 34 24.5 72t61.5 67l31 -16q-35 -30 -55.5 -58.5t-20.5 -60.5q0 -27 14.5 -40t39.5 -13q14 0 25 4.5t23 11.5l16 -28q-14 -11 -31 -17t-38 -6z" />
    <glyph glyph-name="iogonek" unicode="&#x12f;" horiz-adv-x="203" 
d="M76 0v465h50v-465h-50zM101 573q-17 0 -28.5 12.5t-11.5 29.5t11.5 28.5t28.5 11.5t29 -11.5t12 -28.5t-12 -29.5t-29 -12.5zM100 -207q-37 0 -63.5 21t-26.5 63q0 34 24.5 72t61.5 67l31 -16q-35 -30 -55.5 -58.5t-20.5 -60.5q0 -27 14.5 -40t39.5 -13q14 0 25 4.5
t23 11.5l16 -28q-14 -11 -31 -17t-38 -6z" />
    <glyph glyph-name="Idotaccent" unicode="&#x130;" horiz-adv-x="239" 
d="M93 0v682h53v-682h-53zM120 765q-17 0 -28.5 12.5t-11.5 29.5t11.5 28.5t28.5 11.5t29 -11.5t12 -28.5t-12 -29.5t-29 -12.5z" />
    <glyph glyph-name="dotlessi" unicode="&#x131;" horiz-adv-x="202" 
d="M75 0v465h52v-465h-52z" />
    <glyph glyph-name="IJ" unicode="&#x132;" horiz-adv-x="599" 
d="M316 -10q-56 0 -97.5 21.5t-72.5 59.5l36 35q25 -32 57.5 -48.5t75.5 -16.5q37 0 70 16.5t54 52.5t21 93v479h53v-481q0 -68 -27.5 -115t-72.5 -71.5t-97 -24.5zM93 220v465h52v-465h-52z" />
    <glyph glyph-name="ij" unicode="&#x133;" horiz-adv-x="408" 
d="M76 0v465h50v-465h-50zM101 573q-17 0 -28.5 12.5t-11.5 29.5t11.5 28.5t28.5 11.5t29 -11.5t12 -28.5t-12 -29.5t-29 -12.5zM194 -207q-36 0 -65 12.5t-51 36.5l34 33q17 -18 37 -26.5t43 -8.5q38 0 64 22t26 70v533h51v-532q0 -46 -19.5 -77t-51 -47t-68.5 -16z
M307 573q-17 0 -28 12.5t-11 29.5t11 28.5t28 11.5q18 0 29.5 -11.5t11.5 -28.5t-11.5 -29.5t-29.5 -12.5z" />
    <glyph glyph-name="uni0136" unicode="&#x136;" horiz-adv-x="653" 
d="M536 0l-402 355l393 327h74l-412 -341v31l422 -372h-75zM93 0v682h53v-682h-53zM300 -282l-33 18l51 103l20 4q-3 -8 -9.5 -13.5t-16.5 -5.5q-17 0 -30.5 13t-13.5 33q0 21 14.5 35.5t35.5 14.5q19 0 34 -14.5t15 -35.5q0 -9 -2.5 -20.5t-12.5 -29.5z" />
    <glyph glyph-name="uni0137" unicode="&#x137;" horiz-adv-x="471" 
d="M378 0l-259 239l254 226h65l-270 -239l1 28l278 -254h-69zM75 0v702h51v-702h-51zM235 -282l-33 18l51 103l20 4q-3 -8 -9.5 -13.5t-16.5 -5.5q-17 0 -30.5 13t-13.5 33q0 21 14.5 35.5t35.5 14.5q19 0 34 -14.5t15 -35.5q0 -9 -2.5 -20.5t-12.5 -29.5z" />
    <glyph glyph-name="Lacute" unicode="&#x139;" horiz-adv-x="556" 
d="M93 0v682h53v-682h-53zM127 0v48h385v-48h-385zM237 757l-22 22l135 157l41 -42z" />
    <glyph glyph-name="lacute" unicode="&#x13a;" horiz-adv-x="201" 
d="M75 0v702h51v-702h-51zM34 757l-22 22l135 157l41 -42z" />
    <glyph glyph-name="uni013B" unicode="&#x13b;" horiz-adv-x="556" 
d="M93 0v682h53v-682h-53zM127 0v48h385v-48h-385zM287 -282l-33 18l51 103l20 4q-3 -8 -9.5 -13.5t-16.5 -5.5q-17 0 -30.5 13t-13.5 33q0 21 14.5 35.5t35.5 14.5q19 0 34 -14.5t15 -35.5q0 -9 -2.5 -20.5t-12.5 -29.5z" />
    <glyph glyph-name="uni013C" unicode="&#x13c;" horiz-adv-x="201" 
d="M75 0v702h51v-702h-51zM85 -282l-33 18l51 103l20 4q-3 -8 -9.5 -13.5t-16.5 -5.5q-17 0 -30.5 13t-13.5 33q0 21 14.5 35.5t35.5 14.5q19 0 34 -14.5t15 -35.5q0 -9 -2.5 -20.5t-12.5 -29.5z" />
    <glyph glyph-name="Lcaron" unicode="&#x13d;" horiz-adv-x="556" 
d="M93 0v682h53v-682h-53zM127 0v48h385v-48h-385zM252 480l-33 18l52 103l19 4q-3 -8 -9.5 -13.5t-16.5 -5.5q-17 0 -30.5 13.5t-13.5 32.5q0 21 15 35.5t35 14.5t34.5 -14.5t14.5 -35.5q0 -8 -2.5 -19.5t-11.5 -30.5z" />
    <glyph glyph-name="lcaron" unicode="&#x13e;" horiz-adv-x="352" 
d="M75 0v702h51v-702h-51zM203 483l-33 18l52 103l19 4q-3 -8 -9.5 -13.5t-16.5 -5.5q-17 0 -30.5 13.5t-13.5 32.5q0 21 15 35.5t35 14.5t34.5 -14.5t14.5 -35.5q0 -8 -2.5 -19.5t-11.5 -30.5z" />
    <glyph glyph-name="Lslash" unicode="&#x141;" horiz-adv-x="644" 
d="M75 301l262 150v-50l-262 -150v50zM181 0v682h53v-682h-53zM215 0v48h385v-48h-385z" />
    <glyph glyph-name="lslash" unicode="&#x142;" horiz-adv-x="412" 
d="M75 301l262 150v-50l-262 -150v50zM181 0v702h50v-702h-50z" />
    <glyph glyph-name="Nacute" unicode="&#x143;" horiz-adv-x="696" 
d="M93 0v682h38l15 -64v-618h-53zM565 0l-442 612l8 70l443 -611zM565 0l-15 62v620h53v-682h-38zM282 757l-22 22l135 157l41 -42z" />
    <glyph glyph-name="nacute" unicode="&#x144;" horiz-adv-x="541" 
d="M425 0v276q0 68 -40 110t-106 42q-45 0 -79.5 -19.5t-54 -53.5t-19.5 -79l-26 15q0 53 25 94.5t68 65.5t98 24t96.5 -25.5t64.5 -69.5t23 -98v-282h-50zM75 0v465h51v-465h-51zM205 540l-22 22l135 157l41 -42z" />
    <glyph glyph-name="uni0145" unicode="&#x145;" horiz-adv-x="696" 
d="M93 0v682h38l15 -64v-618h-53zM565 0l-442 612l8 70l443 -611zM565 0l-15 62v620h53v-682h-38zM333 -282l-33 18l51 103l20 4q-3 -8 -9.5 -13.5t-16.5 -5.5q-17 0 -30.5 13t-13.5 33q0 21 14.5 35.5t35.5 14.5q19 0 34 -14.5t15 -35.5q0 -9 -2.5 -20.5t-12.5 -29.5z" />
    <glyph glyph-name="uni0146" unicode="&#x146;" horiz-adv-x="541" 
d="M425 0v276q0 68 -40 110t-106 42q-45 0 -79.5 -19.5t-54 -53.5t-19.5 -79l-26 15q0 53 25 94.5t68 65.5t98 24t96.5 -25.5t64.5 -69.5t23 -98v-282h-50zM75 0v465h51v-465h-51zM255 -282l-33 18l51 103l20 4q-3 -8 -9.5 -13.5t-16.5 -5.5q-17 0 -30.5 13t-13.5 33
q0 21 14.5 35.5t35.5 14.5q19 0 34 -14.5t15 -35.5q0 -9 -2.5 -20.5t-12.5 -29.5z" />
    <glyph glyph-name="Ncaron" unicode="&#x147;" horiz-adv-x="696" 
d="M93 0v682h38l15 -64v-618h-53zM565 0l-442 612l8 70l443 -611zM565 0l-15 62v620h53v-682h-38zM485 933l22 -22l-137 -154h-43l-137 154l22 22l153 -137l-33 1z" />
    <glyph glyph-name="ncaron" unicode="&#x148;" horiz-adv-x="541" 
d="M425 0v276q0 68 -40 110t-106 42q-45 0 -79.5 -19.5t-54 -53.5t-19.5 -79l-26 15q0 53 25 94.5t68 65.5t98 24t96.5 -25.5t64.5 -69.5t23 -98v-282h-50zM75 0v465h51v-465h-51zM407 716l22 -22l-137 -154h-43l-137 154l23 22l152 -137l-33 1z" />
    <glyph glyph-name="Eng" unicode="&#x14a;" horiz-adv-x="696" 
d="M93 0v682h38l15 -64v-618h-53zM565 0l-442 612l8 70l443 -611zM565 0l-15 62v620h53v-682h-38zM464 -207q-36 0 -65 12.5t-51 36.5l34 33q17 -18 37 -26.5t43 -8.5q38 0 64 22t26 70v533h51v-532q0 -46 -19.5 -77t-51 -47t-68.5 -16z" />
    <glyph glyph-name="eng" unicode="&#x14b;" horiz-adv-x="541" 
d="M336 -207q-36 0 -65 12.5t-50 36.5l33 33q17 -18 37 -26.5t44 -8.5q37 0 63.5 22t26.5 70v265h50v-264q0 -46 -19 -77t-51 -47t-69 -16zM425 0v276q0 68 -40 110t-106 42q-45 0 -79.5 -19.5t-54 -53.5t-19.5 -79l-26 15q0 53 25 94.5t68 65.5t98 24t96.5 -25.5
t64.5 -69.5t23 -98v-282h-50zM75 0v465h51v-465h-51z" />
    <glyph glyph-name="Omacron" unicode="&#x14c;" horiz-adv-x="793" 
d="M398 -10q-72 0 -133.5 27t-107.5 75.5t-71.5 112.5t-25.5 137q0 74 25 137.5t71 111.5t107 74.5t133 26.5t133.5 -26.5t107 -74.5t71.5 -112t26 -138q0 -73 -25.5 -137t-71.5 -112t-106.5 -75t-132.5 -27zM396 41q82 0 145.5 39.5t100.5 107.5t37 154q0 64 -21.5 118.5
t-59.5 95t-89.5 63t-112.5 22.5q-81 0 -144.5 -39t-100 -106.5t-36.5 -153.5q0 -64 21 -119t59 -96t89.5 -63.5t111.5 -22.5zM234 827h327v-42h-327v42z" />
    <glyph glyph-name="omacron" unicode="&#x14d;" horiz-adv-x="571" 
d="M286 -10q-68 0 -122.5 32.5t-86.5 88t-32 123.5t32 122.5t86.5 86.5t122.5 32q67 0 121.5 -32t86.5 -86.5t32 -122.5q0 -69 -32 -124t-86.5 -87.5t-121.5 -32.5zM286 38q53 0 95.5 26t67 70.5t24.5 100.5q0 55 -24.5 98t-67 68.5t-95.5 25.5q-54 0 -96.5 -25.5
t-67.5 -68.5t-25 -99t25 -100t67.5 -70t96.5 -26zM123 610h327v-42h-327v42z" />
    <glyph glyph-name="Ohungarumlaut" unicode="&#x150;" horiz-adv-x="793" 
d="M398 -10q-72 0 -133.5 27t-107.5 75.5t-71.5 112.5t-25.5 137q0 74 25 137.5t71 111.5t107 74.5t133 26.5t133.5 -26.5t107 -74.5t71.5 -112t26 -138q0 -73 -25.5 -137t-71.5 -112t-106.5 -75t-132.5 -27zM396 41q82 0 145.5 39.5t100.5 107.5t37 154q0 64 -21.5 118.5
t-59.5 95t-89.5 63t-112.5 22.5q-81 0 -144.5 -39t-100 -106.5t-36.5 -153.5q0 -64 21 -119t59 -96t89.5 -63.5t111.5 -22.5zM302 743l-29 11l56 199l55 -21zM436 743l-29 11l56 199l55 -21z" />
    <glyph glyph-name="ohungarumlaut" unicode="&#x151;" horiz-adv-x="571" 
d="M286 -10q-68 0 -122.5 32.5t-86.5 88t-32 123.5t32 122.5t86.5 86.5t122.5 32q67 0 121.5 -32t86.5 -86.5t32 -122.5q0 -69 -32 -124t-86.5 -87.5t-121.5 -32.5zM286 38q53 0 95.5 26t67 70.5t24.5 100.5q0 55 -24.5 98t-67 68.5t-95.5 25.5q-54 0 -96.5 -25.5
t-67.5 -68.5t-25 -99t25 -100t67.5 -70t96.5 -26zM191 526l-29 11l56 199l55 -21zM325 526l-30 11l56 199l56 -21z" />
    <glyph glyph-name="OE" unicode="&#x152;" horiz-adv-x="1174" 
d="M398 -10q-72 0 -133.5 27t-107.5 75.5t-71.5 112.5t-25.5 137q0 74 25 137.5t71 111.5t107 74.5t133 26.5q75 0 134.5 -26.5t102.5 -74.5t65.5 -112t22.5 -138q0 -73 -22.5 -137t-65 -112t-102 -75t-133.5 -27zM396 41q85 0 149 39.5t99 107.5t35 154q0 85 -35 152.5
t-99 107t-149 39.5q-81 0 -144.5 -39t-100 -106.5t-36.5 -153.5q0 -64 21 -119t59 -96t89.5 -63.5t111.5 -22.5zM679 0v682h52v-682h-52zM712 0v48h411v-48h-411zM712 327v46h380v-46h-380zM712 634v48h405v-48h-405z" />
    <glyph glyph-name="oe" unicode="&#x153;" horiz-adv-x="970" 
d="M286 -10q-68 0 -122.5 32.5t-86.5 88t-32 123.5t32 122.5t86.5 86.5t122.5 32q67 0 121.5 -32t86.5 -86.5t32 -122.5q0 -69 -32 -124t-86.5 -87.5t-121.5 -32.5zM286 38q53 0 95.5 26t67 70.5t24.5 100.5q0 55 -24.5 98t-67 68.5t-95.5 25.5q-54 0 -96.5 -25.5
t-67.5 -68.5t-25 -99t25 -100t67.5 -70t96.5 -26zM719 -10q-69 0 -124.5 32t-87.5 87t-32 124t31 123.5t85.5 86.5t121.5 32q64 0 112.5 -28.5t76 -78.5t27.5 -115q0 -6 -1 -15.5t-3 -23.5h-414v44h385l-17 -14q2 55 -18 96.5t-58 64.5t-91 23q-55 0 -97 -24.5t-65.5 -67.5
t-23.5 -100q0 -60 24.5 -104.5t68.5 -69t103 -24.5q45 0 83.5 16.5t64.5 49.5l34 -33q-32 -38 -80.5 -59.5t-104.5 -21.5z" />
    <glyph glyph-name="Racute" unicode="&#x154;" horiz-adv-x="635" 
d="M125 313v45h211q75 0 115 38t40 101q0 62 -39.5 100t-115.5 38h-211v47h209q66 0 113 -23.5t72 -65t25 -96.5t-25 -96.5t-72 -64.5t-113 -23h-209zM93 0v682h53v-682h-53zM525 0l-264 325l53 14l280 -339h-69zM223 757l-22 22l135 157l41 -42z" />
    <glyph glyph-name="racute" unicode="&#x155;" horiz-adv-x="408" 
d="M75 0v465h51v-465h-51zM126 278l-25 9q0 89 45 138.5t118 49.5q34 0 63.5 -12t54.5 -39l-34 -36q-19 21 -41 30t-52 9q-57 0 -93 -38.5t-36 -110.5zM139 540l-22 22l135 157l41 -42z" />
    <glyph glyph-name="uni0156" unicode="&#x156;" horiz-adv-x="635" 
d="M125 313v45h211q75 0 115 38t40 101q0 62 -39.5 100t-115.5 38h-211v47h209q66 0 113 -23.5t72 -65t25 -96.5t-25 -96.5t-72 -64.5t-113 -23h-209zM93 0v682h53v-682h-53zM525 0l-264 325l53 14l280 -339h-69zM292 -282l-33 18l51 103l20 4q-3 -8 -9.5 -13.5t-16.5 -5.5
q-17 0 -30.5 13t-13.5 33q0 21 14.5 35.5t35.5 14.5q19 0 34 -14.5t15 -35.5q0 -9 -2.5 -20.5t-12.5 -29.5z" />
    <glyph glyph-name="uni0157" unicode="&#x157;" horiz-adv-x="408" 
d="M75 0v465h51v-465h-51zM126 278l-25 9q0 89 45 138.5t118 49.5q34 0 63.5 -12t54.5 -39l-34 -36q-19 21 -41 30t-52 9q-57 0 -93 -38.5t-36 -110.5zM85 -282l-33 18l51 103l20 4q-3 -8 -9.5 -13.5t-16.5 -5.5q-17 0 -30.5 13t-13.5 33q0 21 14.5 35.5t35.5 14.5
q19 0 34 -14.5t15 -35.5q0 -9 -2.5 -20.5t-12.5 -29.5z" />
    <glyph glyph-name="Rcaron" unicode="&#x158;" horiz-adv-x="635" 
d="M125 313v45h211q75 0 115 38t40 101q0 62 -39.5 100t-115.5 38h-211v47h209q66 0 113 -23.5t72 -65t25 -96.5t-25 -96.5t-72 -64.5t-113 -23h-209zM93 0v682h53v-682h-53zM525 0l-264 325l53 14l280 -339h-69zM425 933l22 -22l-137 -154h-43l-137 154l23 22l152 -137
l-33 1z" />
    <glyph glyph-name="rcaron" unicode="&#x159;" horiz-adv-x="408" 
d="M75 0v465h51v-465h-51zM126 278l-25 9q0 89 45 138.5t118 49.5q34 0 63.5 -12t54.5 -39l-34 -36q-19 21 -41 30t-52 9q-57 0 -93 -38.5t-36 -110.5zM341 716l23 -22l-137 -154h-43l-137 154l22 22l153 -137l-34 1z" />
    <glyph glyph-name="Sacute" unicode="&#x15a;" horiz-adv-x="553" 
d="M282 -10q-80 0 -138 30.5t-100 84.5l37 36q39 -53 88.5 -77.5t114.5 -24.5q70 0 114 33t44 92q0 45 -19 73t-50.5 46t-69 32t-75 28.5t-68.5 36t-50.5 55.5t-19.5 86t25.5 90.5t70 59.5t102.5 21q66 0 118 -25.5t87 -71.5l-37 -36q-33 41 -73.5 62.5t-95.5 21.5
q-64 0 -103.5 -31.5t-39.5 -87.5q0 -42 19 -68t50.5 -43.5t69 -30.5t74.5 -28t68.5 -37.5t50.5 -57.5t19 -89q0 -87 -57.5 -133.5t-155.5 -46.5zM222 757l-22 22l135 157l41 -42z" />
    <glyph glyph-name="sacute" unicode="&#x15b;" horiz-adv-x="420" 
d="M214 -10q-38 0 -71.5 10.5t-61 29.5t-48.5 44l34 34q28 -37 65.5 -54.5t82.5 -17.5q52 0 82 21t30 59q0 34 -19 53.5t-49.5 30.5t-64 21t-64 24t-49.5 39t-19 67q0 37 19 65t53.5 43.5t81.5 15.5q52 0 93.5 -18t66.5 -53l-33 -34q-20 28 -54 43.5t-76 15.5q-50 0 -76 -21
t-26 -54q0 -31 19 -49t49.5 -28t64 -19.5t64 -24.5t49.5 -41t19 -71q0 -60 -44 -95.5t-118 -35.5zM150 540l-22 22l135 157l41 -42z" />
    <glyph glyph-name="Scedilla" unicode="&#x15e;" horiz-adv-x="553" 
d="M282 -10q-80 0 -138 30.5t-100 84.5l37 36q39 -53 88.5 -77.5t114.5 -24.5q70 0 114 33t44 92q0 45 -19 73t-50.5 46t-69 32t-75 28.5t-68.5 36t-50.5 55.5t-19.5 86t25.5 90.5t70 59.5t102.5 21q66 0 118 -25.5t87 -71.5l-37 -36q-33 41 -73.5 62.5t-95.5 21.5
q-64 0 -103.5 -31.5t-39.5 -87.5q0 -42 19 -68t50.5 -43.5t69 -30.5t74.5 -28t68.5 -37.5t50.5 -57.5t19 -89q0 -87 -57.5 -133.5t-155.5 -46.5zM272 -207q-31 0 -60 10t-53 29l31 31q14 -14 34.5 -22t45.5 -8q36 0 55 12t19 34q0 21 -20.5 33.5t-59.5 12.5h-28l27 85h46
l-22 -70l-20 20q59 1 92.5 -21.5t33.5 -61.5t-32 -61.5t-89 -22.5z" />
    <glyph glyph-name="scedilla" unicode="&#x15f;" horiz-adv-x="420" 
d="M214 -10q-38 0 -71.5 10.5t-61 29.5t-48.5 44l34 34q28 -37 65.5 -54.5t82.5 -17.5q52 0 82 21t30 59q0 34 -19 53.5t-49.5 30.5t-64 21t-64 24t-49.5 39t-19 67q0 37 19 65t53.5 43.5t81.5 15.5q52 0 93.5 -18t66.5 -53l-33 -34q-20 28 -54 43.5t-76 15.5q-50 0 -76 -21
t-26 -54q0 -31 19 -49t49.5 -28t64 -19.5t64 -24.5t49.5 -41t19 -71q0 -60 -44 -95.5t-118 -35.5zM205 -207q-31 0 -60 10t-53 29l31 31q14 -14 34.5 -22t45.5 -8q36 0 55 12t19 34q0 21 -20.5 33.5t-59.5 12.5h-28l27 85h46l-22 -70l-20 20q59 1 92.5 -21.5t33.5 -61.5
t-32 -61.5t-89 -22.5z" />
    <glyph glyph-name="Scaron" unicode="&#x160;" horiz-adv-x="553" 
d="M282 -10q-80 0 -138 30.5t-100 84.5l37 36q39 -53 88.5 -77.5t114.5 -24.5q70 0 114 33t44 92q0 45 -19 73t-50.5 46t-69 32t-75 28.5t-68.5 36t-50.5 55.5t-19.5 86t25.5 90.5t70 59.5t102.5 21q66 0 118 -25.5t87 -71.5l-37 -36q-33 41 -73.5 62.5t-95.5 21.5
q-64 0 -103.5 -31.5t-39.5 -87.5q0 -42 19 -68t50.5 -43.5t69 -30.5t74.5 -28t68.5 -37.5t50.5 -57.5t19 -89q0 -87 -57.5 -133.5t-155.5 -46.5zM424 933l22 -22l-137 -154h-43l-137 154l23 22l152 -137l-33 1z" />
    <glyph glyph-name="scaron" unicode="&#x161;" horiz-adv-x="420" 
d="M214 -10q-38 0 -71.5 10.5t-61 29.5t-48.5 44l34 34q28 -37 65.5 -54.5t82.5 -17.5q52 0 82 21t30 59q0 34 -19 53.5t-49.5 30.5t-64 21t-64 24t-49.5 39t-19 67q0 37 19 65t53.5 43.5t81.5 15.5q52 0 93.5 -18t66.5 -53l-33 -34q-20 28 -54 43.5t-76 15.5q-50 0 -76 -21
t-26 -54q0 -31 19 -49t49.5 -28t64 -19.5t64 -24.5t49.5 -41t19 -71q0 -60 -44 -95.5t-118 -35.5zM352 716l23 -22l-137 -154h-43l-137 154l22 22l153 -137l-34 1z" />
    <glyph glyph-name="Tcaron" unicode="&#x164;" horiz-adv-x="638" 
d="M293 0v663h52v-663h-52zM43 634v48h552v-48h-552zM455 933l22 -22l-136 -154h-44l-136 154l22 22l153 -137l-34 1z" />
    <glyph glyph-name="tcaron" unicode="&#x165;" horiz-adv-x="418" 
d="M148 0v662h51v-662h-51zM28 420v45h291v-45h-291zM260 498l-33 18l52 103l19 4q-3 -8 -9.5 -13.5t-16.5 -5.5q-17 0 -30.5 13.5t-13.5 32.5q0 21 15 35.5t35 14.5t34.5 -14.5t14.5 -35.5q0 -8 -2.5 -19.5t-11.5 -30.5z" />
    <glyph glyph-name="Umacron" unicode="&#x16a;" horiz-adv-x="669" 
d="M335 -10q-72 0 -128.5 32t-89 88.5t-32.5 127.5v444h52v-440q0 -61 26 -106.5t71 -70t101 -24.5q57 0 101 24.5t70 70t26 105.5v441h53v-445q0 -71 -33 -127t-89 -88t-128 -32zM171 827h327v-42h-327v42z" />
    <glyph glyph-name="umacron" unicode="&#x16b;" horiz-adv-x="513" 
d="M257 -10q-56 0 -100 26t-68.5 72t-24.5 106v271h51v-269q0 -47 17.5 -82.5t49.5 -55.5t75 -20q64 0 102.5 43.5t38.5 114.5v269h51v-271q0 -60 -24.5 -106t-68 -72t-99.5 -26zM94 610h327v-42h-327v42z" />
    <glyph glyph-name="Ubreve" unicode="&#x16c;" horiz-adv-x="669" 
d="M335 -10q-72 0 -128.5 32t-89 88.5t-32.5 127.5v444h52v-440q0 -61 26 -106.5t71 -70t101 -24.5q57 0 101 24.5t70 70t26 105.5v441h53v-445q0 -71 -33 -127t-89 -88t-128 -32zM493 898q0 -45 -20.5 -81t-55.5 -57t-81 -21t-82.5 21t-57 57t-20.5 81h47q0 -50 31 -83
t84 -33q30 0 55 15t39.5 41.5t14.5 59.5h46z" />
    <glyph glyph-name="ubreve" unicode="&#x16d;" horiz-adv-x="513" 
d="M257 -10q-56 0 -100 26t-68.5 72t-24.5 106v271h51v-269q0 -47 17.5 -82.5t49.5 -55.5t75 -20q64 0 102.5 43.5t38.5 114.5v269h51v-271q0 -60 -24.5 -106t-68 -72t-99.5 -26zM415 681q0 -45 -20.5 -81t-55.5 -57t-81 -21t-82.5 21t-57 57t-20.5 81h47q0 -50 31 -83
t84 -33q30 0 55 15t39.5 41.5t14.5 59.5h46z" />
    <glyph glyph-name="Uring" unicode="&#x16e;" horiz-adv-x="669" 
d="M335 -10q-72 0 -128.5 32t-89 88.5t-32.5 127.5v444h52v-440q0 -61 26 -106.5t71 -70t101 -24.5q57 0 101 24.5t70 70t26 105.5v441h53v-445q0 -71 -33 -127t-89 -88t-128 -32zM336 739q-32 0 -56.5 14.5t-38.5 38.5t-14 54q0 31 14 55.5t38.5 38.5t56.5 14
q31 0 54.5 -14t37.5 -38.5t14 -54.5q0 -31 -14 -55.5t-37.5 -38.5t-54.5 -14zM337 779q26 0 45 19.5t19 48.5t-19 48t-45 19q-31 0 -49.5 -19.5t-18.5 -47.5q0 -29 18.5 -48.5t49.5 -19.5z" />
    <glyph glyph-name="uring" unicode="&#x16f;" horiz-adv-x="513" 
d="M257 -10q-56 0 -100 26t-68.5 72t-24.5 106v271h51v-269q0 -47 17.5 -82.5t49.5 -55.5t75 -20q64 0 102.5 43.5t38.5 114.5v269h51v-271q0 -60 -24.5 -106t-68 -72t-99.5 -26zM258 522q-32 0 -56.5 14.5t-38.5 38.5t-14 54q0 31 14 55.5t38.5 38.5t56.5 14q31 0 54.5 -14
t37.5 -38.5t14 -54.5q0 -31 -14 -55.5t-37.5 -38.5t-54.5 -14zM259 562q26 0 45 19.5t19 48.5t-19 48t-45 19q-31 0 -49.5 -19.5t-18.5 -47.5q0 -29 18.5 -48.5t49.5 -19.5z" />
    <glyph glyph-name="Uhungarumlaut" unicode="&#x170;" horiz-adv-x="669" 
d="M335 -10q-72 0 -128.5 32t-89 88.5t-32.5 127.5v444h52v-440q0 -61 26 -106.5t71 -70t101 -24.5q57 0 101 24.5t70 70t26 105.5v441h53v-445q0 -71 -33 -127t-89 -88t-128 -32zM240 743l-30 11l56 199l56 -21zM374 743l-30 11l56 199l55 -21z" />
    <glyph glyph-name="uhungarumlaut" unicode="&#x171;" horiz-adv-x="513" 
d="M257 -10q-56 0 -100 26t-68.5 72t-24.5 106v271h51v-269q0 -47 17.5 -82.5t49.5 -55.5t75 -20q64 0 102.5 43.5t38.5 114.5v269h51v-271q0 -60 -24.5 -106t-68 -72t-99.5 -26zM162 526l-29 11l56 199l55 -21zM296 526l-30 11l56 199l56 -21z" />
    <glyph glyph-name="Uogonek" unicode="&#x172;" horiz-adv-x="669" 
d="M335 -10q-72 0 -128.5 32t-89 88.5t-32.5 127.5v444h52v-440q0 -61 26 -106.5t71 -70t101 -24.5q57 0 101 24.5t70 70t26 105.5v441h53v-445q0 -71 -33 -127t-89 -88t-128 -32zM410 -197q-37 0 -63.5 21t-26.5 63q0 34 24.5 72t61.5 67l31 -16q-35 -30 -55.5 -58.5
t-20.5 -60.5q0 -27 14.5 -40t39.5 -13q14 0 25 4.5t23 11.5l16 -28q-14 -11 -31 -17t-38 -6z" />
    <glyph glyph-name="uogonek" unicode="&#x173;" horiz-adv-x="513" 
d="M257 -10q-56 0 -100 26t-68.5 72t-24.5 106v271h51v-269q0 -47 17.5 -82.5t49.5 -55.5t75 -20q64 0 102.5 43.5t38.5 114.5v269h51v-271q0 -60 -24.5 -106t-68 -72t-99.5 -26zM318 -197q-37 0 -63.5 21t-26.5 63q0 34 24.5 72t61.5 67l31 -16q-35 -30 -55.5 -58.5
t-20.5 -60.5q0 -27 14.5 -40t39.5 -13q14 0 25 4.5t23 11.5l16 -28q-14 -11 -31 -17t-38 -6z" />
    <glyph glyph-name="Wcircumflex" unicode="&#x174;" horiz-adv-x="978" 
d="M264 0l-219 682h54l194 -619h-19l193 619h43l194 -619h-20l195 619h54l-219 -682h-41l-193 618h17l-192 -618h-41zM352 757l-22 22l137 154h43l137 -154l-22 -22l-153 136h33z" />
    <glyph glyph-name="wcircumflex" unicode="&#x175;" horiz-adv-x="742" 
d="M203 0l-176 465h53l149 -411h-22l149 411h30l149 -411h-22l149 411h53l-175 -465h-31l-151 412h27l-152 -412h-30zM235 540l-22 22l137 154h43l137 -154l-22 -22l-153 136h33z" />
    <glyph glyph-name="Ycircumflex" unicode="&#x176;" horiz-adv-x="652" 
d="M315 286l-273 396h62l234 -341h-23l236 341h60l-275 -396h-21zM300 0v329h53v-329h-53zM190 757l-22 22l137 154h43l137 -154l-22 -22l-153 136h33z" />
    <glyph glyph-name="ycircumflex" unicode="&#x177;" horiz-adv-x="506" 
d="M234 -1l-207 466h56l179 -413h-26l187 413h56l-219 -466h-26zM113 -197l120 246l27 -50l-92 -196h-55zM117 540l-22 22l137 154h43l137 -154l-22 -22l-153 136h33z" />
    <glyph glyph-name="Ydieresis" unicode="&#x178;" horiz-adv-x="652" 
d="M315 286l-273 396h62l234 -341h-23l236 341h60l-275 -396h-21zM300 0v329h53v-329h-53zM236 765q-17 0 -28.5 12.5t-11.5 29.5t11.5 28.5t28.5 11.5t29 -11.5t12 -28.5t-12 -29.5t-29 -12.5zM416 765q-17 0 -28.5 12.5t-11.5 29.5t11.5 28.5t28.5 11.5t29 -11.5t12 -28.5
t-12 -29.5t-29 -12.5z" />
    <glyph glyph-name="Zacute" unicode="&#x179;" horiz-adv-x="571" 
d="M48 34l412 615h62l-412 -615h-62zM48 0v34l44 14h423v-48h-467zM65 634v48h457v-33l-45 -15h-412zM225 757l-22 22l135 157l41 -42z" />
    <glyph glyph-name="zacute" unicode="&#x17a;" horiz-adv-x="438" 
d="M33 28l310 409h60l-310 -409h-60zM33 0v28l40 17h325v-45h-365zM49 420v45h354v-28l-48 -17h-306zM167 540l-22 22l135 157l41 -42z" />
    <glyph glyph-name="Zdotaccent" unicode="&#x17b;" horiz-adv-x="571" 
d="M48 34l412 615h62l-412 -615h-62zM48 0v34l44 14h423v-48h-467zM65 634v48h457v-33l-45 -15h-412zM291 765q-17 0 -28.5 12.5t-11.5 29.5t11.5 28.5t28.5 11.5t29 -11.5t12 -28.5t-12 -29.5t-29 -12.5z" />
    <glyph glyph-name="zdotaccent" unicode="&#x17c;" horiz-adv-x="438" 
d="M33 28l310 409h60l-310 -409h-60zM33 0v28l40 17h325v-45h-365zM49 420v45h354v-28l-48 -17h-306zM233 548q-17 0 -28.5 12.5t-11.5 29.5t11.5 28.5t28.5 11.5t29 -11.5t12 -28.5t-12 -29.5t-29 -12.5z" />
    <glyph glyph-name="Zcaron" unicode="&#x17d;" horiz-adv-x="571" 
d="M48 34l412 615h62l-412 -615h-62zM48 0v34l44 14h423v-48h-467zM65 634v48h457v-33l-45 -15h-412zM427 933l22 -22l-136 -154h-44l-136 154l22 22l153 -137l-34 1z" />
    <glyph glyph-name="zcaron" unicode="&#x17e;" horiz-adv-x="438" 
d="M33 28l310 409h60l-310 -409h-60zM33 0v28l40 17h325v-45h-365zM49 420v45h354v-28l-48 -17h-306zM369 716l22 -22l-137 -154h-43l-137 154l23 22l152 -137l-33 1z" />
    <glyph glyph-name="uni01CD" unicode="&#x1cd;" horiz-adv-x="684" 
d="M44 0l278 682h42l277 -682h-58l-251 628h21l-253 -628h-56zM165 201v47h355v-47h-355zM478 933l22 -22l-136 -154h-44l-136 154l22 22l153 -137l-34 1z" />
    <glyph glyph-name="uni01CE" unicode="&#x1ce;" horiz-adv-x="587" 
d="M281 -10q-67 0 -120.5 32t-84.5 86.5t-31 123.5q0 68 31 123t84 87.5t119 32.5q54 0 96.5 -20.5t70 -57.5t35.5 -88v-152q-9 -51 -36.5 -88.5t-69 -58t-94.5 -20.5zM288 38q80 0 127.5 53.5t47.5 140.5q0 59 -21.5 102.5t-61.5 68t-93 24.5q-55 0 -97.5 -25t-67 -69
t-24.5 -100q0 -57 24.5 -101t67.5 -69t98 -25zM461 0v125l11 114l-11 113v113h51v-465h-51zM437 716l22 -22l-137 -154h-43l-137 154l22 22l153 -137l-33 1z" />
    <glyph glyph-name="uni0218" unicode="&#x218;" horiz-adv-x="553" 
d="M282 -10q-80 0 -138 30.5t-100 84.5l37 36q39 -53 88.5 -77.5t114.5 -24.5q70 0 114 33t44 92q0 45 -19 73t-50.5 46t-69 32t-75 28.5t-68.5 36t-50.5 55.5t-19.5 86t25.5 90.5t70 59.5t102.5 21q66 0 118 -25.5t87 -71.5l-37 -36q-33 41 -73.5 62.5t-95.5 21.5
q-64 0 -103.5 -31.5t-39.5 -87.5q0 -42 19 -68t50.5 -43.5t69 -30.5t74.5 -28t68.5 -37.5t50.5 -57.5t19 -89q0 -87 -57.5 -133.5t-155.5 -46.5zM268 -282l-33 18l51 103l20 4q-3 -8 -9.5 -13.5t-16.5 -5.5q-17 0 -30.5 13t-13.5 33q0 21 14.5 35.5t35.5 14.5q19 0 34 -14.5
t15 -35.5q0 -9 -2.5 -20.5t-12.5 -29.5z" />
    <glyph glyph-name="uni0219" unicode="&#x219;" horiz-adv-x="420" 
d="M214 -10q-38 0 -71.5 10.5t-61 29.5t-48.5 44l34 34q28 -37 65.5 -54.5t82.5 -17.5q52 0 82 21t30 59q0 34 -19 53.5t-49.5 30.5t-64 21t-64 24t-49.5 39t-19 67q0 37 19 65t53.5 43.5t81.5 15.5q52 0 93.5 -18t66.5 -53l-33 -34q-20 28 -54 43.5t-76 15.5q-50 0 -76 -21
t-26 -54q0 -31 19 -49t49.5 -28t64 -19.5t64 -24.5t49.5 -41t19 -71q0 -60 -44 -95.5t-118 -35.5zM201 -282l-33 18l51 103l20 4q-3 -8 -9.5 -13.5t-16.5 -5.5q-17 0 -30.5 13t-13.5 33q0 21 14.5 35.5t35.5 14.5q19 0 34 -14.5t15 -35.5q0 -9 -2.5 -20.5t-12.5 -29.5z" />
    <glyph glyph-name="uni021A" unicode="&#x21a;" horiz-adv-x="638" 
d="M293 0v663h52v-663h-52zM43 634v48h552v-48h-552zM303 -282l-33 18l51 103l20 4q-3 -8 -9.5 -13.5t-16.5 -5.5q-17 0 -30.5 13t-13.5 33q0 21 14.5 35.5t35.5 14.5q19 0 34 -14.5t15 -35.5q0 -9 -2.5 -20.5t-12.5 -29.5z" />
    <glyph glyph-name="uni021B" unicode="&#x21b;" horiz-adv-x="347" 
d="M148 0v662h51v-662h-51zM28 420v45h291v-45h-291zM158 -282l-33 18l51 103l20 4q-3 -8 -9.5 -13.5t-16.5 -5.5q-17 0 -30.5 13t-13.5 33q0 21 14.5 35.5t35.5 14.5q19 0 34 -14.5t15 -35.5q0 -9 -2.5 -20.5t-12.5 -29.5z" />
    <glyph glyph-name="uni0237" unicode="&#x237;" horiz-adv-x="205" 
d="M-9 -207q-36 0 -65 12.5t-51 36.5l34 33q17 -18 37 -26.5t43 -8.5q38 0 64 22t26 70v533h51v-532q0 -46 -19.5 -77t-51 -47t-68.5 -16z" />
    <glyph glyph-name="apostrophe" unicode="&#x2bc;" horiz-adv-x="247" 
d="M64 528l70 103l21 4q-3 -8 -9.5 -13.5t-16.5 -5.5q-17 0 -30.5 13.5t-13.5 32.5q0 21 14.5 35.5t35.5 14.5q20 0 34.5 -14.5t14.5 -34.5q0 -9 -3.5 -21.5t-15.5 -29.5l-68 -102z" />
    <glyph glyph-name="circumflex" unicode="&#x2c6;" horiz-adv-x="397" 
d="M62 540l-22 22l137 154h43l137 -154l-22 -22l-153 136h33z" />
    <glyph glyph-name="caron" unicode="&#x2c7;" horiz-adv-x="397" 
d="M335 716l22 -22l-137 -154h-43l-137 154l22 22l153 -137l-33 1z" />
    <glyph glyph-name="breve" unicode="&#x2d8;" horiz-adv-x="397" 
d="M357 681q0 -45 -20.5 -81t-55.5 -57t-81 -21t-82.5 21t-57 57t-20.5 81h47q0 -50 31 -83t84 -33q30 0 55 15t39.5 41.5t14.5 59.5h46z" />
    <glyph glyph-name="dotaccent" unicode="&#x2d9;" horiz-adv-x="261" 
d="M130 548q-17 0 -28.5 12.5t-11.5 29.5t11.5 28.5t28.5 11.5t29 -11.5t12 -28.5t-12 -29.5t-29 -12.5z" />
    <glyph glyph-name="ring" unicode="&#x2da;" horiz-adv-x="295" 
d="M149 522q-32 0 -56.5 14.5t-38.5 38.5t-14 54q0 31 14 55.5t38.5 38.5t56.5 14q31 0 54.5 -14t37.5 -38.5t14 -54.5q0 -31 -14 -55.5t-37.5 -38.5t-54.5 -14zM150 562q26 0 45 19.5t19 48.5t-19 48t-45 19q-31 0 -49.5 -19.5t-18.5 -47.5q0 -29 18.5 -48.5t49.5 -19.5z
" />
    <glyph glyph-name="ogonek" unicode="&#x2db;" horiz-adv-x="236" 
d="M127 -207q-37 0 -63.5 21t-26.5 63q0 34 24.5 72t61.5 67l31 -16q-35 -30 -55.5 -58.5t-20.5 -60.5q0 -27 14.5 -40t39.5 -13q14 0 25 4.5t23 11.5l16 -28q-14 -11 -31 -17t-38 -6z" />
    <glyph glyph-name="tilde" unicode="&#x2dc;" horiz-adv-x="415" 
d="M281 547q-31 0 -53 11t-42.5 22t-46.5 11q-27 0 -42 -10t-28 -28l-29 26q18 25 40.5 40.5t57.5 15.5q33 0 56 -11t43 -22t43 -11q24 0 38.5 10t27.5 28l29 -27q-18 -24 -40.5 -39.5t-53.5 -15.5z" />
    <glyph glyph-name="hungarumlaut" unicode="&#x2dd;" horiz-adv-x="325" 
d="M70 521l-30 11l56 199l55 -21zM203 521l-29 11l56 199l55 -21z" />
    <glyph glyph-name="gravecomb" unicode="&#x300;" 
d="M194 538l-154 137l42 41l134 -156z" />
    <glyph glyph-name="acutecomb" unicode="&#x301;" 
d="M62 540l-22 22l135 157l41 -42z" />
    <glyph glyph-name="uni0302" unicode="&#x302;" 
d="M62 540l-22 22l137 154h43l137 -154l-22 -22l-153 136h33z" />
    <glyph glyph-name="tildecomb" unicode="&#x303;" 
d="M281 547q-31 0 -53 11t-42.5 22t-46.5 11q-27 0 -42 -10t-28 -28l-29 26q18 25 40.5 40.5t57.5 15.5q33 0 56 -11t43 -22t43 -11q24 0 38.5 10t27.5 28l29 -27q-18 -24 -40.5 -39.5t-53.5 -15.5z" />
    <glyph glyph-name="uni0304" unicode="&#x304;" 
d="M40 610h327v-42h-327v42z" />
    <glyph glyph-name="uni0306" unicode="&#x306;" 
d="M357 681q0 -45 -20.5 -81t-55.5 -57t-81 -21t-82.5 21t-57 57t-20.5 81h47q0 -50 31 -83t84 -33q30 0 55 15t39.5 41.5t14.5 59.5h46z" />
    <glyph glyph-name="uni0307" unicode="&#x307;" 
d="M130 548q-17 0 -28.5 12.5t-11.5 29.5t11.5 28.5t28.5 11.5t29 -11.5t12 -28.5t-12 -29.5t-29 -12.5z" />
    <glyph glyph-name="uni0308" unicode="&#x308;" 
d="M100 548q-17 0 -28.5 12.5t-11.5 29.5t11.5 28.5t28.5 11.5t29 -11.5t12 -28.5t-12 -29.5t-29 -12.5zM280 548q-17 0 -28.5 12.5t-11.5 29.5t11.5 28.5t28.5 11.5t29 -11.5t12 -28.5t-12 -29.5t-29 -12.5z" />
    <glyph glyph-name="uni030A" unicode="&#x30a;" 
d="M149 522q-32 0 -56.5 14.5t-38.5 38.5t-14 54q0 31 14 55.5t38.5 38.5t56.5 14q31 0 54.5 -14t37.5 -38.5t14 -54.5q0 -31 -14 -55.5t-37.5 -38.5t-54.5 -14zM150 562q26 0 45 19.5t19 48.5t-19 48t-45 19q-31 0 -49.5 -19.5t-18.5 -47.5q0 -29 18.5 -48.5t49.5 -19.5z
" />
    <glyph glyph-name="uni030B" unicode="&#x30b;" 
d="M70 521l-30 11l56 199l55 -21zM203 521l-29 11l56 199l55 -21z" />
    <glyph glyph-name="uni030C" unicode="&#x30c;" 
d="M335 716l22 -22l-137 -154h-43l-137 154l22 22l153 -137l-33 1z" />
    <glyph glyph-name="uni0312" unicode="&#x312;" 
d="M140 716l-51 -103l-20 -4q3 8 9.5 13.5t16.5 5.5q17 0 30.5 -13t13.5 -33t-14.5 -35t-35.5 -15q-20 0 -34.5 14.5t-14.5 35.5q0 9 3 20.5t12 29.5l52 102z" />
    <glyph glyph-name="uni0326" unicode="&#x326;" 
d="M75 -282l-33 18l51 103l20 4q-3 -8 -9.5 -13.5t-16.5 -5.5q-17 0 -30.5 13t-13.5 33q0 21 14.5 35.5t35.5 14.5q19 0 34 -14.5t15 -35.5q0 -9 -2.5 -20.5t-12.5 -29.5z" />
    <glyph glyph-name="uni0327" unicode="&#x327;" 
d="M132 -207q-31 0 -60 10t-53 29l31 31q14 -14 34.5 -22t45.5 -8q36 0 55 12t19 34q0 21 -20.5 33.5t-59.5 12.5h-28l27 85h46l-22 -70l-20 20q59 1 92.5 -21.5t33.5 -61.5t-32 -61.5t-89 -22.5z" />
    <glyph glyph-name="uni0328" unicode="&#x328;" 
d="M127 -207q-37 0 -63.5 21t-26.5 63q0 34 24.5 72t61.5 67l31 -16q-35 -30 -55.5 -58.5t-20.5 -60.5q0 -27 14.5 -40t39.5 -13q14 0 25 4.5t23 11.5l16 -28q-14 -11 -31 -17t-38 -6z" />
    <glyph glyph-name="Wgrave" unicode="&#x1e80;" horiz-adv-x="978" 
d="M264 0l-219 682h54l194 -619h-19l193 619h43l194 -619h-20l195 619h54l-219 -682h-41l-193 618h17l-192 -618h-41zM528 755l-154 137l42 41l134 -156z" />
    <glyph glyph-name="wgrave" unicode="&#x1e81;" horiz-adv-x="742" 
d="M203 0l-176 465h53l149 -411h-22l149 411h30l149 -411h-22l149 411h53l-175 -465h-31l-151 412h27l-152 -412h-30zM410 538l-154 137l42 41l134 -156z" />
    <glyph glyph-name="Wacute" unicode="&#x1e82;" horiz-adv-x="978" 
d="M264 0l-219 682h54l194 -619h-19l193 619h43l194 -619h-20l195 619h54l-219 -682h-41l-193 618h17l-192 -618h-41zM423 757l-22 22l135 157l41 -42z" />
    <glyph glyph-name="wacute" unicode="&#x1e83;" horiz-adv-x="742" 
d="M203 0l-176 465h53l149 -411h-22l149 411h30l149 -411h-22l149 411h53l-175 -465h-31l-151 412h27l-152 -412h-30zM305 540l-22 22l135 157l41 -42z" />
    <glyph glyph-name="Wdieresis" unicode="&#x1e84;" horiz-adv-x="978" 
d="M264 0l-219 682h54l194 -619h-19l193 619h43l194 -619h-20l195 619h54l-219 -682h-41l-193 618h17l-192 -618h-41zM399 765q-17 0 -28.5 12.5t-11.5 29.5t11.5 28.5t28.5 11.5t29 -11.5t12 -28.5t-12 -29.5t-29 -12.5zM579 765q-17 0 -28.5 12.5t-11.5 29.5t11.5 28.5
t28.5 11.5t29 -11.5t12 -28.5t-12 -29.5t-29 -12.5z" />
    <glyph glyph-name="wdieresis" unicode="&#x1e85;" horiz-adv-x="742" 
d="M203 0l-176 465h53l149 -411h-22l149 411h30l149 -411h-22l149 411h53l-175 -465h-31l-151 412h27l-152 -412h-30zM281 548q-17 0 -28.5 12.5t-11.5 29.5t11.5 28.5t28.5 11.5t29 -11.5t12 -28.5t-12 -29.5t-29 -12.5zM461 548q-17 0 -28.5 12.5t-11.5 29.5t11.5 28.5
t28.5 11.5t29 -11.5t12 -28.5t-12 -29.5t-29 -12.5z" />
    <glyph glyph-name="uni1E9E" unicode="&#x1e9e;" horiz-adv-x="711" 
d="M351 402l237 224l47 -19l-228 -212l-56 -26v33zM423 -3q-62 0 -109.5 22t-78.5 62l16 52q27 -41 72 -64t100 -23q52 0 91.5 20.5t62 58t22.5 86.5q0 51 -22.5 88.5t-62.5 58t-94 20.5q-17 0 -33.5 -2t-35.5 -7l17 28q14 11 33 15.5t43 4.5q59 0 106 -26.5t74.5 -73.5
t27.5 -107q0 -63 -29.5 -111t-81 -75t-118.5 -27zM377 696q59 0 106.5 -7.5t81.5 -17.5t52 -17.5l18 -7.5v-40l-14 4t-39 10.5t-58 13t-70 10.5t-77 4q-70 0 -122.5 -21t-81.5 -59t-29 -86v-482h-51v485q0 63 36.5 110.5t101 74t146.5 26.5z" />
    <glyph glyph-name="Ygrave" unicode="&#x1ef2;" horiz-adv-x="652" 
d="M315 286l-273 396h62l234 -341h-23l236 341h60l-275 -396h-21zM300 0v329h53v-329h-53zM366 755l-154 137l42 41l134 -156z" />
    <glyph glyph-name="ygrave" unicode="&#x1ef3;" horiz-adv-x="506" 
d="M234 -1l-207 466h56l179 -413h-26l187 413h56l-219 -466h-26zM113 -197l120 246l27 -50l-92 -196h-55zM292 538l-154 137l42 41l134 -156z" />
    <glyph glyph-name="endash" unicode="&#x2013;" horiz-adv-x="540" 
d="M75 231v43h390v-43h-390z" />
    <glyph glyph-name="emdash" unicode="&#x2014;" horiz-adv-x="834" 
d="M75 232v42h682v-42h-682z" />
    <glyph glyph-name="quoteleft" unicode="&#x2018;" horiz-adv-x="243" 
d="M168 694l-52 -103l-19 -4q3 8 9.5 13.5t16.5 5.5q17 0 30.5 -13t13.5 -33t-15 -35t-35 -15t-34.5 14.5t-14.5 35.5q0 9 3 20.5t11 29.5l53 102z" />
    <glyph glyph-name="quoteright" unicode="&#x2019;" horiz-adv-x="242" 
d="M75 508l52 103l20 4q-3 -8 -9.5 -13.5t-17.5 -5.5q-17 0 -30.5 13.5t-13.5 32.5q0 21 15 35.5t36 14.5q19 0 33.5 -14.5t14.5 -35.5q0 -8 -2.5 -19.5t-11.5 -30.5l-52 -102z" />
    <glyph glyph-name="quotesinglbase" unicode="&#x201a;" horiz-adv-x="272" 
d="M90 -96l52 103l20 4q-3 -8 -9.5 -13.5t-17.5 -5.5q-17 0 -30.5 13t-13.5 33q0 21 15 35.5t36 14.5q19 0 33.5 -14.5t14.5 -35.5q0 -9 -2.5 -20.5t-11.5 -29.5l-52 -102z" />
    <glyph glyph-name="quotedblleft" unicode="&#x201c;" horiz-adv-x="387" 
d="M168 694l-52 -103l-19 -4q3 8 9.5 13.5t16.5 5.5q17 0 30.5 -13t13.5 -33t-15 -35t-35 -15t-34.5 14.5t-14.5 35.5q0 9 3 20.5t11 29.5l53 102zM312 694l-52 -103l-19 -4q3 8 9.5 13.5t16.5 5.5q17 0 30.5 -13t13.5 -33t-15 -35t-35 -15t-34.5 14.5t-14.5 35.5
q0 9 3 20.5t11 29.5l53 102z" />
    <glyph glyph-name="quotedblright" unicode="&#x201d;" horiz-adv-x="386" 
d="M219 508l52 103l20 4q-3 -8 -9.5 -13.5t-17.5 -5.5q-17 0 -30.5 13.5t-13.5 32.5q0 21 15 35.5t36 14.5q19 0 33.5 -14.5t14.5 -35.5q0 -8 -2.5 -19.5t-11.5 -30.5l-52 -102zM75 508l52 103l20 4q-3 -8 -9.5 -13.5t-17.5 -5.5q-17 0 -30.5 13.5t-13.5 32.5q0 21 15 35.5
t36 14.5q19 0 33.5 -14.5t14.5 -35.5q0 -8 -2.5 -19.5t-11.5 -30.5l-52 -102z" />
    <glyph glyph-name="quotedblbase" unicode="&#x201e;" horiz-adv-x="416" 
d="M234 -96l52 103l20 4q-3 -8 -9.5 -13.5t-17.5 -5.5q-17 0 -30.5 13.5t-13.5 32.5q0 21 15 35.5t36 14.5q19 0 33.5 -14.5t14.5 -35.5q0 -8 -2.5 -19.5t-11.5 -30.5l-52 -102zM90 -96l52 103l20 4q-3 -8 -9.5 -13.5t-17.5 -5.5q-17 0 -30.5 13.5t-13.5 32.5q0 21 15 35.5
t36 14.5q19 0 33.5 -14.5t14.5 -35.5q0 -8 -2.5 -19.5t-11.5 -30.5l-52 -102z" />
    <glyph glyph-name="bullet" unicode="&#x2022;" horiz-adv-x="305" 
d="M153 276q-24 0 -42 11t-28.5 30t-10.5 41q0 23 10.5 41t28.5 29.5t42 11.5t42 -11.5t28 -29.5t10 -41q0 -22 -10 -41t-28 -30t-42 -11z" />
    <glyph glyph-name="ellipsis" unicode="&#x2026;" horiz-adv-x="709" 
d="M354 -10q-20 0 -34 15t-14 34q0 21 14 35t34 14q21 0 35 -14t14 -35q0 -19 -14 -34t-35 -15zM564 -10q-20 0 -34 15t-14 34q0 21 14 35t34 14q21 0 35 -14t14 -35q0 -19 -14 -34t-35 -15zM144 -10q-20 0 -34 15t-14 34q0 21 14 35t34 14q21 0 35 -14t14 -35
q0 -19 -14 -34t-35 -15z" />
    <glyph glyph-name="guilsinglleft" unicode="&#x2039;" horiz-adv-x="268" 
d="M167 83l-119 153l119 154h54l-121 -154l121 -153h-54z" />
    <glyph glyph-name="guilsinglright" unicode="&#x203a;" horiz-adv-x="268" 
d="M47 83l122 153l-122 154h54l119 -154l-119 -153h-54z" />
    <glyph glyph-name="fraction" unicode="&#x2044;" horiz-adv-x="613" 
d="M263 297l23 -18l-190 -290l-47 40zM347 386l-23 19l190 290l47 -41z" />
    <glyph glyph-name="uni2074" unicode="&#x2074;" horiz-adv-x="351" 
d="M43 449l124 233h50l-127 -233h-47zM43 422v27l15 13h251v-40h-266zM218 337v225h44v-225h-44z" />
    <glyph glyph-name="Euro" unicode="&#x20ac;" horiz-adv-x="735" 
d="M419 -10q-72 0 -131 27t-102 75t-66 112t-23 138t23 137.5t65.5 111t101.5 74.5t130 27q76 0 134 -28t105 -77l-37 -37q-38 43 -88 67.5t-116 24.5q-79 0 -138.5 -39t-92 -107t-32.5 -154t33 -154.5t93 -108t139 -39.5q68 0 118.5 25t88.5 68l37 -36q-46 -50 -105 -78.5
t-137 -28.5zM31 407v44h467l-14 -44h-453zM31 233v44h426l-14 -44h-412z" />
    <glyph glyph-name="uni2120" unicode="&#x2120;" horiz-adv-x="636" 
d="M143 314q-39 0 -68.5 15t-50.5 43l19 18q19 -27 44 -39t58 -12q35 0 57 16.5t22 45.5q0 22 -9.5 36t-25.5 23.5t-35 16t-37.5 14t-34.5 18.5t-25 27.5t-9 43.5q0 26 12.5 45t34.5 29.5t51 10.5q34 0 59.5 -12.5t43.5 -35.5l-18 -18q-16 20 -37 31t-48 11q-32 0 -52 -16
t-20 -44q0 -20 10 -33.5t25.5 -22t34 -15t37.5 -14.5t34.5 -19t25.5 -28.5t10 -44.5q0 -43 -29 -66.5t-79 -23.5zM288 319v341h19l151 -246h-15l150 246h19v-341h-26v296l6 -2l-132 -216h-20l-132 216l6 2v-296h-26z" />
    <glyph glyph-name="trademark" unicode="&#x2122;" horiz-adv-x="676" 
d="M149 319v332h26v-332h-26zM24 637v23h276v-23h-276zM327 319v341h19l151 -246h-15l151 246h19v-341h-27v296l7 -2l-132 -216h-20l-132 216l6 2v-296h-27z" />
    <glyph glyph-name="arrowleft" unicode="&#x2190;" horiz-adv-x="658" 
d="M94 314v48h506v-48h-506zM347 574l-236 -236l236 -236h-68l-236 236l236 236h68z" />
    <glyph glyph-name="arrowup" unicode="&#x2191;" horiz-adv-x="658" 
d="M305 573h48v-506h-48v506zM565 320l-236 236l-236 -236v68l236 236l236 -236v-68z" />
    <glyph glyph-name="arrowright" unicode="&#x2192;" horiz-adv-x="658" 
d="M564 362v-48h-506v48h506zM311 102l236 236l-236 236h68l236 -236l-236 -236h-68z" />
    <glyph glyph-name="arrowdown" unicode="&#x2193;" horiz-adv-x="658" 
d="M353 103h-48v506h48v-506zM93 356l236 -236l236 236v-68l-236 -236l-236 236v68z" />
    <glyph glyph-name="uni2196" unicode="&#x2196;" horiz-adv-x="658" 
d="M112 520l35 35l418 -418l-34 -35zM475 526h-333v-334l-49 48v334h334z" />
    <glyph glyph-name="uni2197" unicode="&#x2197;" horiz-adv-x="658" 
d="M511 555l35 -35l-418 -418l-35 35zM517 192v334h-334l48 48h334v-334z" />
    <glyph glyph-name="uni2198" unicode="&#x2198;" horiz-adv-x="658" 
d="M546 156l-35 -35l-418 419l35 34zM183 151h334v333l48 -48v-334h-334z" />
    <glyph glyph-name="uni2199" unicode="&#x2199;" horiz-adv-x="658" 
d="M147 121l-35 35l419 418l34 -34zM142 484v-333h333l-48 -49h-334v334z" />
    <glyph glyph-name="minus" unicode="&#x2212;" horiz-adv-x="531" 
d="M70 311v44h392v-44h-392z" />
    <glyph glyph-name="uni2215" unicode="&#x2215;" horiz-adv-x="369" 
d="M25 -40l272 758h47l-272 -758h-47z" />
    <glyph glyph-name="uni2713" unicode="&#x2713;" horiz-adv-x="736" 
d="M255 93l-226 221l32 33l222 -220h-30l421 448l33 -33l-426 -449h-26z" />
    <glyph glyph-name="T_T" horiz-adv-x="1105" 
d="M293 0v663h52v-663h-52zM43 634v48h552v-48h-552zM760 0v663h53v-663h-53zM510 634v48h553v-48h-553z" />
    <glyph glyph-name="T_h" horiz-adv-x="1095" 
d="M293 0v663h52v-663h-52zM43 634v48h602v-48h-602zM980 0v276q0 68 -40 110t-106 42q-45 0 -79.5 -19.5t-54 -53.5t-19.5 -79l-27 15q0 53 25.5 94.5t68.5 65.5t98 24q54 0 96 -24.5t65 -68.5t23 -100v-282h-50zM630 0v682h51v-682h-51z" />
    <glyph glyph-name="T_l" horiz-adv-x="756" 
d="M293 0v663h52v-663h-52zM43 634v48h612v-48h-612zM630 0v682h51v-682h-51z" />
    <glyph glyph-name="ae.ss01" horiz-adv-x="922" 
d="M706 -10q-70 0 -124.5 32.5t-86.5 88t-32 123.5t32 122.5t86.5 86.5t122.5 32q59 0 106 -24t78 -66l-314 -314l-30 32l297 297l-1 -34q-22 29 -56 45.5t-79 16.5q-55 0 -98 -25.5t-68 -69t-25 -99.5t25 -100.5t68 -70t98 -25.5q49 0 84.5 14.5t63.5 43.5l33 -33
q-34 -36 -78.5 -54.5t-101.5 -18.5zM281 -10q-67 0 -120.5 32t-84.5 86.5t-31 123.5q0 68 31 123t84 87.5t119 32.5q54 0 96.5 -20.5t70 -57.5t35.5 -88v-152q-9 -51 -36.5 -88.5t-69 -58t-94.5 -20.5zM288 38q80 0 127.5 53.5t47.5 140.5q0 59 -21.5 102.5t-61.5 68
t-93 24.5q-55 0 -97.5 -25t-67 -69t-24.5 -100q0 -57 24.5 -101t67.5 -69t98 -25zM461 0v125l11 114l-11 113v113h51v-465h-51z" />
    <glyph glyph-name="e.ss01" horiz-adv-x="504" 
d="M288 -10q-70 0 -124.5 32.5t-86.5 88t-32 123.5t32 122.5t86.5 86.5t122.5 32q59 0 106 -24t78 -66l-314 -314l-30 32l297 297l-1 -34q-22 29 -56 45.5t-79 16.5q-55 0 -98 -25.5t-68 -69t-25 -99.5t25 -100.5t68 -70t98 -25.5q49 0 84.5 14.5t63.5 43.5l33 -33
q-34 -36 -78.5 -54.5t-101.5 -18.5z" />
    <glyph glyph-name="eacute.ss01" horiz-adv-x="504" 
d="M288 -10q-70 0 -124.5 32.5t-86.5 88t-32 123.5t32 122.5t86.5 86.5t122.5 32q59 0 106 -24t78 -66l-314 -314l-30 32l297 297l-1 -34q-22 29 -56 45.5t-79 16.5q-55 0 -98 -25.5t-68 -69t-25 -99.5t25 -100.5t68 -70t98 -25.5q49 0 84.5 14.5t63.5 43.5l33 -33
q-34 -36 -78.5 -54.5t-101.5 -18.5zM217 540l-22 22l135 157l41 -42z" />
    <glyph glyph-name="ecaron.ss01" horiz-adv-x="504" 
d="M288 -10q-70 0 -124.5 32.5t-86.5 88t-32 123.5t32 122.5t86.5 86.5t122.5 32q59 0 106 -24t78 -66l-314 -314l-30 32l297 297l-1 -34q-22 29 -56 45.5t-79 16.5q-55 0 -98 -25.5t-68 -69t-25 -99.5t25 -100.5t68 -70t98 -25.5q49 0 84.5 14.5t63.5 43.5l33 -33
q-34 -36 -78.5 -54.5t-101.5 -18.5zM419 716l22 -22l-136 -154h-44l-136 154l22 22l153 -137l-34 1z" />
    <glyph glyph-name="ecircumflex.ss01" horiz-adv-x="504" 
d="M288 -10q-70 0 -124.5 32.5t-86.5 88t-32 123.5t32 122.5t86.5 86.5t122.5 32q59 0 106 -24t78 -66l-314 -314l-30 32l297 297l-1 -34q-22 29 -56 45.5t-79 16.5q-55 0 -98 -25.5t-68 -69t-25 -99.5t25 -100.5t68 -70t98 -25.5q49 0 84.5 14.5t63.5 43.5l33 -33
q-34 -36 -78.5 -54.5t-101.5 -18.5zM147 540l-22 22l137 154h43l137 -154l-22 -22l-153 136h33z" />
    <glyph glyph-name="edieresis.ss01" horiz-adv-x="504" 
d="M288 -10q-70 0 -124.5 32.5t-86.5 88t-32 123.5t32 122.5t86.5 86.5t122.5 32q59 0 106 -24t78 -66l-314 -314l-30 32l297 297l-1 -34q-22 29 -56 45.5t-79 16.5q-55 0 -98 -25.5t-68 -69t-25 -99.5t25 -100.5t68 -70t98 -25.5q49 0 84.5 14.5t63.5 43.5l33 -33
q-34 -36 -78.5 -54.5t-101.5 -18.5zM193 548q-17 0 -28.5 12.5t-11.5 29.5t11.5 28.5t28.5 11.5t29 -11.5t12 -28.5t-12 -29.5t-29 -12.5zM373 548q-17 0 -28.5 12.5t-11.5 29.5t11.5 28.5t28.5 11.5t29 -11.5t12 -28.5t-12 -29.5t-29 -12.5z" />
    <glyph glyph-name="edotaccent.ss01" horiz-adv-x="504" 
d="M288 -10q-70 0 -124.5 32.5t-86.5 88t-32 123.5t32 122.5t86.5 86.5t122.5 32q59 0 106 -24t78 -66l-314 -314l-30 32l297 297l-1 -34q-22 29 -56 45.5t-79 16.5q-55 0 -98 -25.5t-68 -69t-25 -99.5t25 -100.5t68 -70t98 -25.5q49 0 84.5 14.5t63.5 43.5l33 -33
q-34 -36 -78.5 -54.5t-101.5 -18.5zM283 548q-17 0 -28.5 12.5t-11.5 29.5t11.5 28.5t28.5 11.5t29 -11.5t12 -28.5t-12 -29.5t-29 -12.5z" />
    <glyph glyph-name="egrave.ss01" horiz-adv-x="504" 
d="M288 -10q-70 0 -124.5 32.5t-86.5 88t-32 123.5t32 122.5t86.5 86.5t122.5 32q59 0 106 -24t78 -66l-314 -314l-30 32l297 297l-1 -34q-22 29 -56 45.5t-79 16.5q-55 0 -98 -25.5t-68 -69t-25 -99.5t25 -100.5t68 -70t98 -25.5q49 0 84.5 14.5t63.5 43.5l33 -33
q-34 -36 -78.5 -54.5t-101.5 -18.5zM322 538l-154 137l42 41l134 -156z" />
    <glyph glyph-name="emacron.ss01" horiz-adv-x="504" 
d="M288 -10q-70 0 -124.5 32.5t-86.5 88t-32 123.5t32 122.5t86.5 86.5t122.5 32q59 0 106 -24t78 -66l-314 -314l-30 32l297 297l-1 -34q-22 29 -56 45.5t-79 16.5q-55 0 -98 -25.5t-68 -69t-25 -99.5t25 -100.5t68 -70t98 -25.5q49 0 84.5 14.5t63.5 43.5l33 -33
q-34 -36 -78.5 -54.5t-101.5 -18.5zM120 610h327v-42h-327v42z" />
    <glyph glyph-name="eogonek.ss01" horiz-adv-x="504" 
d="M288 -10q-70 0 -124.5 32.5t-86.5 88t-32 123.5t32 122.5t86.5 86.5t122.5 32q59 0 106 -24t78 -66l-314 -314l-30 32l297 297l-1 -34q-22 29 -56 45.5t-79 16.5q-55 0 -98 -25.5t-68 -69t-25 -99.5t25 -100.5t68 -70t98 -25.5q49 0 84.5 14.5t63.5 43.5l33 -33
q-34 -36 -78.5 -54.5t-101.5 -18.5zM365 -197q-37 0 -63.5 21t-26.5 63q0 34 24.5 72t61.5 67l31 -16q-35 -30 -55.5 -58.5t-20.5 -60.5q0 -27 14.5 -40t39.5 -13q14 0 25 4.5t23 11.5l16 -28q-14 -11 -31 -17t-38 -6z" />
    <glyph glyph-name="g.ss01" horiz-adv-x="487" 
d="M238 -207q-60 0 -106.5 22.5t-73 61.5t-26.5 91q0 38 13 67t38 53l38 -30q-18 -16 -27.5 -37t-9.5 -48q0 -61 42 -96.5t111 -35.5q70 0 112.5 36.5t42.5 97.5q0 41 -20 73t-54.5 50.5t-78.5 18.5q-49 0 -90 23.5t-64.5 64t-23.5 90.5t24.5 91t66 65t91.5 24t91 -24
t65 -63.5t24 -88.5q0 -47 -23.5 -87t-63 -63.5t-87.5 -23.5l-8 29q60 0 105.5 -23t71.5 -63.5t26 -94.5q0 -53 -25.5 -94t-71.5 -63.5t-109 -22.5zM242 163q38 0 67.5 18t47 48t17.5 67t-17.5 67t-47 47.5t-67.5 17.5t-67.5 -17.5t-47 -47.5t-17.5 -67t17.5 -67t47.5 -48
t67 -18zM368 388l-29 30l101 102l30 -31z" />
    <glyph glyph-name="k.ss01" horiz-adv-x="459" 
d="M396 -11l-277 250l264 238l32 -34l-245 -219v33l261 -233zM75 0v702h51v-702h-51z" />
    <glyph glyph-name="uni0137.ss01" horiz-adv-x="459" 
d="M396 -11l-277 250l264 238l32 -34l-245 -219v33l261 -233zM75 0v702h51v-702h-51zM235 -282l-33 18l51 103l20 4q-3 -8 -9.5 -13.5t-16.5 -5.5q-17 0 -30.5 13t-13.5 33q0 21 14.5 35.5t35.5 14.5q19 0 34 -14.5t15 -35.5q0 -9 -2.5 -20.5t-12.5 -29.5z" />
    <glyph glyph-name="m.ss01" horiz-adv-x="829" 
d="M65 0v282q0 61 24.5 104t67 66t95.5 23q63 0 107.5 -32.5t60.5 -90.5h-12q17 59 62 91t107 32q54 0 96 -23t66.5 -66t24.5 -104v-282h-51v278q0 72 -38 111t-98 39q-61 0 -99 -39t-38 -111v-278h-51v278q0 72 -38 111t-99 39q-60 0 -98 -39t-38 -111v-278h-51z" />
    <glyph glyph-name="n.ss01" horiz-adv-x="523" 
d="M64 0v270q0 61 25 107t69.5 72t103.5 26t103.5 -26t69 -72t24.5 -107v-270h-51v267q0 71 -39 116t-107 45t-107.5 -45t-39.5 -116v-267h-51z" />
    <glyph glyph-name="nacute.ss01" horiz-adv-x="523" 
d="M64 0v270q0 61 25 107t69.5 72t103.5 26t103.5 -26t69 -72t24.5 -107v-270h-51v267q0 71 -39 116t-107 45t-107.5 -45t-39.5 -116v-267h-51zM196 540l-22 22l135 157l41 -42z" />
    <glyph glyph-name="ncaron.ss01" horiz-adv-x="523" 
d="M64 0v270q0 61 25 107t69.5 72t103.5 26t103.5 -26t69 -72t24.5 -107v-270h-51v267q0 71 -39 116t-107 45t-107.5 -45t-39.5 -116v-267h-51zM398 716l22 -22l-137 -154h-43l-137 154l23 22l152 -137l-33 1z" />
    <glyph glyph-name="uni0146.ss01" horiz-adv-x="523" 
d="M64 0v270q0 61 25 107t69.5 72t103.5 26t103.5 -26t69 -72t24.5 -107v-270h-51v267q0 71 -39 116t-107 45t-107.5 -45t-39.5 -116v-267h-51zM246 -282l-33 18l51 103l20 4q-3 -8 -9.5 -13.5t-16.5 -5.5q-17 0 -30.5 13t-13.5 33q0 21 14.5 35.5t35.5 14.5q19 0 34 -14.5
t15 -35.5q0 -9 -2.5 -20.5t-12.5 -29.5z" />
    <glyph glyph-name="ntilde.ss01" horiz-adv-x="523" 
d="M64 0v270q0 61 25 107t69.5 72t103.5 26t103.5 -26t69 -72t24.5 -107v-270h-51v267q0 71 -39 116t-107 45t-107.5 -45t-39.5 -116v-267h-51zM336 547q-31 0 -53 11t-42.5 22t-46.5 11q-27 0 -42 -10t-28 -28l-29 26q18 25 40.5 40.5t57.5 15.5q33 0 56 -11t43 -22t43 -11
q24 0 38.5 10t27.5 28l29 -27q-18 -24 -40.5 -39.5t-53.5 -15.5z" />
    <glyph glyph-name="eng.ss01" horiz-adv-x="523" 
d="M320 -207q-36 0 -65 12.5t-51 36.5l34 33q17 -18 37 -26.5t43 -8.5q38 0 64 22t26 70v265h51v-264q0 -46 -19.5 -77t-51 -47t-68.5 -16zM64 0v270q0 61 25 107t69.5 72t103.5 26t103.5 -26t69 -72t24.5 -107v-270h-51v267q0 71 -39 116t-107 45t-107.5 -45t-39.5 -116
v-267h-51z" />
    <glyph glyph-name="oe.ss01" horiz-adv-x="934" 
d="M286 -10q-68 0 -122.5 32.5t-86.5 88t-32 123.5t32 122.5t86.5 86.5t122.5 32q67 0 121.5 -32t86.5 -86.5t32 -122.5q0 -69 -32 -124t-86.5 -87.5t-121.5 -32.5zM286 38q53 0 95.5 26t67 70.5t24.5 100.5q0 55 -24.5 98t-67 68.5t-95.5 25.5q-54 0 -96.5 -25.5
t-67.5 -68.5t-25 -99t25 -100t67.5 -70t96.5 -26zM718 -10q-70 0 -124.5 32.5t-86.5 88t-32 123.5t32 122.5t86.5 86.5t122.5 32q59 0 106 -24t78 -66l-314 -314l-30 32l297 297l-1 -34q-22 29 -56 45.5t-79 16.5q-55 0 -98 -25.5t-68 -69t-25 -99.5t25 -100.5t68 -70
t98 -25.5q49 0 84.5 14.5t63.5 43.5l33 -33q-34 -36 -78.5 -54.5t-101.5 -18.5z" />
    <glyph glyph-name="t.ss01" horiz-adv-x="430" 
d="M285 -10q-40 0 -71 16.5t-48.5 48t-17.5 76.5v531h52v-527q0 -48 22 -73t64 -25q24 0 43.5 8.5t36.5 26.5l32 -33q-21 -24 -48.5 -36.5t-64.5 -12.5zM28 419v46h357v-46h-357z" />
    <glyph glyph-name="tcaron.ss01" horiz-adv-x="430" 
d="M285 -10q-40 0 -71 16.5t-48.5 48t-17.5 76.5v531h52v-527q0 -48 22 -73t64 -25q24 0 43.5 8.5t36.5 26.5l32 -33q-21 -24 -48.5 -36.5t-64.5 -12.5zM28 419v46h357v-46h-357zM280 498l-33 18l52 103l19 4q-3 -8 -9.5 -13.5t-16.5 -5.5q-17 0 -30.5 13.5t-13.5 32.5
q0 21 15 35.5t35 14.5t34.5 -14.5t14.5 -35.5q0 -8 -2.5 -19.5t-11.5 -30.5z" />
    <glyph glyph-name="uni021B.ss01" horiz-adv-x="430" 
d="M285 -10q-40 0 -71 16.5t-48.5 48t-17.5 76.5v531h52v-527q0 -48 22 -73t64 -25q24 0 43.5 8.5t36.5 26.5l32 -33q-21 -24 -48.5 -36.5t-64.5 -12.5zM28 419v46h357v-46h-357zM230 -282l-33 18l51 103l20 4q-3 -8 -9.5 -13.5t-16.5 -5.5q-17 0 -30.5 13t-13.5 33
q0 21 14.5 35.5t35.5 14.5q19 0 34 -14.5t15 -35.5q0 -9 -2.5 -20.5t-12.5 -29.5z" />
    <glyph glyph-name="f_t" horiz-adv-x="615" 
d="M147 0v553q0 47 19.5 82.5t55.5 55.5t82 20l-1 -46q-50 0 -77.5 -31t-27.5 -84v-550h-51zM26 420v45h561v-45h-561zM416 0v662h51v-662h-51z" />
    <glyph glyph-name="r_f" horiz-adv-x="677" 
d="M75 0v465h51v-465h-51zM433 0v553q0 47 20.5 82.5t55.5 55.5t81 20q35 0 63 -12t50 -35l-34 -34q-17 18 -36.5 26.5t-43.5 8.5q-50 0 -77.5 -31t-27.5 -84v-550h-51zM126 270l-25 9q0 89 48.5 137.5t141.5 48.5h356v-45h-364q-78 0 -117.5 -38.5t-39.5 -111.5z" />
    <glyph glyph-name="r_t" horiz-adv-x="633" 
d="M75 0v465h51v-465h-51zM126 270l-25 9q0 89 48.5 137.5t141.5 48.5h314v-45h-322q-78 0 -117.5 -38.5t-39.5 -111.5zM434 0v662h51v-662h-51z" />
    <glyph glyph-name="t_f" horiz-adv-x="661" 
d="M148 0v662h52v-662h-52zM28 420v45h604v-45h-604zM417 0v553q0 47 20.5 82.5t56 55.5t80.5 20q35 0 63 -12t50 -35l-33 -34q-18 18 -37.5 26.5t-42.5 8.5q-50 0 -77.5 -31t-27.5 -84v-550h-52z" />
    <glyph glyph-name="one.ss01" horiz-adv-x="332" 
d="M188 0v641l18 41h33v-682h-51zM72 485l-30 30l164 167l-6 -65z" />
    <glyph glyph-name="zero.tf" horiz-adv-x="590" 
d="M296 -10q-72 0 -130.5 43.5t-94 122.5t-35.5 186q0 108 35 186t93.5 121t130.5 43t130.5 -43t93.5 -121.5t35 -186.5q0 -107 -35 -186t-93 -122t-130 -43zM295 40q59 0 105.5 35.5t73.5 103.5t27 163t-27 162t-73.5 103t-105.5 36t-105.5 -36t-73.5 -103t-27 -162
t27 -163t74 -103.5t105 -35.5z" />
    <glyph glyph-name="one.tf" horiz-adv-x="590" 
d="M294 0v682h51v-682h-51zM86 635v47h244v-47h-244zM86 0v47h428v-47h-428z" />
    <glyph glyph-name="two.tf" horiz-adv-x="590" 
d="M62 34l261 262q52 52 79.5 86.5t38 62.5t10.5 59q0 65 -42 102t-112 37q-61 0 -106.5 -26.5t-81.5 -80.5l-38 34q41 60 97 91t130 31q62 0 108 -23.5t71.5 -65.5t25.5 -100q0 -40 -12 -73t-41 -71t-84 -92l-233 -230zM62 0v34l40 13h420v-47h-460z" />
    <glyph glyph-name="three.tf" horiz-adv-x="590" 
d="M278 -10q-67 0 -122.5 26t-93.5 75l35 35q29 -41 76 -64t104 -23q55 0 96 20.5t64.5 58t23.5 86.5q0 51 -23.5 88.5t-65.5 58t-98 20.5q-17 0 -34.5 -2t-36.5 -7l17 28q14 11 33.5 15.5t44.5 4.5q62 0 110.5 -26.5t77 -73.5t28.5 -107q0 -63 -30.5 -111t-83.5 -75
t-122 -27zM203 362v33l243 259l60 -5l-247 -261zM91 635v47h415v-33l-47 -14h-368z" />
    <glyph glyph-name="four.tf" horiz-adv-x="590" 
d="M42 217l259 465h58l-262 -465h-55zM42 183v34l22 13h485v-47h-507zM393 0v460h52v-460h-52z" />
    <glyph glyph-name="five.tf" horiz-adv-x="590" 
d="M277 -10q-67 0 -121.5 25.5t-92.5 75.5l35 35q29 -41 74.5 -64t103.5 -23q55 0 97 21t66 59.5t24 89.5q0 53 -23 91.5t-64 60t-93 21.5q-45 0 -84.5 -13t-69.5 -38l-4 35q20 21 45 33.5t54.5 19t63.5 6.5q70 0 120.5 -28t79 -77.5t28.5 -112.5t-31 -112t-85 -77t-123 -28
zM129 331l-27 28l31 323h49l-33 -326zM151 635l-18 47h355v-47h-337z" />
    <glyph glyph-name="six.tf" horiz-adv-x="590" 
d="M294 -10q-65 0 -118 30.5t-84 82.5t-31 116q0 85 58 161l233 302h62l-221 -282l-18 -2q16 15 35.5 26t43.5 17t51 6q62 0 113 -30.5t81.5 -81t30.5 -114.5q0 -63 -32 -116t-85 -84t-119 -31zM295 37q50 0 91.5 25.5t66 67t24.5 91.5t-24.5 92t-66 66.5t-91.5 24.5
t-91.5 -24t-66 -65.5t-24.5 -93.5q0 -51 24.5 -93t66 -66.5t91.5 -24.5z" />
    <glyph glyph-name="seven.tf" horiz-adv-x="590" 
d="M197 0l280 656l49 -8l-274 -648h-55zM61 635v47h465v-34l-23 -13h-442z" />
    <glyph glyph-name="eight.tf" horiz-adv-x="590" 
d="M295 -10q-66 0 -117.5 26t-81 71t-29.5 102q0 45 18.5 83.5t52.5 65.5t79 37l13 -16q-40 11 -69 34.5t-45 56.5t-16 71q0 50 25.5 88.5t69.5 60.5t100 22t100 -22t69.5 -60.5t25.5 -88.5q0 -38 -16 -71t-44.5 -56.5t-69.5 -34.5l13 16q45 -10 79 -37t52.5 -65.5
t18.5 -83.5q0 -57 -29.5 -102t-81 -71t-117.5 -26zM295 36q52 0 91.5 20t62.5 55.5t23 81.5q0 45 -23 80t-62.5 55t-91.5 20q-51 0 -91 -20t-63 -55t-23 -80q0 -46 23 -81.5t62.5 -55.5t91.5 -20zM295 388q63 0 103.5 36t40.5 95q0 57 -40.5 93t-103.5 36t-103.5 -36
t-40.5 -93q0 -59 40.5 -95t103.5 -36z" />
    <glyph glyph-name="nine.tf" horiz-adv-x="590" 
d="M176 0l222 282l18 2q-16 -15 -36 -26t-43.5 -17t-51.5 -6q-61 0 -112.5 30.5t-82 82t-30.5 113.5q0 64 32 116.5t85.5 83.5t118.5 31q66 0 118.5 -30.5t84 -82.5t31.5 -116q0 -84 -59 -161l-232 -302h-63zM295 278q51 0 92 24.5t65.5 66t24.5 92.5q0 52 -24.5 93.5
t-65.5 66t-92 24.5q-50 0 -91 -25t-66 -66.5t-25 -92.5q0 -50 25 -91.5t66 -66.5t91 -25z" />
    <glyph glyph-name="ampersand.ss01" horiz-adv-x="616" 
d="M296 -10q-72 0 -125 25.5t-81.5 70.5t-28.5 103q0 69 40.5 119.5t113.5 69.5l11 -17q-36 5 -66 27t-48.5 56.5t-18.5 76.5q0 49 24.5 87.5t69.5 61t105 22.5q65 0 110 -27.5t71 -68.5l-35 -33q-24 36 -59 59.5t-86 23.5q-72 0 -110.5 -36.5t-38.5 -92.5q0 -33 16 -62.5
t44 -47.5t65 -18v-42q-43 0 -78.5 -19.5t-57 -54.5t-21.5 -82q0 -45 23.5 -80t65 -55t95.5 -20q55 0 96 20t64.5 55t23.5 80t-19.5 78.5t-50.5 52.5t-68 20l40 35q47 -13 80.5 -40t51 -64.5t17.5 -83.5q0 -58 -29 -103t-82 -70.5t-124 -25.5zM342 342v47h243v-47h-243z" />
    <glyph glyph-name="uni030C.alt" 
d="M122 263l-33 18l52 103l19 4q-3 -8 -9.5 -13.5t-16.5 -5.5q-17 0 -30.5 13.5t-13.5 32.5q0 21 15 35.5t35 14.5t34.5 -14.5t14.5 -35.5q0 -8 -2.5 -19.5t-11.5 -30.5z" />
    </font>
</defs>
</svg>
