<?xml version="1.0" standalone="no"?>
<!DOCTYPE svg PUBLIC "-//W3C//DTD SVG 1.1//EN" "http://www.w3.org/Graphics/SVG/1.1/DTD/svg11.dtd" >
<svg xmlns="http://www.w3.org/2000/svg" xmlns:xlink="http://www.w3.org/1999/xlink" version="1.1">
<metadata>
Created by FontForge 20201107 at Fri Mar 17 16:10:02 2023
 By 
Copyright 2021 The Outfit Project Authors (https://github.com/Outfitio/Outfit-Fonts)
</metadata>
<defs>
<font id="Outfit-Bold" horiz-adv-x="0" >
  <font-face 
    font-family="Outfit"
    font-weight="700"
    font-stretch="normal"
    units-per-em="1000"
    panose-1="0 0 0 0 0 0 0 0 0 0"
    ascent="800"
    descent="-200"
    x-height="486"
    cap-height="706"
    bbox="-129 -397 3823 1015"
    underline-thickness="50"
    underline-position="-125"
    unicode-range="U+000D-FB02"
  />
<missing-glyph horiz-adv-x="677" 
d="M67 0v706h542v-706h-542zM185 118h307v471h-307v-471zM208 429l55 55l206 -205l-56 -56zM418 490l56 -57l-215 -215l-56 57z" />
    <glyph glyph-name="fi" unicode="fi" horiz-adv-x="640" 
d="M116 0v538q0 56 25 101t70.5 71.5t108.5 26.5q34 0 62 -9t54 -29l-76 -112q-10 7 -19.5 10t-20.5 3q-25 0 -38 -14.5t-13 -39.5v-546h-153zM9 356v130h489v-130h-489zM434 0v486h153v-486h-153zM511 521q-34 0 -56.5 23.5t-22.5 57.5t22.5 57t56.5 23q35 0 57 -23t22 -57
t-22 -57.5t-57 -23.5z" />
    <glyph glyph-name="fl" unicode="fl" horiz-adv-x="631" 
d="M116 0v523q0 58 26.5 106.5t77 78t120.5 29.5v-137q-33 0 -52 -21t-19 -51v-528h-153zM9 356v130h481v-130h-481zM424 0v726h153v-726h-153z" />
    <glyph glyph-name="f_f" unicode="ff" horiz-adv-x="744" 
d="M116 0v507q0 63 26.5 112.5t76.5 78.5t118 29t114 -27.5t68.5 -72t22.5 -95.5l-118 -15q0 37 -20 58t-57 21q-38 0 -58 -20.5t-20 -57.5v-518h-153zM9 356v130h708v-130h-708zM424 0v527q0 60 26.5 107.5t74.5 75t114 27.5q50 0 87.5 -16.5t65.5 -45.5l-96 -96
q-10 10 -22.5 15.5t-29.5 5.5q-31 0 -49 -18t-18 -49v-533h-153z" />
    <glyph glyph-name="f_j" unicode="fj" horiz-adv-x="639" 
d="M116 0v538q0 56 25 101t70.5 71.5t108.5 26.5q34 0 62 -9t54 -29l-76 -112q-10 7 -19.5 10t-20.5 3q-25 0 -38 -14.5t-13 -39.5v-546h-153zM9 356v130h489v-130h-489zM394 -218q-53 0 -90 17.5t-65 49.5l95 95q11 -13 22.5 -18.5t26.5 -5.5q22 0 36.5 13t14.5 40v513h153
v-511q0 -59 -25 -102t-68.5 -67t-99.5 -24zM511 521q-34 0 -56.5 23.5t-22.5 57.5t22.5 57t56.5 23q35 0 57 -23t22 -57t-22 -57.5t-57 -23.5z" />
    <glyph glyph-name="o_u_t_f_i_t" unicode="outfit" horiz-adv-x="2440" 
d="M288 -11q-75 0 -135.5 33.5t-95.5 91.5t-35 130t35 129t95 90.5t136 33.5t136 -33t95 -90.5t35 -129.5t-35 -130t-95 -91.5t-136 -33.5zM288 128q33 0 58 14.5t38.5 41t13.5 60.5t-14 59.5t-38.5 40t-57.5 14.5q-32 0 -57 -14.5t-39 -40.5t-14 -60q0 -33 14 -59.5t39 -41
t57 -14.5zM845 -11q-66 0 -117.5 27.5t-81 76.5t-29.5 112v281h153v-280q0 -25 9 -43t26 -28t40 -10q35 0 55 21.5t20 59.5v280h153v-281q0 -64 -29 -112.5t-80.5 -76t-118.5 -27.5zM1008 356v130h1419v-130h-1419zM1215 0v687h153v-687h-153zM1523 0v538q0 56 25 101
t70.5 71.5t108.5 26.5q34 0 62 -9t54 -29l-76 -112q-10 7 -19.5 10t-20.5 3q-25 0 -38 -14.5t-13 -39.5v-546h-153zM1841 0v486h153v-486h-153zM1918 520q-34 0 -56 23t-22 56t22 56t56 23t55.5 -23t21.5 -56t-21.5 -56t-55.5 -23zM2149 0v687h153v-687h-153z" />
    <glyph glyph-name="o_u_t_f_i_t_t_e_d" unicode="outfitted" horiz-adv-x="3877" 
d="M288 -11q-75 0 -135.5 33.5t-95.5 91.5t-35 130t35 129t95 90.5t136 33.5t136 -33t95 -90.5t35 -129.5t-35 -130t-95 -91.5t-136 -33.5zM288 128q33 0 58 14.5t38.5 41t13.5 60.5t-14 59.5t-38.5 40t-57.5 14.5q-32 0 -57 -14.5t-39 -40.5t-14 -60q0 -33 14 -59.5t39 -41
t57 -14.5zM845 -11q-66 0 -117.5 27.5t-81 76.5t-29.5 112v281h153v-280q0 -25 9 -43t26 -28t40 -10q35 0 55 21.5t20 59.5v280h153v-281q0 -64 -29 -112.5t-80.5 -76t-118.5 -27.5zM1215 0v687h153v-687h-153zM1523 0v538q0 56 25 101t70.5 71.5t108.5 26.5q34 0 62 -9
t54 -29l-76 -112q-10 7 -19.5 10t-20.5 3q-25 0 -38 -14.5t-13 -39.5v-546h-153zM1841 0v486h153v-486h-153zM1008 356v130h1727v-130h-1727zM1918 520q-34 0 -56 23t-22 56t22 56t56 23t55.5 -23t21.5 -56t-21.5 -56t-55.5 -23zM2149 0v687h153v-687h-153zM2457 0v687h153
v-687h-153zM3028 -11q-79 0 -140.5 32.5t-96.5 90.5t-35 131t34.5 130.5t93.5 90.5t133 33q72 0 127 -31t86.5 -86t31.5 -126q0 -13 -1.5 -27.5t-5.5 -33.5l-419 -1v105l354 1l-66 -44q-1 42 -13 69.5t-35.5 42t-57.5 14.5q-36 0 -62.5 -16.5t-41 -46.5t-14.5 -73
t15.5 -73.5t44 -47t67.5 -16.5q36 0 65 12.5t51 37.5l84 -84q-36 -42 -87 -63t-112 -21zM3543 -10q-69 0 -122.5 33t-84 90t-30.5 130t30.5 130t84 90t122.5 33q49 0 90 -19t67 -52.5t30 -76.5v-205q-4 -43 -30 -77.5t-67 -55t-90 -20.5zM3570 128q33 0 57 14.5t38 40.5
t14 60t-13.5 60t-38 40.5t-57.5 14.5q-32 0 -56.5 -14.5t-38.5 -40.5t-14 -60q0 -33 14 -59t38.5 -41t56.5 -15zM3672 0v131l23 118l-25 118v359h153v-726h-151z" />
    <glyph glyph-name="o_u_t_f_i_t_t_e_r" unicode="outfitter" horiz-adv-x="3725" 
d="M288 -11q-75 0 -135.5 33.5t-95.5 91.5t-35 130t35 129t95 90.5t136 33.5t136 -33t95 -90.5t35 -129.5t-35 -130t-95 -91.5t-136 -33.5zM288 128q33 0 58 14.5t38.5 41t13.5 60.5t-14 59.5t-38.5 40t-57.5 14.5q-32 0 -57 -14.5t-39 -40.5t-14 -60q0 -33 14 -59.5t39 -41
t57 -14.5zM845 -11q-66 0 -117.5 27.5t-81 76.5t-29.5 112v281h153v-280q0 -25 9 -43t26 -28t40 -10q35 0 55 21.5t20 59.5v280h153v-281q0 -64 -29 -112.5t-80.5 -76t-118.5 -27.5zM1215 0v687h153v-687h-153zM1523 0v538q0 56 25 101t70.5 71.5t108.5 26.5q34 0 62 -9
t54 -29l-76 -112q-10 7 -19.5 10t-20.5 3q-25 0 -38 -14.5t-13 -39.5v-546h-153zM1841 0v486h153v-486h-153zM1008 356v130h1727v-130h-1727zM1918 520q-34 0 -56 23t-22 56t22 56t56 23t55.5 -23t21.5 -56t-21.5 -56t-55.5 -23zM2149 0v687h153v-687h-153zM2457 0v687h153
v-687h-153zM3028 -11q-79 0 -140.5 32.5t-96.5 90.5t-35 131t34.5 130.5t93.5 90.5t133 33q72 0 127 -31t86.5 -86t31.5 -126q0 -13 -1.5 -27.5t-5.5 -33.5l-419 -1v105l354 1l-66 -44q-1 42 -13 69.5t-35.5 42t-57.5 14.5q-36 0 -62.5 -16.5t-41 -46.5t-14.5 -73
t15.5 -73.5t44 -47t67.5 -16.5q36 0 65 12.5t51 37.5l84 -84q-36 -42 -87 -63t-112 -21zM3336 0v486h153v-486h-153zM3489 267l-65 50q19 85 64.5 132t124.5 47q35 0 62 -10.5t47 -32.5l-91 -115q-10 11 -25 17t-34 6q-38 0 -60.5 -23.5t-22.5 -70.5z" />
    <glyph glyph-name="t_t" unicode="tt" horiz-adv-x="707" 
d="M123 0v687h153v-687h-153zM13 356v130h681v-130h-681zM431 0v687h153v-687h-153z" />
    <glyph glyph-name=".notdef" horiz-adv-x="677" 
d="M67 0v706h542v-706h-542zM185 118h307v471h-307v-471zM208 429l55 55l206 -205l-56 -56zM418 490l56 -57l-215 -215l-56 57z" />
    <glyph glyph-name=".null" 
 />
    <glyph glyph-name="nonmarkingreturn" horiz-adv-x="333" 
 />
    <glyph glyph-name="CR" unicode="&#xd;" horiz-adv-x="600" 
 />
    <glyph glyph-name="space" unicode=" " horiz-adv-x="190" 
 />
    <glyph glyph-name="exclam" unicode="!" horiz-adv-x="286" 
d="M84 258l-25 468h165l-25 -468h-115zM141 -11q-39 0 -65 27t-26 65q0 40 26 66.5t65 26.5q40 0 65.5 -26.5t25.5 -66.5q0 -38 -25.5 -65t-65.5 -27z" />
    <glyph glyph-name="quotedbl" unicode="&#x22;" horiz-adv-x="456" 
d="M284 429l-28 297h148l-28 -297h-92zM81 429l-28 297h148l-29 -297h-91z" />
    <glyph glyph-name="numbersign" unicode="#" horiz-adv-x="662" 
d="M320 0l117 706h125l-118 -706h-124zM35 202v109h559v-109h-559zM95 0l117 706h124l-117 -706h-124zM69 411v108h558v-108h-558z" />
    <glyph glyph-name="dollar" unicode="$" horiz-adv-x="603" 
d="M290 -11q-82 0 -143 28.5t-111 86.5l99 101q33 -40 73 -62.5t92 -22.5q49 0 76 18.5t27 52.5q0 29 -17.5 47t-46.5 31t-64 25t-69.5 27.5t-63.5 39t-47 59t-18 89.5q0 65 31.5 112t86.5 71.5t126 24.5q69 0 129 -26t98 -71l-99 -101q-31 33 -62.5 50.5t-68.5 17.5
q-43 0 -67 -16t-24 -47q0 -27 18 -43.5t47.5 -28.5t64 -24t69.5 -28t64.5 -40.5t47.5 -62t18 -92.5q0 -101 -70.5 -158.5t-195.5 -57.5zM257 -101v908h110v-908h-110z" />
    <glyph glyph-name="percent" unicode="%" horiz-adv-x="685" 
d="M61 0l423 706h140l-423 -706h-140zM503 -10q-41 0 -74.5 20t-53.5 53.5t-20 74.5q0 42 20 74.5t53 52.5t74 20q43 0 76.5 -20t53.5 -52.5t20 -74.5q0 -41 -20 -75t-53.5 -53.5t-75.5 -19.5zM503 94q19 0 31 12t12 32q0 18 -12 30.5t-31 12.5q-18 0 -30 -12.5t-12 -30.5
q0 -20 12 -32t30 -12zM181 422q-41 0 -74.5 19.5t-53.5 53t-20 75.5q0 41 20 74t53 52.5t74 19.5q43 0 76.5 -19.5t53.5 -52.5t20 -74q0 -42 -20 -75.5t-53.5 -53t-75.5 -19.5zM181 526q19 0 31 12t12 31t-12 31t-31 12q-18 0 -30 -12t-12 -31t12 -31t30 -12z" />
    <glyph glyph-name="ampersand" unicode="&#x26;" horiz-adv-x="691" 
d="M509 0l-324 356q-38 42 -55 79.5t-17 82.5q0 54 27.5 99.5t75 73t110.5 27.5q49 0 87 -14.5t66 -37t43 -47.5l-102 -97q-20 27 -41.5 41t-50.5 14q-30 0 -49.5 -17.5t-19.5 -43.5q0 -22 9.5 -39t27.5 -38l392 -439h-179zM277 -11q-72 0 -125.5 28.5t-83 78t-29.5 110.5
q0 66 35 117.5t105 83.5l65 -99q-30 -14 -45 -37t-15 -55q0 -26 11.5 -45.5t33.5 -30.5t52 -11q34 0 58.5 14.5t41.5 40.5l103 -106q-17 -22 -48.5 -42.5t-72 -33.5t-86.5 -13z" />
    <glyph glyph-name="quotesingle" unicode="'" horiz-adv-x="250" 
d="M79 429l-28 297h148l-28 -297h-92z" />
    <glyph glyph-name="parenleft" unicode="(" horiz-adv-x="310" 
d="M211 -127q-57 49 -97 118t-61 151t-21 172t21 172t61 151t97 118l84 -81q-64 -62 -98 -153t-34 -207q0 -115 34 -206.5t98 -154.5z" />
    <glyph glyph-name="parenright" unicode=")" horiz-adv-x="310" 
d="M99 -127l-84 80q64 63 98 154.5t34 206.5q0 116 -34 207t-98 153l84 81q57 -49 97 -118t61 -151t21 -172t-21 -172t-61 -151t-97 -118z" />
    <glyph glyph-name="asterisk" unicode="*" horiz-adv-x="490" 
d="M212 310l-1 157l-123 -89l-56 109l143 49l-119 88l87 88l87 -121l48 145l110 -57l-89 -125l154 -1l-20 -122l-145 48l47 -149z" />
    <glyph glyph-name="plus" unicode="+" horiz-adv-x="563" 
d="M49 271v127h465v-127h-465zM217 579h130v-487h-130v487z" />
    <glyph glyph-name="comma" unicode="," horiz-adv-x="283" 
d="M54 -120l73 136l45 13q-7 -15 -17 -24.5t-23 -9.5q-29 0 -53 24t-24 60q0 39 26.5 67t65.5 28q37 0 64.5 -27.5t27.5 -67.5q0 -16 -6 -37t-24 -55l-81 -148z" />
    <glyph glyph-name="hyphen" unicode="-" horiz-adv-x="462" 
d="M54 188v134h354v-134h-354z" />
    <glyph glyph-name="period" unicode="." horiz-adv-x="300" 
d="M150 -11q-39 0 -65 27t-26 65q0 40 26 66.5t65 26.5q40 0 65.5 -26.5t25.5 -66.5q0 -38 -25.5 -65t-65.5 -27z" />
    <glyph glyph-name="slash" unicode="/" horiz-adv-x="384" 
d="M3 -55l245 810h133l-245 -810h-133z" />
    <glyph glyph-name="zero" unicode="0" horiz-adv-x="666" 
d="M334 -11q-85 0 -154 46t-108.5 128.5t-39.5 190.5q0 109 39 190.5t107 127t154 45.5q87 0 155 -45.5t107.5 -127.5t39.5 -191t-39.5 -191t-107 -127.5t-153.5 -45.5zM333 128q44 0 76 25.5t49.5 76t17.5 123.5q0 74 -17.5 124t-49.5 75.5t-77 25.5q-43 0 -75.5 -25
t-49.5 -75t-17 -124t17 -124t49.5 -76t76.5 -26z" />
    <glyph glyph-name="one" unicode="1" horiz-adv-x="378" 
d="M156 0v706h156v-706h-156zM20 573v133h282v-133h-282z" />
    <glyph glyph-name="two" unicode="2" horiz-adv-x="564" 
d="M24 88l271 280q25 25 40 46t22 39.5t7 37.5q0 41 -26.5 64.5t-69.5 23.5q-42 0 -75.5 -22.5t-64.5 -73.5l-105 91q42 71 107 107t149 36q73 0 126.5 -27t83 -77t29.5 -117q0 -42 -11 -77.5t-35.5 -70t-65.5 -75.5l-188 -187zM24 0v88l133 46h375v-134h-508z" />
    <glyph glyph-name="three" unicode="3" horiz-adv-x="559" 
d="M253 -11q-73 0 -134 25.5t-103 73.5l101 101q19 -28 55.5 -45.5t77.5 -17.5q37 0 64 13t42.5 37t15.5 57t-15.5 56.5t-45 36.5t-70.5 13q-19 0 -39.5 -2.5t-34.5 -7.5l69 87q28 8 53.5 13.5t47.5 5.5q54 0 97 -25.5t68.5 -72t25.5 -110.5q0 -70 -34.5 -124t-96 -84
t-144.5 -30zM167 329v87l172 202l176 1l-179 -204zM60 573v133h455v-87l-123 -46h-332z" />
    <glyph glyph-name="four" unicode="4" horiz-adv-x="609" 
d="M21 245l232 461h171l-237 -461h-166zM21 157v88l52 45h514v-133h-566zM354 0v437h154v-437h-154z" />
    <glyph glyph-name="five" unicode="5" horiz-adv-x="560" 
d="M254 -11q-73 0 -136.5 25.5t-105.5 73.5l102 101q19 -28 55.5 -45.5t79.5 -17.5q38 0 66 13.5t44 39t16 59.5q0 35 -16 60t-44.5 38.5t-64.5 13.5t-66 -9.5t-55 -28.5l13 100q23 18 44 29.5t46 17.5t59 6q78 0 131.5 -32t81 -85t27.5 -117q0 -70 -34.5 -125t-96.5 -86
t-146 -31zM129 312l-68 63l34 331h142l-37 -328zM116 573l-21 133h397v-133h-376z" />
    <glyph glyph-name="six" unicode="6" horiz-adv-x="573" 
d="M287 -11q-74 0 -133.5 33t-94 88.5t-34.5 124.5q0 90 63 182l199 289h177l-221 -308l-59 -5q14 24 29.5 41.5t39.5 27t61 9.5q66 0 118.5 -30.5t84.5 -83t32 -120.5q0 -69 -35 -125.5t-94 -89.5t-133 -33zM287 126q31 0 56 15t39 41t14 58q0 33 -14 58.5t-39 40t-56 14.5
q-32 0 -56.5 -14.5t-38.5 -40t-14 -58.5q0 -32 14 -58t38.5 -41t56.5 -15z" />
    <glyph glyph-name="seven" unicode="7" horiz-adv-x="527" 
d="M114 0l240 618h153l-231 -618h-162zM20 573v133h487v-88l-52 -45h-435z" />
    <glyph glyph-name="eight" unicode="8" horiz-adv-x="562" 
d="M281 -11q-76 0 -132.5 27t-88 74t-31.5 107q0 50 19.5 90t55 67t82.5 37l-3 -32q-40 9 -68 33.5t-43 59.5t-15 73q0 56 28.5 99.5t79.5 68.5t116 25q66 0 116.5 -25t79 -68.5t28.5 -99.5q0 -38 -14.5 -73t-42.5 -59.5t-68 -33.5l-4 32q48 -10 83.5 -37t54.5 -67t19 -90
q0 -60 -31 -107t-87.5 -74t-133.5 -27zM281 123q30 0 53 12.5t36.5 34.5t13.5 49q0 28 -13.5 49.5t-36.5 34t-53 12.5t-53 -12.5t-36 -34t-13 -49.5q0 -27 13 -49t36 -34.5t53 -12.5zM281 429q35 0 57.5 22.5t22.5 56.5q0 35 -22.5 57.5t-57.5 22.5q-34 0 -57 -22t-23 -57
q0 -34 23 -57t57 -23z" />
    <glyph glyph-name="nine" unicode="9" horiz-adv-x="573" 
d="M109 0l222 309l58 4q-13 -23 -28.5 -40.5t-39 -27t-62.5 -9.5q-64 0 -117.5 30.5t-85 83t-31.5 119.5q0 70 35 126t94 89t133 33t133 -32.5t93.5 -88t34.5 -125.5q0 -90 -62 -181l-199 -290h-178zM287 353q31 0 56 15t39 40.5t14 57.5q0 33 -14 59t-39 40.5t-56 14.5
q-32 0 -56.5 -14.5t-39 -40.5t-14.5 -59q0 -32 14.5 -57.5t39.5 -40.5t56 -15z" />
    <glyph glyph-name="colon" unicode=":" horiz-adv-x="290" 
d="M145 -11q-39 0 -65 27t-26 65q0 40 26 66.5t65 26.5q40 0 65.5 -26.5t25.5 -66.5q0 -38 -25.5 -65t-65.5 -27zM145 285q-39 0 -65 27t-26 65q0 40 26 66.5t65 26.5q40 0 65.5 -26.5t25.5 -66.5q0 -38 -25.5 -65t-65.5 -27z" />
    <glyph glyph-name="semicolon" unicode=";" horiz-adv-x="280" 
d="M50 -120l73 136l46 13q-8 -15 -18 -24.5t-23 -9.5q-28 0 -52 24t-24 60q0 39 26.5 67t65.5 28q37 0 64.5 -27.5t27.5 -67.5q0 -16 -6.5 -37t-24.5 -55l-80 -148zM142 285q-40 0 -65.5 27t-25.5 65q0 40 25.5 66.5t65.5 26.5q39 0 64.5 -26.5t25.5 -66.5q0 -38 -25.5 -65
t-64.5 -27z" />
    <glyph glyph-name="less" unicode="&#x3c;" horiz-adv-x="563" 
d="M515 87l-467 196v105l467 196v-139l-354 -140v60l354 -140v-138z" />
    <glyph glyph-name="equal" unicode="=" horiz-adv-x="563" 
d="M49 389v127h465v-127h-465zM49 149v127h465v-127h-465z" />
    <glyph glyph-name="greater" unicode="&#x3e;" horiz-adv-x="563" 
d="M48 445v139l467 -196v-105l-467 -196v138l355 140v-60z" />
    <glyph glyph-name="question" unicode="?" horiz-adv-x="499" 
d="M200 255l-8 192h43q25 0 43.5 9t29 25.5t10.5 39.5q0 22 -10 38.5t-28 25t-42 8.5q-37 0 -67.5 -21.5t-49.5 -58.5l-98 92q30 59 87 95.5t135 36.5q65 0 115 -27t78 -73.5t28 -104.5q0 -59 -24 -101t-65 -68.5t-93 -37.5l45 59l-9 -129h-120zM260 -11q-40 0 -65.5 27
t-25.5 65q0 40 25.5 66.5t65.5 26.5q39 0 64.5 -26.5t25.5 -66.5q0 -38 -25.5 -65t-64.5 -27z" />
    <glyph glyph-name="at" unicode="@" horiz-adv-x="756" 
d="M382 -111q-72 0 -134.5 26t-109.5 71.5t-73.5 107.5t-26.5 134t27 134t74.5 108t111.5 72t137 26q98 0 172 -42.5t116 -117t42 -173.5q0 -47 -9.5 -85t-29.5 -69l-116 2q16 19 26 43t15 52.5t5 60.5q0 73 -26.5 123t-75 75.5t-116.5 25.5q-70 0 -123.5 -28t-83.5 -80.5
t-30 -127.5q0 -73 28.5 -125t80 -80t118.5 -28q47 0 84.5 13t68.5 38l73 -75q-45 -40 -102.5 -60.5t-122.5 -20.5zM362 77q-38 0 -71 20t-53 54.5t-20 76.5q0 43 20 78t53 55.5t71 20.5q47 0 75.5 -21.5t28.5 -72.5v-119q0 -49 -28 -70.5t-76 -21.5zM369 170q26 0 40.5 17
t14.5 42t-14.5 41.5t-40.5 16.5q-24 0 -39 -16.5t-15 -41.5q0 -26 15 -42.5t39 -16.5zM485 81v86h194v-86h-194zM437 81v80l12 71l-12 71v71h94v-293h-94z" />
    <glyph glyph-name="A" unicode="A" horiz-adv-x="729" 
d="M15 0l280 706h142l277 -706h-166l-212 586h57l-215 -586h-163zM174 128v128h385v-128h-385z" />
    <glyph glyph-name="B" unicode="B" horiz-adv-x="641" 
d="M188 0v122h166q46 0 72 27t26 66q0 27 -12 48t-33.5 33t-52.5 12h-166v119h153q39 0 63 19.5t24 59.5q0 39 -24 58.5t-63 19.5h-153v122h183q68 0 115.5 -25t72.5 -67t25 -93q0 -65 -42 -110t-124 -62l4 53q89 -17 137.5 -69t48.5 -128q0 -58 -28.5 -104.5t-82 -73.5
t-128.5 -27h-181zM68 0v706h155v-706h-155z" />
    <glyph glyph-name="C" unicode="C" horiz-adv-x="689" 
d="M403 -11q-79 0 -146.5 27.5t-118 77.5t-78.5 116.5t-28 143.5t28 143.5t78 115.5t117.5 76.5t146.5 27.5q84 0 149.5 -27t114.5 -74l-105 -106q-28 30 -67.5 47t-91.5 17q-46 0 -84.5 -15.5t-66 -44.5t-43 -70t-15.5 -90q0 -50 15.5 -91t43 -70t66 -45t84.5 -16
q54 0 94 17t69 47l106 -106q-51 -47 -116.5 -74t-151.5 -27z" />
    <glyph glyph-name="D" unicode="D" horiz-adv-x="754" 
d="M174 0v138h175q64 0 112 25.5t74 74.5t26 116t-26.5 115t-74 74t-111.5 26h-180v137h182q80 0 147.5 -25.5t118 -73t78 -112t27.5 -142.5q0 -77 -27.5 -142t-77.5 -112t-117.5 -73t-146.5 -26h-179zM68 0v706h157v-706h-157z" />
    <glyph glyph-name="E" unicode="E" horiz-adv-x="615" 
d="M68 0v706h157v-706h-157zM188 0v136h387v-136h-387zM188 295v131h352v-131h-352zM188 571v135h382v-135h-382z" />
    <glyph glyph-name="F" unicode="F" horiz-adv-x="590" 
d="M68 0v706h157v-706h-157zM188 277v135h353v-135h-353zM188 571v135h369v-135h-369z" />
    <glyph glyph-name="G" unicode="G" horiz-adv-x="785" 
d="M401 -11q-77 0 -144.5 28t-117.5 77.5t-78.5 116t-28.5 143.5t29 143t80.5 115.5t120.5 77t148 27.5q91 0 165.5 -33t123.5 -91l-107 -107q-34 44 -80 66t-104 22q-62 0 -111 -27.5t-76.5 -77t-27.5 -115.5t27 -116t74 -78t108 -28q62 0 105.5 23.5t67 68t23.5 108.5
l104 -70l-315 5v133h371v-23q0 -127 -45.5 -213.5t-126 -130.5t-185.5 -44z" />
    <glyph glyph-name="H" unicode="H" horiz-adv-x="730" 
d="M68 0v706h157v-706h-157zM505 0v706h158v-706h-158zM162 295v136h395v-136h-395z" />
    <glyph glyph-name="I" unicode="I" horiz-adv-x="293" 
d="M68 0v706h157v-706h-157z" />
    <glyph glyph-name="J" unicode="J" horiz-adv-x="532" 
d="M215 -11q-67 0 -116.5 24.5t-84.5 68.5l105 101q18 -25 42.5 -38t55.5 -13q30 0 52 12.5t35 36t13 58.5v467h158v-458q0 -79 -32 -137t-90 -90t-138 -32z" />
    <glyph glyph-name="K" unicode="K" horiz-adv-x="705" 
d="M495 0l-286 368l277 338h194l-312 -367v64l322 -403h-195zM68 0v706h157v-706h-157z" />
    <glyph glyph-name="L" unicode="L" horiz-adv-x="561" 
d="M68 0v706h157v-706h-157zM189 0v138h349v-138h-349z" />
    <glyph glyph-name="M" unicode="M" horiz-adv-x="858" 
d="M68 0v706h112l278 -433h-57l277 433h113v-706h-157v441l28 -7l-181 -282h-104l-180 282l27 7v-441h-156z" />
    <glyph glyph-name="N" unicode="N" horiz-adv-x="738" 
d="M68 0v706h110l47 -141v-565h-157zM555 0l-416 533l39 173l416 -533zM555 0l-42 141v565h157v-706h-115z" />
    <glyph glyph-name="O" unicode="O" horiz-adv-x="806" 
d="M405 -12q-80 0 -147.5 28t-118.5 78t-79 116.5t-28 143.5q0 78 28 144t78 115.5t117.5 77t147.5 27.5q79 0 146.5 -27.5t118 -77t78.5 -116t28 -144.5q0 -77 -28 -143.5t-78 -116t-117.5 -77.5t-145.5 -28zM403 131q63 0 110.5 28t73.5 78.5t26 116.5q0 50 -15 90.5
t-43 70t-66.5 45t-85.5 15.5q-63 0 -110.5 -27.5t-73.5 -77t-26 -116.5q0 -50 15 -91t42.5 -70.5t66.5 -45.5t86 -16z" />
    <glyph glyph-name="P" unicode="P" horiz-adv-x="628" 
d="M188 257v122h152q29 0 53 12t38 35t14 56q0 32 -14 55t-38 35t-53 12h-152v122h175q67 0 121 -27t85.5 -77.5t31.5 -119.5t-31.5 -119.5t-85.5 -78t-121 -27.5h-175zM68 0v706h157v-706h-157z" />
    <glyph glyph-name="Q" unicode="Q" horiz-adv-x="819" 
d="M405 -12q-79 0 -147 28t-118.5 78t-79 116.5t-28.5 143.5q0 78 28 144t78.5 115.5t118 77t146.5 27.5q80 0 147.5 -27.5t118 -77t78.5 -116t28 -144.5q0 -77 -28 -143.5t-78.5 -116t-117.5 -77.5t-146 -28zM720 -56l-330 330l91 91l330 -330zM403 131q64 0 111 28
t73.5 78.5t26.5 116.5q0 50 -15 90.5t-43 70t-66.5 45t-86.5 15.5q-63 0 -110 -27.5t-73.5 -77t-26.5 -116.5q0 -50 15 -91t43 -70.5t66.5 -45.5t85.5 -16z" />
    <glyph glyph-name="R" unicode="R" horiz-adv-x="652" 
d="M188 291v116h149q47 0 72.5 24t25.5 65q0 38 -25 63t-72 25h-150v122h168q70 0 123 -26.5t83 -73.5t30 -108q0 -62 -30 -108.5t-84 -72.5t-127 -26h-163zM68 0v706h157v-706h-157zM452 0l-220 304l144 39l262 -343h-186z" />
    <glyph glyph-name="S" unicode="S" horiz-adv-x="583" 
d="M280 -11q-87 0 -149.5 28.5t-114.5 86.5l102 101q34 -39 75.5 -60.5t96.5 -21.5q50 0 77.5 18t27.5 50q0 29 -18 47t-47.5 31t-65 25t-70.5 27.5t-64.5 39t-47.5 59t-18 89.5q0 65 31.5 112t87.5 71.5t129 24.5q74 0 135.5 -26t101.5 -71l-102 -101q-32 33 -64.5 49
t-73.5 16t-65 -15.5t-24 -44.5q0 -27 18 -43.5t47.5 -28.5t65 -24t70.5 -28t64.5 -40.5t47.5 -62t18 -92.5q0 -101 -72 -158.5t-199 -57.5z" />
    <glyph glyph-name="T" unicode="T" horiz-adv-x="639" 
d="M241 0v696h157v-696h-157zM20 569v137h599v-137h-599z" />
    <glyph glyph-name="U" unicode="U" horiz-adv-x="702" 
d="M352 -11q-87 0 -153.5 37t-104 102.5t-37.5 149.5v428h158v-437q0 -42 18 -73t49.5 -47.5t69.5 -16.5q40 0 70 16.5t47.5 47t17.5 72.5v438h158v-429q0 -84 -37 -149t-103 -102t-153 -37z" />
    <glyph glyph-name="V" unicode="V" horiz-adv-x="713" 
d="M288 0l-272 706h168l207 -571h-69l210 571h166l-275 -706h-135z" />
    <glyph glyph-name="W" unicode="W" horiz-adv-x="1002" 
d="M244 0l-227 706h156l166 -543h-61l162 543h123l162 -543h-60l165 543h155l-227 -706h-123l-163 543h58l-163 -543h-123z" />
    <glyph glyph-name="X" unicode="X" horiz-adv-x="715" 
d="M516 0l-197 315h-19l-272 391h187l194 -296h19l272 -410h-184zM15 0l261 378l121 -68l-203 -310h-179zM434 333l-121 68l196 305h179z" />
    <glyph glyph-name="Y" unicode="Y" horiz-adv-x="687" 
d="M285 263l-272 443h182l209 -358h-117l209 358h178l-274 -443h-115zM266 0v335h157v-335h-157z" />
    <glyph glyph-name="Z" unicode="Z" horiz-adv-x="608" 
d="M30 110l355 487h190l-356 -487h-189zM30 0v110l104 25h432v-135h-536zM50 571v135h525v-109l-106 -26h-419z" />
    <glyph glyph-name="bracketleft" unicode="[" horiz-adv-x="349" 
d="M65 -96v822h123v-822h-123zM126 -96v112h191v-112h-191zM126 614v112h191v-112h-191z" />
    <glyph glyph-name="backslash" unicode="\" horiz-adv-x="384" 
d="M248 -55l-245 810h133l245 -810h-133z" />
    <glyph glyph-name="bracketright" unicode="]" horiz-adv-x="349" 
d="M161 -96v822h123v-822h-123zM32 -96v112h191v-112h-191zM32 614v112h191v-112h-191z" />
    <glyph glyph-name="asciicircum" unicode="^" horiz-adv-x="466" 
d="M315 452l-110 209h57l-110 -209h-118l152 274h94l153 -274h-118z" />
    <glyph glyph-name="underscore" unicode="_" horiz-adv-x="505" 
d="M0 -159v120h505v-120h-505z" />
    <glyph glyph-name="grave" unicode="`" horiz-adv-x="323" 
d="M233 541l-193 104l84 118l159 -149z" />
    <glyph glyph-name="a" unicode="a" horiz-adv-x="595" 
d="M257 -10q-67 0 -119.5 33t-83 90t-30.5 130t30.5 130t83 90t119.5 33q49 0 88.5 -19t64.5 -52.5t28 -76.5v-210q-3 -43 -27.5 -76.5t-64.5 -52.5t-89 -19zM288 128q49 0 79 32.5t30 82.5q0 34 -13.5 60t-38 40.5t-56.5 14.5t-56.5 -14.5t-39 -40.5t-14.5 -60
q0 -33 14 -59t39 -41t56 -15zM391 0v131l23 118l-23 118v119h150v-486h-150z" />
    <glyph glyph-name="b" unicode="b" horiz-adv-x="595" 
d="M334 -10q-49 0 -90 20.5t-67 55t-30 77.5v205q4 43 30 76.5t67 52.5t90 19q69 0 122.5 -33t84 -90t30.5 -130t-30.5 -130t-84 -90t-122.5 -33zM54 0v726h153v-359l-25 -118l23 -118v-131h-151zM307 128q32 0 56.5 15t38.5 41t14 59q0 34 -14 60t-38.5 40.5t-56.5 14.5
t-57 -14.5t-38.5 -40.5t-13.5 -60t14 -60t38.5 -40.5t56.5 -14.5z" />
    <glyph glyph-name="c" unicode="c" horiz-adv-x="496" 
d="M289 -11q-75 0 -136 33t-96 91t-35 130q0 73 35.5 130.5t96.5 90.5t137 33q57 0 104.5 -19.5t84.5 -58.5l-98 -98q-17 19 -39.5 28t-51.5 9q-33 0 -58.5 -14.5t-40 -40t-14.5 -59.5t14.5 -60t40.5 -41t58 -15q30 0 53.5 10.5t40.5 29.5l97 -98q-38 -40 -86 -60.5
t-107 -20.5z" />
    <glyph glyph-name="d" unicode="d" horiz-adv-x="595" 
d="M261 -10q-69 0 -122.5 33t-84 90t-30.5 130t30.5 130t84 90t122.5 33q50 0 90.5 -19t67 -52.5t29.5 -76.5v-205q-3 -43 -29 -77.5t-67 -55t-91 -20.5zM288 128q33 0 57 14.5t38 40.5t14 60t-13.5 59.5t-38 40.5t-56.5 15t-56.5 -15t-39 -41t-14.5 -59t14 -59t39 -41
t56 -15zM541 0h-150v131l23 118l-26 118v359h153v-726z" />
    <glyph glyph-name="e" unicode="e" horiz-adv-x="548" 
d="M294 -11q-79 0 -140.5 32.5t-96.5 90.5t-35 131t34.5 130.5t93.5 90.5t133 33q72 0 127 -31t86.5 -86t31.5 -126q0 -13 -1.5 -27.5t-5.5 -33.5l-419 -1v105l354 1l-66 -44q-1 42 -13 69.5t-35.5 42t-57.5 14.5q-36 0 -62.5 -16.5t-41 -46.5t-14.5 -73t15.5 -73.5t44 -47
t67.5 -16.5q36 0 65 12.5t51 37.5l84 -84q-36 -42 -87 -63t-112 -21z" />
    <glyph glyph-name="f" unicode="f" horiz-adv-x="436" 
d="M116 0v528q0 59 26.5 106.5t74.5 75t114 27.5q50 0 87.5 -16.5t65.5 -45.5l-96 -96q-10 10 -22.5 15.5t-29.5 5.5q-31 0 -49 -18t-18 -49v-533h-153zM9 356v130h400v-130h-400z" />
    <glyph glyph-name="g" unicode="g" horiz-adv-x="584" 
d="M260 -218q-80 0 -140.5 27.5t-95.5 77.5l94 94q26 -31 58.5 -47t78.5 -16q57 0 89.5 28t32.5 79v124l26 106l-23 106v125h150v-457q0 -75 -35 -130t-96 -86t-139 -31zM253 15q-67 0 -119 32t-82 87t-30 122q0 68 30 122.5t82 86t119 31.5q50 0 89.5 -18.5t64 -52
t27.5 -77.5v-185q-3 -43 -27.5 -76.5t-64.5 -52.5t-89 -19zM282 151q32 0 55.5 14t36 37.5t12.5 53.5t-12.5 54t-36 38t-55.5 14q-31 0 -55 -14t-37 -38t-13 -54q0 -28 13 -52.5t36.5 -38.5t55.5 -14z" />
    <glyph glyph-name="h" unicode="h" horiz-adv-x="572" 
d="M375 0v277q0 38 -23.5 61.5t-59.5 23.5q-25 0 -44 -10.5t-30 -30t-11 -44.5l-59 29q0 57 24 100t67 66.5t99 23.5q57 0 100 -23.5t66.5 -65t23.5 -96.5v-311h-153zM54 0v726h153v-726h-153z" />
    <glyph glyph-name="i" unicode="i" horiz-adv-x="261" 
d="M54 0v486h153v-486h-153zM131 553q-36 0 -59.5 24.5t-23.5 59.5q0 36 23.5 60t59.5 24t59 -24t23 -60q0 -35 -23 -59.5t-59 -24.5z" />
    <glyph glyph-name="j" unicode="j" horiz-adv-x="273" 
d="M26 -218q-53 0 -90 17.5t-65 49.5l95 95q11 -13 22.5 -18.5t26.5 -5.5q22 0 36.5 13t14.5 40v513h153v-511q0 -59 -25 -102t-68.5 -67t-99.5 -24zM144 553q-36 0 -59.5 24.5t-23.5 59.5q0 36 23.5 60t59.5 24t59 -24t23 -60q0 -35 -23 -59.5t-59 -24.5z" />
    <glyph glyph-name="k" unicode="k" horiz-adv-x="546" 
d="M365 0l-170 252l169 234h171l-204 -263l5 63l209 -286h-180zM54 0v726h153v-726h-153z" />
    <glyph glyph-name="l" unicode="l" horiz-adv-x="261" 
d="M54 0v726h153v-726h-153z" />
    <glyph glyph-name="m" unicode="m" horiz-adv-x="873" 
d="M54 0v486h153v-486h-153zM365 0v284q0 37 -22.5 57.5t-55.5 20.5q-23 0 -41 -9.5t-28.5 -26.5t-10.5 -42l-59 26q0 58 25 99.5t68 64t97 22.5q51 0 91.5 -23t64.5 -64t24 -98v-311h-153zM676 0v284q0 37 -22.5 57.5t-55.5 20.5q-23 0 -41 -9.5t-28.5 -26.5t-10.5 -42
l-88 12q2 62 29.5 106.5t73 69t102.5 24.5q56 0 99.5 -23.5t69 -67t25.5 -104.5v-301h-153z" />
    <glyph glyph-name="n" unicode="n" horiz-adv-x="572" 
d="M375 0v277q0 38 -23.5 61.5t-59.5 23.5q-25 0 -44 -10.5t-30 -30t-11 -44.5l-59 29q0 57 25 100t69.5 66.5t100.5 23.5q54 0 95.5 -25.5t65.5 -67.5t24 -92v-311h-153zM54 0v486h153v-486h-153z" />
    <glyph glyph-name="o" unicode="o" horiz-adv-x="576" 
d="M288 -11q-75 0 -135.5 33.5t-95.5 91.5t-35 130t35 129t95 90.5t136 33.5t136 -33t95 -90.5t35 -129.5t-35 -130t-95 -91.5t-136 -33.5zM288 128q33 0 58 14.5t38.5 41t13.5 60.5t-14 59.5t-38.5 40t-57.5 14.5q-32 0 -57 -14.5t-39 -40.5t-14 -60q0 -33 14 -59.5t39 -41
t57 -14.5z" />
    <glyph glyph-name="p" unicode="p" horiz-adv-x="595" 
d="M334 -10q-49 0 -90 19t-67 52.5t-30 76.5v205q4 43 30 78t67 55t90 20q69 0 122.5 -33t84 -90t30.5 -130t-30.5 -130t-84 -90t-122.5 -33zM54 -205v691h153v-125l-25 -118l23 -118v-330h-151zM306 128q33 0 57.5 15t38.5 41t14 59q0 34 -14 60t-38.5 40.5t-56.5 14.5
t-56.5 -14.5t-38.5 -40.5t-14 -60q0 -33 13.5 -59t38.5 -41t56 -15z" />
    <glyph glyph-name="q" unicode="q" horiz-adv-x="595" 
d="M257 -10q-67 0 -119.5 33t-83 90t-30.5 130t30.5 130t83 90t119.5 33q49 0 88.5 -19t64.5 -52.5t28 -76.5v-210q-3 -43 -27.5 -76.5t-64.5 -52.5t-89 -19zM288 128q49 0 79 32.5t30 82.5q0 34 -13.5 60t-38 40.5t-56.5 14.5t-56.5 -14.5t-39 -40.5t-14.5 -60
q0 -33 14 -59t39 -41t56 -15zM391 -205v330l23 118l-23 118v125h150v-691h-150z" />
    <glyph glyph-name="r" unicode="r" horiz-adv-x="444" 
d="M54 0v486h153v-486h-153zM207 267l-64 50q19 85 64 132t125 47q35 0 61.5 -10.5t46.5 -32.5l-91 -115q-10 11 -25 17t-34 6q-38 0 -60.5 -23.5t-22.5 -70.5z" />
    <glyph glyph-name="s" unicode="s" horiz-adv-x="458" 
d="M231 -12q-43 0 -84.5 11t-77 31.5t-60.5 47.5l87 88q24 -26 57 -40.5t72 -14.5q27 0 41.5 8t14.5 22q0 18 -17.5 27.5t-44.5 17t-57 16.5t-57 25t-44 44.5t-17 72.5q0 47 24 81.5t68 54.5t103 20q62 0 114.5 -21.5t85.5 -63.5l-87 -88q-23 27 -51.5 38t-55.5 11
q-26 0 -39 -7.5t-13 -21.5q0 -15 17 -24t44 -16t57 -17t57 -27t44 -45.5t17 -74.5q0 -71 -53.5 -113t-144.5 -42z" />
    <glyph glyph-name="t" unicode="t" horiz-adv-x="399" 
d="M123 0v687h153v-687h-153zM13 356v130h373v-130h-373z" />
    <glyph glyph-name="u" unicode="u" horiz-adv-x="539" 
d="M270 -11q-67 0 -118.5 27.5t-80.5 76t-29 111.5v282h153v-280q0 -25 8.5 -43t25.5 -28t41 -10q34 0 54 21.5t20 59.5v280h153v-281q0 -64 -29 -112.5t-80 -76t-118 -27.5z" />
    <glyph glyph-name="v" unicode="v" horiz-adv-x="537" 
d="M207 0l-206 486h165l140 -405h-72l140 405h162l-206 -486h-123z" />
    <glyph glyph-name="w" unicode="w" horiz-adv-x="785" 
d="M173 0l-168 486h150l104 -353l-44 -1l115 354h124l116 -354l-45 1l105 353h150l-168 -486h-125l-113 336h38l-115 -336h-124z" />
    <glyph glyph-name="x" unicode="x" horiz-adv-x="536" 
d="M355 0l-117 189l-33 21l-191 276h179l109 -177l32 -20l198 -289h-177zM5 0l199 283l87 -98l-119 -185h-167zM333 211l-87 98l110 177h166z" />
    <glyph glyph-name="y" unicode="y" horiz-adv-x="534" 
d="M204 -2l-200 488h165l127 -387h-61l130 387h165l-208 -488h-118zM79 -205l146 315l97 -112l-86 -203h-157z" />
    <glyph glyph-name="z" unicode="z" horiz-adv-x="481" 
d="M23 90l244 307h186l-244 -307h-186zM23 0v90l109 38h315v-128h-424zM41 358v128h412v-89l-108 -39h-304z" />
    <glyph glyph-name="braceleft" unicode="{" horiz-adv-x="342" 
d="M249 -96q-87 0 -131.5 45t-36.5 135l11 121q3 31 -7.5 44t-38.5 13h-28v110h28q28 0 38.5 13t7.5 44l-11 117q-9 89 36 134.5t132 45.5h61v-112h-38q-42 0 -56 -17t-10 -52l8 -99q4 -42 -3.5 -71t-33 -48t-73.5 -31v38q48 -10 73.5 -28.5t33 -47.5t3.5 -71l-8 -102
q-3 -34 10.5 -51.5t55.5 -17.5h38v-112h-61z" />
    <glyph glyph-name="bar" unicode="|" horiz-adv-x="300" 
d="M81 -130v906h138v-906h-138z" />
    <glyph glyph-name="braceright" unicode="}" horiz-adv-x="342" 
d="M88 -96h-61v112h38q42 0 55.5 17.5t10.5 51.5l-8 102q-4 42 3.5 71t33 47.5t73.5 28.5v-38q-48 12 -73.5 31t-33 48t-3.5 71l8 99q4 35 -10 52t-56 17h-38v112h61q87 0 132 -45.5t36 -134.5l-11 -117q-3 -31 7.5 -44t38.5 -13h28v-110h-28q-28 0 -38.5 -13t-7.5 -44
l11 -121q9 -90 -36 -135t-132 -45z" />
    <glyph glyph-name="asciitilde" unicode="~" horiz-adv-x="563" 
d="M367 264q-32 0 -54.5 8t-40.5 18.5t-35 18.5t-40 8q-26 0 -46.5 -11t-39.5 -34l-79 80q35 47 74.5 70t88.5 23q30 0 52.5 -8t40.5 -18t36 -18t41 -8q25 0 46.5 10t41.5 34l79 -80q-36 -47 -76 -70t-89 -23z" />
    <glyph glyph-name="uni00A0" unicode="&#xa0;" horiz-adv-x="190" 
 />
    <glyph glyph-name="exclamdown" unicode="&#xa1;" horiz-adv-x="287" 
d="M61 -205l25 433h115l25 -433h-165zM144 312q-40 0 -65.5 27t-25.5 65q0 40 25.5 66t65.5 26q39 0 64.5 -26t25.5 -66q0 -38 -25.5 -65t-64.5 -27z" />
    <glyph glyph-name="cent" unicode="&#xa2;" horiz-adv-x="516" 
d="M298 99q-75 0 -136 33t-96 91t-35 130q0 73 35.5 130.5t96.5 90.5t137 33q57 0 104.5 -19.5t84.5 -58.5l-98 -98q-17 19 -39.5 28t-51.5 9q-33 0 -58.5 -14.5t-40 -40t-14.5 -59.5t14.5 -60t40.5 -41t58 -15q30 0 53.5 10.5t40.5 29.5l97 -98q-38 -40 -86 -60.5
t-107 -20.5zM233 10v686h110v-686h-110z" />
    <glyph glyph-name="sterling" unicode="&#xa3;" horiz-adv-x="629" 
d="M150 0v491q0 71 30.5 124t85 82t122.5 29q69 0 119.5 -27t79.5 -70l-99 -99q-19 28 -39.5 42t-53.5 14q-26 0 -46 -11.5t-31 -32t-11 -49.5v-493h-157zM55 0v138h513v-138h-513zM55 289v115h427v-115h-427z" />
    <glyph glyph-name="currency" unicode="&#xa4;" horiz-adv-x="601" 
d="M301 147q-63 0 -113.5 27t-79.5 73.5t-29 105.5t29 105.5t79 73.5t113 27q64 0 114 -27t79 -73.5t29 -105.5q0 -58 -29 -105t-78.5 -74t-113.5 -27zM130 105l-78 78l105 105l78 -78zM300 276q23 0 40 9.5t26.5 26.5t9.5 41t-10 41t-26.5 26.5t-39.5 9.5q-21 0 -38.5 -10
t-27 -27.5t-9.5 -40.5q0 -22 9.5 -39.5t27 -27t38.5 -9.5zM471 105l-106 105l78 78l105 -105zM157 418l-105 105l78 78l105 -105zM443 418l-78 78l106 105l77 -78z" />
    <glyph glyph-name="yen" unicode="&#xa5;" horiz-adv-x="672" 
d="M278 258l-232 448h171l164 -370h-87l164 370h168l-234 -448h-114zM258 0v325h158v-325h-158zM233 478l26 -95h-194v95h168zM65 223v95h542v-95h-542zM427 383l36 95h144v-95h-180z" />
    <glyph glyph-name="brokenbar" unicode="&#xa6;" horiz-adv-x="300" 
d="M81 396v380h138v-380h-138zM81 -130v380h138v-380h-138z" />
    <glyph glyph-name="section" unicode="&#xa7;" horiz-adv-x="538" 
d="M276 144l-5 98q33 0 51 12t18 35q0 25 -19 39t-49 23t-64 20.5t-64 30t-49.5 51t-19.5 85.5t25.5 93.5t73 62.5t110.5 22q66 0 122.5 -25t91.5 -74l-89 -91q-25 32 -57 46.5t-64 14.5q-31 0 -47 -12t-16 -32q0 -22 19 -35t49 -22.5t63.5 -21t63.5 -30t49 -49.5t19 -81
q0 -47 -27 -83.5t-74.5 -56.5t-110.5 -20zM254 -121q-65 0 -121.5 25t-91.5 74l89 91q24 -32 56 -46.5t64 -14.5t48 12t16 32q0 22 -19 35t-49 22.5t-64 21t-64 30t-49 49.5t-19 81q0 48 27 84t75 56t111 20l4 -98q-32 0 -50.5 -12t-18.5 -35q0 -25 19.5 -39t49.5 -23
t64 -20.5t64 -30t49 -51t19 -85.5t-25.5 -93t-72 -62.5t-111.5 -22.5z" />
    <glyph glyph-name="dieresis" unicode="&#xa8;" horiz-adv-x="495" 
d="M138 548q-36 0 -59.5 24.5t-23.5 59.5q0 36 23.5 60t59.5 24t59 -24t23 -60q0 -35 -23 -59.5t-59 -24.5zM358 548q-36 0 -59.5 24.5t-23.5 59.5q0 36 23.5 60t59.5 24t59 -24t23 -60q0 -35 -23 -59.5t-59 -24.5z" />
    <glyph glyph-name="copyright" unicode="&#xa9;" horiz-adv-x="811" 
d="M406 -10q-79 0 -145 28t-114.5 78t-75 116.5t-26.5 142.5q0 77 26 143t74 115t114 77t145 28q80 0 146.5 -28t114.5 -77t74.5 -115t26.5 -144q0 -76 -26.5 -142.5t-74.5 -116.5t-114 -77.5t-145 -27.5zM418 150q-61 0 -110.5 26.5t-78.5 72.5t-29 105t29 105t79 73
t112 27q46 0 84 -15.5t68 -45.5l-86 -87q-12 13 -28 19.5t-38 6.5q-23 0 -42 -10.5t-29.5 -29t-10.5 -42.5q0 -25 11 -43.5t30 -29t41 -10.5q23 0 39.5 7.5t28.5 21.5l87 -87q-33 -33 -72 -48.5t-85 -15.5zM404 44q91 0 159.5 41t107.5 112t39 159q0 86 -38.5 156
t-107.5 111t-160 41q-90 0 -158.5 -40.5t-106.5 -110.5t-38 -157q0 -88 38.5 -159t107 -112t157.5 -41z" />
    <glyph glyph-name="ordfeminine" unicode="&#xaa;" horiz-adv-x="361" 
d="M153 407q-40 0 -72 19.5t-50 54t-18 78.5t18 78.5t50 54.5t72 20q42 0 72 -23t34 -57v-145q-4 -34 -33.5 -57t-72.5 -23zM175 499q26 0 42 17t16 44q0 26 -16 43t-41 17q-26 0 -42.5 -17t-16.5 -43q0 -27 16.5 -44t41.5 -17zM229 413v78l15 72l-15 71v72h102v-293h-102z
" />
    <glyph glyph-name="guillemotleft" unicode="&#xab;" horiz-adv-x="510" 
d="M126 72l-102 173l102 173h142l-107 -173l107 -173h-142zM345 72l-102 173l102 173h143l-107 -173l107 -173h-143z" />
    <glyph glyph-name="logicalnot" unicode="&#xac;" horiz-adv-x="563" 
d="M49 326v127h465v-127h-465zM384 429h130v-257h-130v257z" />
    <glyph glyph-name="registered" unicode="&#xae;" horiz-adv-x="546" 
d="M273 267q-65 0 -115 30t-78.5 81.5t-28.5 114.5t28 113.5t78 80t115 29.5q66 0 116.5 -30t79 -80.5t28.5 -112.5q0 -64 -28.5 -115t-78.5 -81t-116 -30zM198 384v223h49v-223h-49zM319 384l-70 96l50 6l78 -102h-58zM272 310q54 0 94 24t63 65.5t23 93.5q0 51 -23 91.5
t-63 65t-94 24.5q-52 0 -92 -24.5t-62.5 -65t-22.5 -91.5q0 -52 22.5 -93.5t62.5 -65.5t92 -24zM235 476v37h48q14 0 22.5 7.5t8.5 19.5q0 13 -8.5 20.5t-22.5 7.5h-48v39h53q32 0 53 -18.5t21 -47.5t-21 -47t-54 -18h-52z" />
    <glyph glyph-name="macron" unicode="&#xaf;" horiz-adv-x="464" 
d="M40 690h384v-113h-384v113z" />
    <glyph glyph-name="degree" unicode="&#xb0;" horiz-adv-x="396" 
d="M198 387q-49 0 -87 21.5t-59.5 58.5t-21.5 83q0 48 21.5 85t59.5 59t87 22t86.5 -22t59.5 -59t22 -85q0 -46 -21.5 -83t-59.5 -58.5t-87 -21.5zM198 495q24 0 39.5 16t15.5 40t-15.5 40.5t-39.5 16.5t-39.5 -16.5t-15.5 -40.5t15.5 -40t39.5 -16z" />
    <glyph glyph-name="plusminus" unicode="&#xb1;" horiz-adv-x="563" 
d="M49 346v127h465v-127h-465zM217 579h130v-337h-130v337zM49 81v127h465v-127h-465z" />
    <glyph glyph-name="uni00B2" unicode="&#xb2;" horiz-adv-x="340" 
d="M26 409l146 145q9 8 12 15.5t3 14.5q0 14 -9 23t-26 9q-14 0 -27 -10t-30 -33l-74 67q23 37 60 54.5t82 17.5q64 0 101 -32.5t37 -90.5q0 -29 -12.5 -55.5t-39.5 -51.5l-86 -79zM26 347v62l96 32h186v-94h-282z" />
    <glyph glyph-name="uni00B3" unicode="&#xb3;" horiz-adv-x="334" 
d="M147 341q-39 0 -73 13t-58 36l72 70q8 -10 24.5 -17t32.5 -7q19 0 32 9t13 25t-14 25t-38 9q-11 0 -22.5 -1.5t-16.5 -3.5l51 62q23 5 36.5 7.5t22.5 2.5q40 0 66.5 -27.5t26.5 -76.5q0 -56 -42 -91t-113 -35zM99 499v61l71 85h122l-74 -84zM45 612v94h247v-61l-83 -33
h-164z" />
    <glyph glyph-name="acute" unicode="&#xb4;" horiz-adv-x="323" 
d="M90 541l-50 73l159 149l84 -118z" />
    <glyph glyph-name="uni00B5" unicode="&#xb5;" horiz-adv-x="593" 
d="M81 -195v681h153v-681h-153zM343 -10q-87 0 -130 55t-43 141l64 22q0 -45 23 -64t53 -19t52 19t22 64v278h153v-301q0 -57 -25.5 -101t-69 -69t-99.5 -25z" />
    <glyph glyph-name="paragraph" unicode="&#xb6;" horiz-adv-x="718" 
d="M397 257h-120q-67 0 -121 27t-85.5 77.5t-31.5 119.5q0 70 31.5 120t85.5 77.5t121 27.5h408v-122h-400q-29 0 -53 -12t-38 -35t-14 -56q0 -32 14 -55t38 -35t53 -12h112v-122zM432 -100h-122v806h122v-806zM612 -100h-122v806h122v-806z" />
    <glyph glyph-name="periodcentered" unicode="&#xb7;" horiz-adv-x="182" 
d="M91 277q-39 0 -65 27t-26 65q0 40 26 66.5t65 26.5q40 0 65.5 -26.5t25.5 -66.5q0 -38 -25.5 -65t-65.5 -27z" />
    <glyph glyph-name="cedilla" unicode="&#xb8;" horiz-adv-x="304" 
d="M145 -215q-40 0 -68.5 9.5t-56.5 26.5l47 62q13 -10 28.5 -15.5t34.5 -5.5q21 0 30 6.5t9 15.5t-11 16t-34 7h-32l34 106h86l-26 -73l-44 35q66 1 102.5 -25.5t36.5 -69.5q0 -40 -37 -67.5t-99 -27.5z" />
    <glyph glyph-name="uni00B9" unicode="&#xb9;" horiz-adv-x="266" 
d="M85 347v359h115v-359h-115zM20 612v94h175v-94h-175z" />
    <glyph glyph-name="ordmasculine" unicode="&#xba;" horiz-adv-x="349" 
d="M175 405q-46 0 -83.5 20t-59 55t-21.5 79t21.5 78.5t58.5 54.5t84 20t83.5 -20t58 -54.5t21.5 -78.5t-21.5 -79t-58 -55t-83.5 -20zM175 498q26 0 42 17t16 44t-16.5 43.5t-42.5 16.5t-42 -17t-16 -44t16.5 -43.5t42.5 -16.5z" />
    <glyph glyph-name="guillemotright" unicode="&#xbb;" horiz-adv-x="510" 
d="M242 72l107 173l-107 173h143l102 -173l-102 -173h-143zM23 72l107 173l-107 173h142l102 -173l-102 -173h-142z" />
    <glyph glyph-name="onequarter" unicode="&#xbc;" horiz-adv-x="695" 
d="M283 312l57 -55l-220 -270l-101 101zM396 396l-57 55l220 270l101 -101zM132 347v359h114v-359h-114zM66 612v94h175v-94h-175zM362 118l101 238h117l-103 -238h-115zM362 57v61l29 33h273v-94h-302zM533 -3v207h108v-207h-108z" />
    <glyph glyph-name="onehalf" unicode="&#xbd;" horiz-adv-x="692" 
d="M278 312l57 -55l-215 -270l-101 101zM396 396l-57 55l220 270l101 -101zM132 347v359h114v-359h-114zM66 612v94h175v-94h-175zM367 59l146 145q8 8 11.5 15.5t3.5 14.5q0 14 -9.5 23t-25.5 9q-15 0 -27.5 -10t-29.5 -33l-75 67q23 37 60 54.5t82 17.5q65 0 101.5 -32.5
t36.5 -90.5q0 -29 -12 -55.5t-40 -51.5l-85 -79zM367 -3v62l96 32h185v-94h-281z" />
    <glyph glyph-name="threequarters" unicode="&#xbe;" horiz-adv-x="690" 
d="M263 320l57 -53l-200 -280l-101 101zM426 389l-57 52l195 280l101 -101zM174 341q-39 0 -73 13t-58 36l72 70q8 -10 24.5 -17t32.5 -7q19 0 32 9t13 25t-14 25t-38 9q-11 0 -22.5 -1.5t-16.5 -3.5l51 62q23 5 36.5 7.5t22.5 2.5q40 0 66.5 -27.5t26.5 -76.5
q0 -56 -42 -91t-113 -35zM126 499v61l71 85h122l-74 -84zM72 612v94h247v-61l-83 -33h-164zM342 118l102 238h117l-104 -238h-115zM342 57v61l30 33h273v-94h-303zM513 -3v207h108v-207h-108z" />
    <glyph glyph-name="questiondown" unicode="&#xbf;" horiz-adv-x="488" 
d="M252 -216q-63 0 -112.5 25.5t-77.5 70.5t-28 103q0 55 24 96.5t66.5 69t96.5 38.5l-50 -50l9 93h120l8 -155h-43q-37 0 -60 -20t-23 -54q0 -22 10 -38.5t27.5 -25.5t40.5 -9q37 0 67.5 22t49.5 58l98 -91q-30 -59 -87 -96t-136 -37zM240 312q-39 0 -64.5 27t-25.5 65
q0 40 25.5 66t64.5 26q40 0 65.5 -26t25.5 -66q0 -38 -25.5 -65t-65.5 -27z" />
    <glyph glyph-name="Agrave" unicode="&#xc0;" horiz-adv-x="729" 
d="M15 0l280 706h142l277 -706h-166l-212 586h57l-215 -586h-163zM174 128v128h385v-128h-385zM418 761l-193 104l84 118l159 -149z" />
    <glyph glyph-name="Aacute" unicode="&#xc1;" horiz-adv-x="729" 
d="M15 0l280 706h142l277 -706h-166l-212 586h57l-215 -586h-163zM174 128v128h385v-128h-385zM293 761l-50 73l159 149l84 -118z" />
    <glyph glyph-name="Acircumflex" unicode="&#xc2;" horiz-adv-x="729" 
d="M15 0l280 706h142l277 -706h-166l-212 586h57l-215 -586h-163zM174 128v128h385v-128h-385zM224 757l-50 66l146 145h88l146 -145l-50 -66l-197 122h116z" />
    <glyph glyph-name="Atilde" unicode="&#xc3;" horiz-adv-x="729" 
d="M15 0l280 706h142l277 -706h-166l-212 586h57l-215 -586h-163zM174 128v128h385v-128h-385zM438 762q-32 0 -55.5 11t-43 22t-42.5 11t-39 -9.5t-30 -28.5l-73 72q29 43 61.5 64t75.5 21q32 0 55.5 -11t43.5 -22.5t42 -11.5q24 0 40 9.5t29 29.5l73 -73
q-29 -42 -61.5 -63t-75.5 -21z" />
    <glyph glyph-name="Adieresis" unicode="&#xc4;" horiz-adv-x="729" 
d="M15 0l280 706h142l277 -706h-166l-212 586h57l-215 -586h-163zM174 128v128h385v-128h-385zM255 768q-36 0 -59.5 24.5t-23.5 59.5q0 36 23.5 60t59.5 24t59 -24t23 -60q0 -35 -23 -59.5t-59 -24.5zM475 768q-36 0 -59.5 24.5t-23.5 59.5q0 36 23.5 60t59.5 24t59 -24
t23 -60q0 -35 -23 -59.5t-59 -24.5z" />
    <glyph glyph-name="Aring" unicode="&#xc5;" horiz-adv-x="729" 
d="M15 0l280 706h142l277 -706h-166l-212 586h57l-215 -586h-163zM174 128v128h385v-128h-385zM365 658q-38 0 -67.5 17t-47 46t-17.5 66t17.5 66t47 46.5t67.5 17.5q37 0 66.5 -17.5t46.5 -46.5t17 -66t-17 -66t-46.5 -46t-66.5 -17zM365 742q18 0 30.5 13t12.5 32
q0 20 -12.5 32.5t-30.5 12.5q-20 0 -32 -13t-12 -32t12 -32t32 -13z" />
    <glyph glyph-name="AE" unicode="&#xc6;" horiz-adv-x="994" 
d="M15 0l280 706h253v-135h-159l-211 -571h-163zM174 203v128h365v-128h-365zM596 0v136h359v-136h-359zM475 0v706h158v-706h-158zM596 295v131h323v-131h-323zM596 571v135h353v-135h-353z" />
    <glyph glyph-name="Ccedilla" unicode="&#xc7;" horiz-adv-x="689" 
d="M403 -11q-79 0 -146.5 27.5t-118 77.5t-78.5 116.5t-28 143.5t28 143.5t78 115.5t117.5 76.5t146.5 27.5q84 0 149.5 -27t114.5 -74l-105 -106q-28 30 -67.5 47t-91.5 17q-46 0 -84.5 -15.5t-66 -44.5t-43 -70t-15.5 -90q0 -50 15.5 -91t43 -70t66 -45t84.5 -16
q54 0 94 17t69 47l106 -106q-51 -47 -116.5 -74t-151.5 -27zM356 -215q-40 0 -68.5 9.5t-56.5 26.5l47 62q13 -10 28.5 -15.5t34.5 -5.5q21 0 30 6.5t9 15.5t-11 16t-34 7h-32l34 106h86l-26 -73l-44 35q66 1 102.5 -25.5t36.5 -69.5q0 -40 -37 -67.5t-99 -27.5z" />
    <glyph glyph-name="Egrave" unicode="&#xc8;" horiz-adv-x="615" 
d="M68 0v706h157v-706h-157zM188 0v136h387v-136h-387zM188 295v131h352v-131h-352zM188 571v135h382v-135h-382zM381 761l-193 104l84 118l159 -149z" />
    <glyph glyph-name="Eacute" unicode="&#xc9;" horiz-adv-x="615" 
d="M68 0v706h157v-706h-157zM188 0v136h387v-136h-387zM188 295v131h352v-131h-352zM188 571v135h382v-135h-382zM256 761l-50 73l159 149l84 -118z" />
    <glyph glyph-name="Ecircumflex" unicode="&#xca;" horiz-adv-x="615" 
d="M68 0v706h157v-706h-157zM188 0v136h387v-136h-387zM188 295v131h352v-131h-352zM188 571v135h382v-135h-382zM187 757l-50 66l146 145h88l146 -145l-50 -66l-197 122h116z" />
    <glyph glyph-name="Edieresis" unicode="&#xcb;" horiz-adv-x="615" 
d="M68 0v706h157v-706h-157zM188 0v136h387v-136h-387zM188 295v131h352v-131h-352zM188 571v135h382v-135h-382zM218 768q-36 0 -59.5 24.5t-23.5 59.5q0 36 23.5 60t59.5 24t59 -24t23 -60q0 -35 -23 -59.5t-59 -24.5zM438 768q-36 0 -59.5 24.5t-23.5 59.5q0 36 23.5 60
t59.5 24t59 -24t23 -60q0 -35 -23 -59.5t-59 -24.5z" />
    <glyph glyph-name="Igrave" unicode="&#xcc;" horiz-adv-x="293" 
d="M68 0v706h157v-706h-157zM200 761l-193 104l84 118l159 -149z" />
    <glyph glyph-name="Iacute" unicode="&#xcd;" horiz-adv-x="293" 
d="M68 0v706h157v-706h-157zM75 761l-50 73l159 149l84 -118z" />
    <glyph glyph-name="Icircumflex" unicode="&#xce;" horiz-adv-x="293" 
d="M68 0v706h157v-706h-157zM6 757l-50 66l146 145h88l146 -145l-50 -66l-197 122h116z" />
    <glyph glyph-name="Idieresis" unicode="&#xcf;" horiz-adv-x="293" 
d="M68 0v706h157v-706h-157zM37 768q-36 0 -59.5 24.5t-23.5 59.5q0 36 23.5 60t59.5 24t59 -24t23 -60q0 -35 -23 -59.5t-59 -24.5zM257 768q-36 0 -59.5 24.5t-23.5 59.5q0 36 23.5 60t59.5 24t59 -24t23 -60q0 -35 -23 -59.5t-59 -24.5z" />
    <glyph glyph-name="Eth" unicode="&#xd0;" horiz-adv-x="774" 
d="M21 415h384v-120h-384v120zM194 0v138h175q64 0 112 25.5t74 74.5t26 116t-26.5 115t-74 74t-111.5 26h-180v137h182q80 0 147.5 -25.5t118 -73t78 -112t27.5 -142.5q0 -77 -27.5 -142t-77.5 -112t-117.5 -73t-146.5 -26h-179zM88 0v706h157v-706h-157z" />
    <glyph glyph-name="Ntilde" unicode="&#xd1;" horiz-adv-x="738" 
d="M68 0v706h110l47 -141v-565h-157zM555 0l-416 533l39 173l416 -533zM555 0l-42 141v565h157v-706h-115zM442 762q-32 0 -55.5 11t-43 22t-42.5 11t-39 -9.5t-30 -28.5l-73 72q29 43 61.5 64t75.5 21q32 0 55.5 -11t43.5 -22.5t42 -11.5q24 0 40 9.5t29 29.5l73 -73
q-29 -42 -61.5 -63t-75.5 -21z" />
    <glyph glyph-name="Ograve" unicode="&#xd2;" horiz-adv-x="806" 
d="M405 -12q-80 0 -147.5 28t-118.5 78t-79 116.5t-28 143.5q0 78 28 144t78 115.5t117.5 77t147.5 27.5q79 0 146.5 -27.5t118 -77t78.5 -116t28 -144.5q0 -77 -28 -143.5t-78 -116t-117.5 -77.5t-145.5 -28zM403 131q63 0 110.5 28t73.5 78.5t26 116.5q0 50 -15 90.5
t-43 70t-66.5 45t-85.5 15.5q-63 0 -110.5 -27.5t-73.5 -77t-26 -116.5q0 -50 15 -91t42.5 -70.5t66.5 -45.5t86 -16zM456 761l-193 104l84 118l159 -149z" />
    <glyph glyph-name="Oacute" unicode="&#xd3;" horiz-adv-x="806" 
d="M405 -12q-80 0 -147.5 28t-118.5 78t-79 116.5t-28 143.5q0 78 28 144t78 115.5t117.5 77t147.5 27.5q79 0 146.5 -27.5t118 -77t78.5 -116t28 -144.5q0 -77 -28 -143.5t-78 -116t-117.5 -77.5t-145.5 -28zM403 131q63 0 110.5 28t73.5 78.5t26 116.5q0 50 -15 90.5
t-43 70t-66.5 45t-85.5 15.5q-63 0 -110.5 -27.5t-73.5 -77t-26 -116.5q0 -50 15 -91t42.5 -70.5t66.5 -45.5t86 -16zM331 761l-50 73l159 149l84 -118z" />
    <glyph glyph-name="Ocircumflex" unicode="&#xd4;" horiz-adv-x="806" 
d="M405 -12q-80 0 -147.5 28t-118.5 78t-79 116.5t-28 143.5q0 78 28 144t78 115.5t117.5 77t147.5 27.5q79 0 146.5 -27.5t118 -77t78.5 -116t28 -144.5q0 -77 -28 -143.5t-78 -116t-117.5 -77.5t-145.5 -28zM403 131q63 0 110.5 28t73.5 78.5t26 116.5q0 50 -15 90.5
t-43 70t-66.5 45t-85.5 15.5q-63 0 -110.5 -27.5t-73.5 -77t-26 -116.5q0 -50 15 -91t42.5 -70.5t66.5 -45.5t86 -16zM263 757l-50 66l146 145h88l146 -145l-50 -66l-197 122h116z" />
    <glyph glyph-name="Otilde" unicode="&#xd5;" horiz-adv-x="806" 
d="M405 -12q-80 0 -147.5 28t-118.5 78t-79 116.5t-28 143.5q0 78 28 144t78 115.5t117.5 77t147.5 27.5q79 0 146.5 -27.5t118 -77t78.5 -116t28 -144.5q0 -77 -28 -143.5t-78 -116t-117.5 -77.5t-145.5 -28zM403 131q63 0 110.5 28t73.5 78.5t26 116.5q0 50 -15 90.5
t-43 70t-66.5 45t-85.5 15.5q-63 0 -110.5 -27.5t-73.5 -77t-26 -116.5q0 -50 15 -91t42.5 -70.5t66.5 -45.5t86 -16zM476 762q-32 0 -55.5 11t-43 22t-42.5 11t-39 -9.5t-30 -28.5l-73 72q29 43 61.5 64t75.5 21q32 0 55.5 -11t43.5 -22.5t42 -11.5q24 0 40 9.5t29 29.5
l73 -73q-29 -42 -61.5 -63t-75.5 -21z" />
    <glyph glyph-name="Odieresis" unicode="&#xd6;" horiz-adv-x="806" 
d="M405 -12q-80 0 -147.5 28t-118.5 78t-79 116.5t-28 143.5q0 78 28 144t78 115.5t117.5 77t147.5 27.5q79 0 146.5 -27.5t118 -77t78.5 -116t28 -144.5q0 -77 -28 -143.5t-78 -116t-117.5 -77.5t-145.5 -28zM403 131q63 0 110.5 28t73.5 78.5t26 116.5q0 50 -15 90.5
t-43 70t-66.5 45t-85.5 15.5q-63 0 -110.5 -27.5t-73.5 -77t-26 -116.5q0 -50 15 -91t42.5 -70.5t66.5 -45.5t86 -16zM294 768q-36 0 -59.5 24.5t-23.5 59.5q0 36 23.5 60t59.5 24t59 -24t23 -60q0 -35 -23 -59.5t-59 -24.5zM514 768q-36 0 -59.5 24.5t-23.5 59.5
q0 36 23.5 60t59.5 24t59 -24t23 -60q0 -35 -23 -59.5t-59 -24.5z" />
    <glyph glyph-name="multiply" unicode="&#xd7;" horiz-adv-x="563" 
d="M140 101l-92 92l377 376l92 -91zM416 108l-361 361l92 92l361 -361z" />
    <glyph glyph-name="Oslash" unicode="&#xd8;" horiz-adv-x="806" 
d="M681 730l99 -99l-655 -654l-98 98zM405 -12q-80 0 -147.5 28t-118.5 78t-79 116.5t-28 143.5q0 78 28 144t78 115.5t117.5 77t147.5 27.5q79 0 146.5 -27.5t118 -77t78.5 -116t28 -144.5q0 -77 -28 -143.5t-78 -116t-117.5 -77.5t-145.5 -28zM403 131q63 0 110.5 28
t73.5 78.5t26 116.5q0 50 -15 90.5t-43 70t-66.5 45t-85.5 15.5q-63 0 -110.5 -27.5t-73.5 -77t-26 -116.5q0 -50 15 -91t42.5 -70.5t66.5 -45.5t86 -16z" />
    <glyph glyph-name="Ugrave" unicode="&#xd9;" horiz-adv-x="702" 
d="M352 -11q-87 0 -153.5 37t-104 102.5t-37.5 149.5v428h158v-437q0 -42 18 -73t49.5 -47.5t69.5 -16.5q40 0 70 16.5t47.5 47t17.5 72.5v438h158v-429q0 -84 -37 -149t-103 -102t-153 -37zM404 761l-193 104l84 118l159 -149z" />
    <glyph glyph-name="Uacute" unicode="&#xda;" horiz-adv-x="702" 
d="M352 -11q-87 0 -153.5 37t-104 102.5t-37.5 149.5v428h158v-437q0 -42 18 -73t49.5 -47.5t69.5 -16.5q40 0 70 16.5t47.5 47t17.5 72.5v438h158v-429q0 -84 -37 -149t-103 -102t-153 -37zM279 761l-50 73l159 149l84 -118z" />
    <glyph glyph-name="Ucircumflex" unicode="&#xdb;" horiz-adv-x="702" 
d="M352 -11q-87 0 -153.5 37t-104 102.5t-37.5 149.5v428h158v-437q0 -42 18 -73t49.5 -47.5t69.5 -16.5q40 0 70 16.5t47.5 47t17.5 72.5v438h158v-429q0 -84 -37 -149t-103 -102t-153 -37zM211 757l-50 66l146 145h88l146 -145l-50 -66l-197 122h116z" />
    <glyph glyph-name="Udieresis" unicode="&#xdc;" horiz-adv-x="702" 
d="M352 -11q-87 0 -153.5 37t-104 102.5t-37.5 149.5v428h158v-437q0 -42 18 -73t49.5 -47.5t69.5 -16.5q40 0 70 16.5t47.5 47t17.5 72.5v438h158v-429q0 -84 -37 -149t-103 -102t-153 -37zM242 768q-36 0 -59.5 24.5t-23.5 59.5q0 36 23.5 60t59.5 24t59 -24t23 -60
q0 -35 -23 -59.5t-59 -24.5zM462 768q-36 0 -59.5 24.5t-23.5 59.5q0 36 23.5 60t59.5 24t59 -24t23 -60q0 -35 -23 -59.5t-59 -24.5z" />
    <glyph glyph-name="Yacute" unicode="&#xdd;" horiz-adv-x="687" 
d="M285 263l-272 443h182l209 -358h-117l209 358h178l-274 -443h-115zM266 0v335h157v-335h-157zM272 761l-50 73l159 149l84 -118z" />
    <glyph glyph-name="Thorn" unicode="&#xde;" horiz-adv-x="628" 
d="M188 135v122h152q29 0 53 12t38 35t14 56q0 32 -14 55t-38 35t-53 12h-152v122h175q67 0 121 -27t85.5 -77.5t31.5 -119.5t-31.5 -119.5t-85.5 -78t-121 -27.5h-175zM68 0v706h157v-706h-157z" />
    <glyph glyph-name="germandbls" unicode="&#xdf;" horiz-adv-x="592" 
d="M337 -9q-38 0 -64 8.5t-47 24.5l51 114q9 -6 20 -10.5t29 -4.5q25 0 45 11.5t32 33t12 49.5t-13.5 49.5t-37 34.5t-53.5 13h-44v124h26q23 0 40.5 10t27 29t9.5 44q0 24 -9.5 42t-27.5 28.5t-43 10.5q-38 0 -62 -23t-24 -64v-515h-150v509q0 63 29 114t82.5 81.5
t127.5 30.5q71 0 121 -29t77 -74.5t27 -98.5q0 -55 -26 -96t-75 -63l-6 39q52 -12 88 -40.5t54 -69.5t18 -93q0 -43 -16.5 -82.5t-47.5 -70.5t-74 -48.5t-96 -17.5z" />
    <glyph glyph-name="agrave" unicode="&#xe0;" horiz-adv-x="595" 
d="M257 -10q-67 0 -119.5 33t-83 90t-30.5 130t30.5 130t83 90t119.5 33q49 0 88.5 -19t64.5 -52.5t28 -76.5v-210q-3 -43 -27.5 -76.5t-64.5 -52.5t-89 -19zM288 128q49 0 79 32.5t30 82.5q0 34 -13.5 60t-38 40.5t-56.5 14.5t-56.5 -14.5t-39 -40.5t-14.5 -60
q0 -33 14 -59t39 -41t56 -15zM391 0v131l23 118l-23 118v119h150v-486h-150zM356 541l-193 104l84 118l159 -149z" />
    <glyph glyph-name="aacute" unicode="&#xe1;" horiz-adv-x="595" 
d="M257 -10q-67 0 -119.5 33t-83 90t-30.5 130t30.5 130t83 90t119.5 33q49 0 88.5 -19t64.5 -52.5t28 -76.5v-210q-3 -43 -27.5 -76.5t-64.5 -52.5t-89 -19zM288 128q49 0 79 32.5t30 82.5q0 34 -13.5 60t-38 40.5t-56.5 14.5t-56.5 -14.5t-39 -40.5t-14.5 -60
q0 -33 14 -59t39 -41t56 -15zM391 0v131l23 118l-23 118v119h150v-486h-150zM231 541l-50 73l159 149l84 -118z" />
    <glyph glyph-name="acircumflex" unicode="&#xe2;" horiz-adv-x="595" 
d="M257 -10q-67 0 -119.5 33t-83 90t-30.5 130t30.5 130t83 90t119.5 33q49 0 88.5 -19t64.5 -52.5t28 -76.5v-210q-3 -43 -27.5 -76.5t-64.5 -52.5t-89 -19zM288 128q49 0 79 32.5t30 82.5q0 34 -13.5 60t-38 40.5t-56.5 14.5t-56.5 -14.5t-39 -40.5t-14.5 -60
q0 -33 14 -59t39 -41t56 -15zM391 0v131l23 118l-23 118v119h150v-486h-150zM162 537l-50 66l146 145h88l146 -145l-50 -66l-197 122h116z" />
    <glyph glyph-name="atilde" unicode="&#xe3;" horiz-adv-x="595" 
d="M257 -10q-67 0 -119.5 33t-83 90t-30.5 130t30.5 130t83 90t119.5 33q49 0 88.5 -19t64.5 -52.5t28 -76.5v-210q-3 -43 -27.5 -76.5t-64.5 -52.5t-89 -19zM288 128q49 0 79 32.5t30 82.5q0 34 -13.5 60t-38 40.5t-56.5 14.5t-56.5 -14.5t-39 -40.5t-14.5 -60
q0 -33 14 -59t39 -41t56 -15zM391 0v131l23 118l-23 118v119h150v-486h-150zM376 542q-32 0 -55.5 11t-43 22t-42.5 11t-39 -9.5t-30 -28.5l-73 72q29 43 61.5 64t75.5 21q32 0 55.5 -11t43.5 -22.5t42 -11.5q24 0 40 9.5t29 29.5l73 -73q-29 -42 -61.5 -63t-75.5 -21z" />
    <glyph glyph-name="adieresis" unicode="&#xe4;" horiz-adv-x="595" 
d="M257 -10q-67 0 -119.5 33t-83 90t-30.5 130t30.5 130t83 90t119.5 33q49 0 88.5 -19t64.5 -52.5t28 -76.5v-210q-3 -43 -27.5 -76.5t-64.5 -52.5t-89 -19zM288 128q49 0 79 32.5t30 82.5q0 34 -13.5 60t-38 40.5t-56.5 14.5t-56.5 -14.5t-39 -40.5t-14.5 -60
q0 -33 14 -59t39 -41t56 -15zM391 0v131l23 118l-23 118v119h150v-486h-150zM193 548q-36 0 -59.5 24.5t-23.5 59.5q0 36 23.5 60t59.5 24t59 -24t23 -60q0 -35 -23 -59.5t-59 -24.5zM413 548q-36 0 -59.5 24.5t-23.5 59.5q0 36 23.5 60t59.5 24t59 -24t23 -60
q0 -35 -23 -59.5t-59 -24.5z" />
    <glyph glyph-name="aring" unicode="&#xe5;" horiz-adv-x="595" 
d="M257 -10q-67 0 -119.5 33t-83 90t-30.5 130t30.5 130t83 90t119.5 33q49 0 88.5 -19t64.5 -52.5t28 -76.5v-210q-3 -43 -27.5 -76.5t-64.5 -52.5t-89 -19zM288 128q49 0 79 32.5t30 82.5q0 34 -13.5 60t-38 40.5t-56.5 14.5t-56.5 -14.5t-39 -40.5t-14.5 -60
q0 -33 14 -59t39 -41t56 -15zM391 0v131l23 118l-23 118v119h150v-486h-150zM303 533q-38 0 -67.5 17t-47 46t-17.5 66t17.5 66t47 46.5t67.5 17.5q37 0 66.5 -17.5t46.5 -46.5t17 -66t-17 -66t-46.5 -46t-66.5 -17zM303 617q18 0 30.5 13t12.5 32q0 20 -12.5 32.5
t-30.5 12.5q-20 0 -32 -13t-12 -32t12 -32t32 -13z" />
    <glyph glyph-name="ae" unicode="&#xe6;" horiz-adv-x="935" 
d="M681 -11q-79 0 -140.5 32.5t-96.5 90.5t-35 131t34.5 130.5t93.5 90.5t133 33q72 0 127 -31t86.5 -86t31.5 -126q0 -13 -1.5 -27.5t-5.5 -33.5l-419 -1v105l354 1l-66 -44q-1 42 -13 69.5t-35.5 42t-57.5 14.5q-36 0 -62.5 -16.5t-41 -46.5t-14.5 -73t15.5 -73.5t44 -47
t67.5 -16.5q36 0 65 12.5t51 37.5l84 -84q-36 -42 -87 -63t-112 -21zM257 -10q-67 0 -119.5 33t-83 90t-30.5 130t30.5 130t83 90t119.5 33q49 0 88.5 -19t64.5 -52.5t28 -76.5v-210q-3 -43 -27.5 -76.5t-64.5 -52.5t-89 -19zM288 128q49 0 79 32.5t30 82.5q0 34 -13.5 60
t-38 40.5t-56.5 14.5t-56.5 -14.5t-39 -40.5t-14.5 -60q0 -33 14 -59t39 -41t56 -15zM391 0v131l23 118l-23 118v119h150v-486h-150z" />
    <glyph glyph-name="ccedilla" unicode="&#xe7;" horiz-adv-x="496" 
d="M289 -11q-75 0 -136 33t-96 91t-35 130q0 73 35.5 130.5t96.5 90.5t137 33q57 0 104.5 -19.5t84.5 -58.5l-98 -98q-17 19 -39.5 28t-51.5 9q-33 0 -58.5 -14.5t-40 -40t-14.5 -59.5t14.5 -60t40.5 -41t58 -15q30 0 53.5 10.5t40.5 29.5l97 -98q-38 -40 -86 -60.5
t-107 -20.5zM253 -215q-40 0 -68.5 9.5t-56.5 26.5l47 62q13 -10 28.5 -15.5t34.5 -5.5q21 0 30 6.5t9 15.5t-11 16t-34 7h-32l34 106h86l-26 -73l-44 35q66 1 102.5 -25.5t36.5 -69.5q0 -40 -37 -67.5t-99 -27.5z" />
    <glyph glyph-name="egrave" unicode="&#xe8;" horiz-adv-x="548" 
d="M294 -11q-79 0 -140.5 32.5t-96.5 90.5t-35 131t34.5 130.5t93.5 90.5t133 33q72 0 127 -31t86.5 -86t31.5 -126q0 -13 -1.5 -27.5t-5.5 -33.5l-419 -1v105l354 1l-66 -44q-1 42 -13 69.5t-35.5 42t-57.5 14.5q-36 0 -62.5 -16.5t-41 -46.5t-14.5 -73t15.5 -73.5t44 -47
t67.5 -16.5q36 0 65 12.5t51 37.5l84 -84q-36 -42 -87 -63t-112 -21zM336 541l-193 104l84 118l159 -149z" />
    <glyph glyph-name="eacute" unicode="&#xe9;" horiz-adv-x="548" 
d="M294 -11q-79 0 -140.5 32.5t-96.5 90.5t-35 131t34.5 130.5t93.5 90.5t133 33q72 0 127 -31t86.5 -86t31.5 -126q0 -13 -1.5 -27.5t-5.5 -33.5l-419 -1v105l354 1l-66 -44q-1 42 -13 69.5t-35.5 42t-57.5 14.5q-36 0 -62.5 -16.5t-41 -46.5t-14.5 -73t15.5 -73.5t44 -47
t67.5 -16.5q36 0 65 12.5t51 37.5l84 -84q-36 -42 -87 -63t-112 -21zM211 541l-50 73l159 149l84 -118z" />
    <glyph glyph-name="ecircumflex" unicode="&#xea;" horiz-adv-x="548" 
d="M294 -11q-79 0 -140.5 32.5t-96.5 90.5t-35 131t34.5 130.5t93.5 90.5t133 33q72 0 127 -31t86.5 -86t31.5 -126q0 -13 -1.5 -27.5t-5.5 -33.5l-419 -1v105l354 1l-66 -44q-1 42 -13 69.5t-35.5 42t-57.5 14.5q-36 0 -62.5 -16.5t-41 -46.5t-14.5 -73t15.5 -73.5t44 -47
t67.5 -16.5q36 0 65 12.5t51 37.5l84 -84q-36 -42 -87 -63t-112 -21zM143 537l-50 66l146 145h88l146 -145l-50 -66l-197 122h116z" />
    <glyph glyph-name="edieresis" unicode="&#xeb;" horiz-adv-x="548" 
d="M294 -11q-79 0 -140.5 32.5t-96.5 90.5t-35 131t34.5 130.5t93.5 90.5t133 33q72 0 127 -31t86.5 -86t31.5 -126q0 -13 -1.5 -27.5t-5.5 -33.5l-419 -1v105l354 1l-66 -44q-1 42 -13 69.5t-35.5 42t-57.5 14.5q-36 0 -62.5 -16.5t-41 -46.5t-14.5 -73t15.5 -73.5t44 -47
t67.5 -16.5q36 0 65 12.5t51 37.5l84 -84q-36 -42 -87 -63t-112 -21zM174 548q-36 0 -59.5 24.5t-23.5 59.5q0 36 23.5 60t59.5 24t59 -24t23 -60q0 -35 -23 -59.5t-59 -24.5zM394 548q-36 0 -59.5 24.5t-23.5 59.5q0 36 23.5 60t59.5 24t59 -24t23 -60q0 -35 -23 -59.5
t-59 -24.5z" />
    <glyph glyph-name="igrave" unicode="&#xec;" horiz-adv-x="261" 
d="M54 0v486h153v-486h-153zM184 541l-193 104l84 118l159 -149z" />
    <glyph glyph-name="iacute" unicode="&#xed;" horiz-adv-x="261" 
d="M54 0v486h153v-486h-153zM59 541l-50 73l159 149l84 -118z" />
    <glyph glyph-name="icircumflex" unicode="&#xee;" horiz-adv-x="261" 
d="M54 0v486h153v-486h-153zM-10 537l-50 66l146 145h88l146 -145l-50 -66l-197 122h116z" />
    <glyph glyph-name="idieresis" unicode="&#xef;" horiz-adv-x="261" 
d="M54 0v486h153v-486h-153zM21 548q-36 0 -59.5 24.5t-23.5 59.5q0 36 23.5 60t59.5 24t59 -24t23 -60q0 -35 -23 -59.5t-59 -24.5zM241 548q-36 0 -59.5 24.5t-23.5 59.5q0 36 23.5 60t59.5 24t59 -24t23 -60q0 -35 -23 -59.5t-59 -24.5z" />
    <glyph glyph-name="eth" unicode="&#xf0;" horiz-adv-x="573" 
d="M287 -11q-73 0 -132.5 33t-94.5 89.5t-35 125.5q0 68 32 120.5t85 83t118 30.5q38 0 61.5 -9.5t39 -27t29.5 -41.5l-59 5l-221 308h177l199 -289q63 -92 63 -182q0 -69 -34.5 -124.5t-93.5 -88.5t-134 -33zM287 126q32 0 56.5 15t38.5 41t14 58q0 33 -14 58.5t-38.5 40
t-56.5 14.5q-31 0 -56 -14.5t-39 -40t-14 -58.5q0 -32 14 -58t39 -41t56 -15zM98 480l-34 86l380 140l33 -86z" />
    <glyph glyph-name="ntilde" unicode="&#xf1;" horiz-adv-x="572" 
d="M375 0v277q0 38 -23.5 61.5t-59.5 23.5q-25 0 -44 -10.5t-30 -30t-11 -44.5l-59 29q0 57 25 100t69.5 66.5t100.5 23.5q54 0 95.5 -25.5t65.5 -67.5t24 -92v-311h-153zM54 0v486h153v-486h-153zM360 542q-32 0 -55.5 11t-43 22t-42.5 11t-39 -9.5t-30 -28.5l-73 72
q29 43 61.5 64t75.5 21q32 0 55.5 -11t43.5 -22.5t42 -11.5q24 0 40 9.5t29 29.5l73 -73q-29 -42 -61.5 -63t-75.5 -21z" />
    <glyph glyph-name="ograve" unicode="&#xf2;" horiz-adv-x="576" 
d="M288 -11q-75 0 -135.5 33.5t-95.5 91.5t-35 130t35 129t95 90.5t136 33.5t136 -33t95 -90.5t35 -129.5t-35 -130t-95 -91.5t-136 -33.5zM288 128q33 0 58 14.5t38.5 41t13.5 60.5t-14 59.5t-38.5 40t-57.5 14.5q-32 0 -57 -14.5t-39 -40.5t-14 -60q0 -33 14 -59.5t39 -41
t57 -14.5zM341 541l-193 104l84 118l159 -149z" />
    <glyph glyph-name="oacute" unicode="&#xf3;" horiz-adv-x="576" 
d="M288 -11q-75 0 -135.5 33.5t-95.5 91.5t-35 130t35 129t95 90.5t136 33.5t136 -33t95 -90.5t35 -129.5t-35 -130t-95 -91.5t-136 -33.5zM288 128q33 0 58 14.5t38.5 41t13.5 60.5t-14 59.5t-38.5 40t-57.5 14.5q-32 0 -57 -14.5t-39 -40.5t-14 -60q0 -33 14 -59.5t39 -41
t57 -14.5zM216 541l-50 73l159 149l84 -118z" />
    <glyph glyph-name="ocircumflex" unicode="&#xf4;" horiz-adv-x="576" 
d="M288 -11q-75 0 -135.5 33.5t-95.5 91.5t-35 130t35 129t95 90.5t136 33.5t136 -33t95 -90.5t35 -129.5t-35 -130t-95 -91.5t-136 -33.5zM288 128q33 0 58 14.5t38.5 41t13.5 60.5t-14 59.5t-38.5 40t-57.5 14.5q-32 0 -57 -14.5t-39 -40.5t-14 -60q0 -33 14 -59.5t39 -41
t57 -14.5zM148 537l-50 66l146 145h88l146 -145l-50 -66l-197 122h116z" />
    <glyph glyph-name="otilde" unicode="&#xf5;" horiz-adv-x="576" 
d="M288 -11q-75 0 -135.5 33.5t-95.5 91.5t-35 130t35 129t95 90.5t136 33.5t136 -33t95 -90.5t35 -129.5t-35 -130t-95 -91.5t-136 -33.5zM288 128q33 0 58 14.5t38.5 41t13.5 60.5t-14 59.5t-38.5 40t-57.5 14.5q-32 0 -57 -14.5t-39 -40.5t-14 -60q0 -33 14 -59.5t39 -41
t57 -14.5zM361 542q-32 0 -55.5 11t-43 22t-42.5 11t-39 -9.5t-30 -28.5l-73 72q29 43 61.5 64t75.5 21q32 0 55.5 -11t43.5 -22.5t42 -11.5q24 0 40 9.5t29 29.5l73 -73q-29 -42 -61.5 -63t-75.5 -21z" />
    <glyph glyph-name="odieresis" unicode="&#xf6;" horiz-adv-x="576" 
d="M288 -11q-75 0 -135.5 33.5t-95.5 91.5t-35 130t35 129t95 90.5t136 33.5t136 -33t95 -90.5t35 -129.5t-35 -130t-95 -91.5t-136 -33.5zM288 128q33 0 58 14.5t38.5 41t13.5 60.5t-14 59.5t-38.5 40t-57.5 14.5q-32 0 -57 -14.5t-39 -40.5t-14 -60q0 -33 14 -59.5t39 -41
t57 -14.5zM179 548q-36 0 -59.5 24.5t-23.5 59.5q0 36 23.5 60t59.5 24t59 -24t23 -60q0 -35 -23 -59.5t-59 -24.5zM399 548q-36 0 -59.5 24.5t-23.5 59.5q0 36 23.5 60t59.5 24t59 -24t23 -60q0 -35 -23 -59.5t-59 -24.5z" />
    <glyph glyph-name="divide" unicode="&#xf7;" horiz-adv-x="563" 
d="M49 271v127h465v-127h-465zM282 439q-34 0 -57 23.5t-23 57.5t23 57.5t57 23.5q35 0 57.5 -23.5t22.5 -57.5t-22.5 -57.5t-57.5 -23.5zM282 69q-34 0 -57 23.5t-23 57.5q0 35 23 58.5t57 23.5q35 0 57.5 -23.5t22.5 -58.5q0 -34 -22.5 -57.5t-57.5 -23.5z" />
    <glyph glyph-name="oslash" unicode="&#xf8;" horiz-adv-x="576" 
d="M88 -30l-72 72l472 473l72 -72zM287 -11q-75 0 -135 33.5t-95 91.5t-35 130t35 129t95 90.5t136 33.5t136 -33t95 -90.5t35 -129.5t-35 -130t-95.5 -91.5t-136.5 -33.5zM287 113q38 0 66 16.5t44 46t16 67.5q0 39 -16 68.5t-44 46t-66 16.5q-36 0 -64.5 -16.5
t-44.5 -45.5t-16 -68t16 -68.5t44 -46t65 -16.5z" />
    <glyph glyph-name="ugrave" unicode="&#xf9;" horiz-adv-x="539" 
d="M270 -11q-67 0 -118.5 27.5t-80.5 76t-29 111.5v282h153v-280q0 -25 8.5 -43t25.5 -28t41 -10q34 0 54 21.5t20 59.5v280h153v-281q0 -64 -29 -112.5t-80 -76t-118 -27.5zM323 541l-193 104l84 118l159 -149z" />
    <glyph glyph-name="uacute" unicode="&#xfa;" horiz-adv-x="539" 
d="M270 -11q-67 0 -118.5 27.5t-80.5 76t-29 111.5v282h153v-280q0 -25 8.5 -43t25.5 -28t41 -10q34 0 54 21.5t20 59.5v280h153v-281q0 -64 -29 -112.5t-80 -76t-118 -27.5zM198 541l-50 73l159 149l84 -118z" />
    <glyph glyph-name="ucircumflex" unicode="&#xfb;" horiz-adv-x="539" 
d="M270 -11q-67 0 -118.5 27.5t-80.5 76t-29 111.5v282h153v-280q0 -25 8.5 -43t25.5 -28t41 -10q34 0 54 21.5t20 59.5v280h153v-281q0 -64 -29 -112.5t-80 -76t-118 -27.5zM130 537l-50 66l146 145h88l146 -145l-50 -66l-197 122h116z" />
    <glyph glyph-name="udieresis" unicode="&#xfc;" horiz-adv-x="539" 
d="M270 -11q-67 0 -118.5 27.5t-80.5 76t-29 111.5v282h153v-280q0 -25 8.5 -43t25.5 -28t41 -10q34 0 54 21.5t20 59.5v280h153v-281q0 -64 -29 -112.5t-80 -76t-118 -27.5zM161 548q-36 0 -59.5 24.5t-23.5 59.5q0 36 23.5 60t59.5 24t59 -24t23 -60q0 -35 -23 -59.5
t-59 -24.5zM381 548q-36 0 -59.5 24.5t-23.5 59.5q0 36 23.5 60t59.5 24t59 -24t23 -60q0 -35 -23 -59.5t-59 -24.5z" />
    <glyph glyph-name="yacute" unicode="&#xfd;" horiz-adv-x="534" 
d="M204 -2l-200 488h165l127 -387h-61l130 387h165l-208 -488h-118zM79 -205l146 315l97 -112l-86 -203h-157zM195 541l-50 73l159 149l84 -118z" />
    <glyph glyph-name="thorn" unicode="&#xfe;" horiz-adv-x="595" 
d="M334 -10q-49 0 -90 19t-67 52.5t-30 76.5v205q4 43 30 78t67 55t90 20q69 0 122.5 -33t84 -90t30.5 -130t-30.5 -130t-84 -90t-122.5 -33zM54 -205v931h153v-365l-25 -118l23 -118v-330h-151zM307 128q32 0 56.5 14.5t38.5 40.5t14 60t-14 60t-38.5 40.5t-56.5 14.5
t-56.5 -14.5t-38.5 -40.5t-14 -60q0 -33 13.5 -59t38 -41t57.5 -15z" />
    <glyph glyph-name="ydieresis" unicode="&#xff;" horiz-adv-x="534" 
d="M204 -2l-200 488h165l127 -387h-61l130 387h165l-208 -488h-118zM79 -205l146 315l97 -112l-86 -203h-157zM158 548q-36 0 -59.5 24.5t-23.5 59.5q0 36 23.5 60t59.5 24t59 -24t23 -60q0 -35 -23 -59.5t-59 -24.5zM378 548q-36 0 -59.5 24.5t-23.5 59.5q0 36 23.5 60
t59.5 24t59 -24t23 -60q0 -35 -23 -59.5t-59 -24.5z" />
    <glyph glyph-name="Amacron" unicode="&#x100;" horiz-adv-x="729" 
d="M15 0l280 706h142l277 -706h-166l-212 586h57l-215 -586h-163zM174 128v128h385v-128h-385zM173 910h384v-113h-384v113z" />
    <glyph glyph-name="amacron" unicode="&#x101;" horiz-adv-x="595" 
d="M257 -10q-67 0 -119.5 33t-83 90t-30.5 130t30.5 130t83 90t119.5 33q49 0 88.5 -19t64.5 -52.5t28 -76.5v-210q-3 -43 -27.5 -76.5t-64.5 -52.5t-89 -19zM288 128q49 0 79 32.5t30 82.5q0 34 -13.5 60t-38 40.5t-56.5 14.5t-56.5 -14.5t-39 -40.5t-14.5 -60
q0 -33 14 -59t39 -41t56 -15zM391 0v131l23 118l-23 118v119h150v-486h-150zM111 690h384v-113h-384v113z" />
    <glyph glyph-name="Abreve" unicode="&#x102;" horiz-adv-x="729" 
d="M15 0l280 706h142l277 -706h-166l-212 586h57l-215 -586h-163zM174 128v128h385v-128h-385zM554 941q0 -53 -25 -95.5t-67.5 -67.5t-96.5 -25t-97 25t-68.5 67.5t-25.5 95.5h120q0 -31 19.5 -52t52.5 -21q20 0 35 9.5t24.5 26t9.5 37.5h119z" />
    <glyph glyph-name="abreve" unicode="&#x103;" horiz-adv-x="595" 
d="M257 -10q-67 0 -119.5 33t-83 90t-30.5 130t30.5 130t83 90t119.5 33q49 0 88.5 -19t64.5 -52.5t28 -76.5v-210q-3 -43 -27.5 -76.5t-64.5 -52.5t-89 -19zM288 128q49 0 79 32.5t30 82.5q0 34 -13.5 60t-38 40.5t-56.5 14.5t-56.5 -14.5t-39 -40.5t-14.5 -60
q0 -33 14 -59t39 -41t56 -15zM391 0v131l23 118l-23 118v119h150v-486h-150zM492 721q0 -53 -25 -95.5t-67.5 -67.5t-96.5 -25t-97 25t-68.5 67.5t-25.5 95.5h120q0 -31 19.5 -52t52.5 -21q20 0 35 9.5t24.5 26t9.5 37.5h119z" />
    <glyph glyph-name="Aogonek" unicode="&#x104;" horiz-adv-x="729" 
d="M15 0l280 706h142l277 -706h-166l-212 586h57l-215 -586h-163zM174 128v128h385v-128h-385zM637 -215q-63 0 -103.5 27.5t-40.5 83.5q0 52 35 87.5t94 48.5l92 -32q-39 -14 -61.5 -34.5t-22.5 -50.5q0 -17 9.5 -27t27.5 -10q12 0 22 4t19 9l32 -80q-19 -11 -44.5 -18.5
t-58.5 -7.5z" />
    <glyph glyph-name="aogonek" unicode="&#x105;" horiz-adv-x="595" 
d="M257 -10q-67 0 -119.5 33t-83 90t-30.5 130t30.5 130t83 90t119.5 33q49 0 88.5 -19t64.5 -52.5t28 -76.5v-210q-3 -43 -27.5 -76.5t-64.5 -52.5t-89 -19zM288 128q49 0 79 32.5t30 82.5q0 34 -13.5 60t-38 40.5t-56.5 14.5t-56.5 -14.5t-39 -40.5t-14.5 -60
q0 -33 14 -59t39 -41t56 -15zM391 0v131l23 118l-23 118v119h150v-486h-150zM464 -215q-63 0 -103.5 27.5t-40.5 83.5q0 52 35 87.5t94 48.5l92 -32q-39 -14 -61.5 -34.5t-22.5 -50.5q0 -17 9.5 -27t27.5 -10q12 0 22 4t19 9l32 -80q-19 -11 -44.5 -18.5t-58.5 -7.5z" />
    <glyph glyph-name="Cacute" unicode="&#x106;" horiz-adv-x="689" 
d="M403 -11q-79 0 -146.5 27.5t-118 77.5t-78.5 116.5t-28 143.5t28 143.5t78 115.5t117.5 76.5t146.5 27.5q84 0 149.5 -27t114.5 -74l-105 -106q-28 30 -67.5 47t-91.5 17q-46 0 -84.5 -15.5t-66 -44.5t-43 -70t-15.5 -90q0 -50 15.5 -91t43 -70t66 -45t84.5 -16
q54 0 94 17t69 47l106 -106q-51 -47 -116.5 -74t-151.5 -27zM317 761l-50 73l159 149l84 -118z" />
    <glyph glyph-name="cacute" unicode="&#x107;" horiz-adv-x="496" 
d="M289 -11q-75 0 -136 33t-96 91t-35 130q0 73 35.5 130.5t96.5 90.5t137 33q57 0 104.5 -19.5t84.5 -58.5l-98 -98q-17 19 -39.5 28t-51.5 9q-33 0 -58.5 -14.5t-40 -40t-14.5 -59.5t14.5 -60t40.5 -41t58 -15q30 0 53.5 10.5t40.5 29.5l97 -98q-38 -40 -86 -60.5
t-107 -20.5zM213 541l-50 73l159 149l84 -118z" />
    <glyph glyph-name="Cdotaccent" unicode="&#x10a;" horiz-adv-x="689" 
d="M403 -11q-79 0 -146.5 27.5t-118 77.5t-78.5 116.5t-28 143.5t28 143.5t78 115.5t117.5 76.5t146.5 27.5q84 0 149.5 -27t114.5 -74l-105 -106q-28 30 -67.5 47t-91.5 17q-46 0 -84.5 -15.5t-66 -44.5t-43 -70t-15.5 -90q0 -50 15.5 -91t43 -70t66 -45t84.5 -16
q54 0 94 17t69 47l106 -106q-51 -47 -116.5 -74t-151.5 -27zM389 768q-36 0 -59.5 24.5t-23.5 59.5q0 36 23.5 60t59.5 24t59 -24t23 -60q0 -35 -23 -59.5t-59 -24.5z" />
    <glyph glyph-name="cdotaccent" unicode="&#x10b;" horiz-adv-x="496" 
d="M289 -11q-75 0 -136 33t-96 91t-35 130q0 73 35.5 130.5t96.5 90.5t137 33q57 0 104.5 -19.5t84.5 -58.5l-98 -98q-17 19 -39.5 28t-51.5 9q-33 0 -58.5 -14.5t-40 -40t-14.5 -59.5t14.5 -60t40.5 -41t58 -15q30 0 53.5 10.5t40.5 29.5l97 -98q-38 -40 -86 -60.5
t-107 -20.5zM286 548q-36 0 -59.5 24.5t-23.5 59.5q0 36 23.5 60t59.5 24t59 -24t23 -60q0 -35 -23 -59.5t-59 -24.5z" />
    <glyph glyph-name="Ccaron" unicode="&#x10c;" horiz-adv-x="689" 
d="M403 -11q-79 0 -146.5 27.5t-118 77.5t-78.5 116.5t-28 143.5t28 143.5t78 115.5t117.5 76.5t146.5 27.5q84 0 149.5 -27t114.5 -74l-105 -106q-28 30 -67.5 47t-91.5 17q-46 0 -84.5 -15.5t-66 -44.5t-43 -70t-15.5 -90q0 -50 15.5 -91t43 -70t66 -45t84.5 -16
q54 0 94 17t69 47l106 -106q-51 -47 -116.5 -74t-151.5 -27zM528 968l50 -66l-146 -145h-88l-146 145l50 66l198 -122l-116 1z" />
    <glyph glyph-name="ccaron" unicode="&#x10d;" horiz-adv-x="496" 
d="M289 -11q-75 0 -136 33t-96 91t-35 130q0 73 35.5 130.5t96.5 90.5t137 33q57 0 104.5 -19.5t84.5 -58.5l-98 -98q-17 19 -39.5 28t-51.5 9q-33 0 -58.5 -14.5t-40 -40t-14.5 -59.5t14.5 -60t40.5 -41t58 -15q30 0 53.5 10.5t40.5 29.5l97 -98q-38 -40 -86 -60.5
t-107 -20.5zM425 748l50 -66l-146 -145h-88l-146 145l50 66l197 -122l-116 1z" />
    <glyph glyph-name="Dcaron" unicode="&#x10e;" horiz-adv-x="754" 
d="M174 0v138h175q64 0 112 25.5t74 74.5t26 116t-26.5 115t-74 74t-111.5 26h-180v137h182q80 0 147.5 -25.5t118 -73t78 -112t27.5 -142.5q0 -77 -27.5 -142t-77.5 -112t-117.5 -73t-146.5 -26h-179zM68 0v706h157v-706h-157zM490 968l50 -66l-146 -145h-88l-146 145
l50 66l198 -122l-116 1z" />
    <glyph glyph-name="dcaron" unicode="&#x10f;" horiz-adv-x="816" 
d="M261 -10q-69 0 -122.5 33t-84 90t-30.5 130t30.5 130t84 90t122.5 33q50 0 90.5 -19t67 -52.5t29.5 -76.5v-205q-3 -43 -29 -77.5t-67 -55t-91 -20.5zM288 128q33 0 57 14.5t38 40.5t14 60t-13.5 59.5t-38 40.5t-56.5 15t-56.5 -15t-39 -41t-14.5 -59t14 -59t39 -41
t56 -15zM541 0h-150v131l23 118l-26 118v359h153v-726zM661 372l-74 40l73 137l45 12q-7 -14 -17 -24t-23 -10q-29 0 -53 24t-24 61q0 39 26.5 66.5t65.5 27.5q37 0 64.5 -27.5t27.5 -66.5q0 -16 -6 -37.5t-24 -54.5z" />
    <glyph glyph-name="Dcroat" unicode="&#x110;" horiz-adv-x="780" 
d="M0 291v124h460v-124h-460zM200 0v138h175q64 0 112 25.5t74 74.5t26 116t-26.5 115t-74 74t-111.5 26h-180v137h182q80 0 147.5 -25.5t118 -73t78 -112t27.5 -142.5q0 -77 -27.5 -142t-77.5 -112t-117.5 -73t-146.5 -26h-179zM94 0v706h157v-706h-157z" />
    <glyph glyph-name="dcroat" unicode="&#x111;" horiz-adv-x="600" 
d="M246 540v134h354v-134h-354zM261 -10q-69 0 -122.5 33t-84 90t-30.5 130t30.5 130t84 90t122.5 33q50 0 90.5 -19t67 -52.5t29.5 -76.5v-205q-3 -43 -29 -77.5t-67 -55t-91 -20.5zM288 128q33 0 57 14.5t38 40.5t14 60t-13.5 59.5t-38 40.5t-56.5 15t-56.5 -15t-39 -41
t-14.5 -59t14 -59t39 -41t56 -15zM541 0h-150v131l23 118l-26 118v359h153v-726z" />
    <glyph glyph-name="Emacron" unicode="&#x112;" horiz-adv-x="615" 
d="M68 0v706h157v-706h-157zM188 0v136h387v-136h-387zM188 295v131h352v-131h-352zM188 571v135h382v-135h-382zM136 910h384v-113h-384v113z" />
    <glyph glyph-name="emacron" unicode="&#x113;" horiz-adv-x="548" 
d="M294 -11q-79 0 -140.5 32.5t-96.5 90.5t-35 131t34.5 130.5t93.5 90.5t133 33q72 0 127 -31t86.5 -86t31.5 -126q0 -13 -1.5 -27.5t-5.5 -33.5l-419 -1v105l354 1l-66 -44q-1 42 -13 69.5t-35.5 42t-57.5 14.5q-36 0 -62.5 -16.5t-41 -46.5t-14.5 -73t15.5 -73.5t44 -47
t67.5 -16.5q36 0 65 12.5t51 37.5l84 -84q-36 -42 -87 -63t-112 -21zM91 690h384v-113h-384v113z" />
    <glyph glyph-name="Edotaccent" unicode="&#x116;" horiz-adv-x="615" 
d="M68 0v706h157v-706h-157zM188 0v136h387v-136h-387zM188 295v131h352v-131h-352zM188 571v135h382v-135h-382zM328 768q-36 0 -59.5 24.5t-23.5 59.5q0 36 23.5 60t59.5 24t59 -24t23 -60q0 -35 -23 -59.5t-59 -24.5z" />
    <glyph glyph-name="edotaccent" unicode="&#x117;" horiz-adv-x="548" 
d="M294 -11q-79 0 -140.5 32.5t-96.5 90.5t-35 131t34.5 130.5t93.5 90.5t133 33q72 0 127 -31t86.5 -86t31.5 -126q0 -13 -1.5 -27.5t-5.5 -33.5l-419 -1v105l354 1l-66 -44q-1 42 -13 69.5t-35.5 42t-57.5 14.5q-36 0 -62.5 -16.5t-41 -46.5t-14.5 -73t15.5 -73.5t44 -47
t67.5 -16.5q36 0 65 12.5t51 37.5l84 -84q-36 -42 -87 -63t-112 -21zM284 548q-36 0 -59.5 24.5t-23.5 59.5q0 36 23.5 60t59.5 24t59 -24t23 -60q0 -35 -23 -59.5t-59 -24.5z" />
    <glyph glyph-name="Eogonek" unicode="&#x118;" horiz-adv-x="615" 
d="M68 0v706h157v-706h-157zM188 0v136h387v-136h-387zM188 295v131h352v-131h-352zM188 571v135h382v-135h-382zM498 -215q-63 0 -103.5 27.5t-40.5 83.5q0 52 35 87.5t94 48.5l92 -32q-39 -14 -61.5 -34.5t-22.5 -50.5q0 -17 9.5 -27t27.5 -10q12 0 22 4t19 9l32 -80
q-19 -11 -44.5 -18.5t-58.5 -7.5z" />
    <glyph glyph-name="eogonek" unicode="&#x119;" horiz-adv-x="548" 
d="M294 -11q-79 0 -140.5 32.5t-96.5 90.5t-35 131t34.5 130.5t93.5 90.5t133 33q72 0 127 -31t86.5 -86t31.5 -126q0 -13 -1.5 -27.5t-5.5 -33.5l-419 -1v105l354 1l-66 -44q-1 42 -13 69.5t-35.5 42t-57.5 14.5q-36 0 -62.5 -16.5t-41 -46.5t-14.5 -73t15.5 -73.5t44 -47
t67.5 -16.5q36 0 65 12.5t51 37.5l84 -84q-36 -42 -87 -63t-112 -21zM327 -205q-63 0 -103.5 27.5t-40.5 83.5q0 52 35 87.5t94 48.5l92 -32q-39 -14 -61.5 -34.5t-22.5 -50.5q0 -17 9.5 -27t27.5 -10q12 0 22 4t19 9l32 -80q-19 -11 -44.5 -18.5t-58.5 -7.5z" />
    <glyph glyph-name="Ecaron" unicode="&#x11a;" horiz-adv-x="615" 
d="M68 0v706h157v-706h-157zM188 0v136h387v-136h-387zM188 295v131h352v-131h-352zM188 571v135h382v-135h-382zM467 968l50 -66l-146 -145h-88l-146 145l50 66l198 -122l-116 1z" />
    <glyph glyph-name="ecaron" unicode="&#x11b;" horiz-adv-x="548" 
d="M294 -11q-79 0 -140.5 32.5t-96.5 90.5t-35 131t34.5 130.5t93.5 90.5t133 33q72 0 127 -31t86.5 -86t31.5 -126q0 -13 -1.5 -27.5t-5.5 -33.5l-419 -1v105l354 1l-66 -44q-1 42 -13 69.5t-35.5 42t-57.5 14.5q-36 0 -62.5 -16.5t-41 -46.5t-14.5 -73t15.5 -73.5t44 -47
t67.5 -16.5q36 0 65 12.5t51 37.5l84 -84q-36 -42 -87 -63t-112 -21zM423 748l50 -66l-146 -145h-88l-146 145l50 66l197 -122l-116 1z" />
    <glyph glyph-name="Gbreve" unicode="&#x11e;" horiz-adv-x="785" 
d="M401 -11q-77 0 -144.5 28t-117.5 77.5t-78.5 116t-28.5 143.5t29 143t80.5 115.5t120.5 77t148 27.5q91 0 165.5 -33t123.5 -91l-107 -107q-34 44 -80 66t-104 22q-62 0 -111 -27.5t-76.5 -77t-27.5 -115.5t27 -116t74 -78t108 -28q62 0 105.5 23.5t67 68t23.5 108.5
l104 -70l-315 5v133h371v-23q0 -127 -45.5 -213.5t-126 -130.5t-185.5 -44zM593 941q0 -53 -25 -95.5t-67.5 -67.5t-96.5 -25t-97 25t-68.5 67.5t-25.5 95.5h120q0 -31 19.5 -52t52.5 -21q20 0 35 9.5t24.5 26t9.5 37.5h119z" />
    <glyph glyph-name="gbreve" unicode="&#x11f;" horiz-adv-x="584" 
d="M260 -218q-80 0 -140.5 27.5t-95.5 77.5l94 94q26 -31 58.5 -47t78.5 -16q57 0 89.5 28t32.5 79v124l26 106l-23 106v125h150v-457q0 -75 -35 -130t-96 -86t-139 -31zM253 15q-67 0 -119 32t-82 87t-30 122q0 68 30 122.5t82 86t119 31.5q50 0 89.5 -18.5t64 -52
t27.5 -77.5v-185q-3 -43 -27.5 -76.5t-64.5 -52.5t-89 -19zM282 151q32 0 55.5 14t36 37.5t12.5 53.5t-12.5 54t-36 38t-55.5 14q-31 0 -55 -14t-37 -38t-13 -54q0 -28 13 -52.5t36.5 -38.5t55.5 -14zM492 721q0 -53 -25 -95.5t-67.5 -67.5t-96.5 -25t-97 25t-68.5 67.5
t-25.5 95.5h120q0 -31 19.5 -52t52.5 -21q20 0 35 9.5t24.5 26t9.5 37.5h119z" />
    <glyph glyph-name="Gdotaccent" unicode="&#x120;" horiz-adv-x="785" 
d="M401 -11q-77 0 -144.5 28t-117.5 77.5t-78.5 116t-28.5 143.5t29 143t80.5 115.5t120.5 77t148 27.5q91 0 165.5 -33t123.5 -91l-107 -107q-34 44 -80 66t-104 22q-62 0 -111 -27.5t-76.5 -77t-27.5 -115.5t27 -116t74 -78t108 -28q62 0 105.5 23.5t67 68t23.5 108.5
l104 -70l-315 5v133h371v-23q0 -127 -45.5 -213.5t-126 -130.5t-185.5 -44zM404 768q-36 0 -59.5 24.5t-23.5 59.5q0 36 23.5 60t59.5 24t59 -24t23 -60q0 -35 -23 -59.5t-59 -24.5z" />
    <glyph glyph-name="gdotaccent" unicode="&#x121;" horiz-adv-x="584" 
d="M260 -218q-80 0 -140.5 27.5t-95.5 77.5l94 94q26 -31 58.5 -47t78.5 -16q57 0 89.5 28t32.5 79v124l26 106l-23 106v125h150v-457q0 -75 -35 -130t-96 -86t-139 -31zM253 15q-67 0 -119 32t-82 87t-30 122q0 68 30 122.5t82 86t119 31.5q50 0 89.5 -18.5t64 -52
t27.5 -77.5v-185q-3 -43 -27.5 -76.5t-64.5 -52.5t-89 -19zM282 151q32 0 55.5 14t36 37.5t12.5 53.5t-12.5 54t-36 38t-55.5 14q-31 0 -55 -14t-37 -38t-13 -54q0 -28 13 -52.5t36.5 -38.5t55.5 -14zM303 548q-36 0 -59.5 24.5t-23.5 59.5q0 36 23.5 60t59.5 24t59 -24
t23 -60q0 -35 -23 -59.5t-59 -24.5z" />
    <glyph glyph-name="uni0122" unicode="&#x122;" horiz-adv-x="785" 
d="M401 -11q-77 0 -144.5 28t-117.5 77.5t-78.5 116t-28.5 143.5t29 143t80.5 115.5t120.5 77t148 27.5q91 0 165.5 -33t123.5 -91l-107 -107q-34 44 -80 66t-104 22q-62 0 -111 -27.5t-76.5 -77t-27.5 -115.5t27 -116t74 -78t108 -28q62 0 105.5 23.5t67 68t23.5 108.5
l104 -70l-315 5v133h371v-23q0 -127 -45.5 -213.5t-126 -130.5t-185.5 -44zM355 -397l-67 51l90 124l47 5q-9 -13 -20.5 -21t-24.5 -6q-28 4 -47.5 31.5t-14.5 63.5q6 38 36 61t69 17q36 -6 59 -37t16 -70q-2 -15 -11.5 -35t-32.5 -50z" />
    <glyph glyph-name="uni0123" unicode="&#x123;" horiz-adv-x="584" 
d="M260 -218q-80 0 -140.5 27.5t-95.5 77.5l94 94q26 -31 58.5 -47t78.5 -16q57 0 89.5 28t32.5 79v124l26 106l-23 106v125h150v-457q0 -75 -35 -130t-96 -86t-139 -31zM253 15q-67 0 -119 32t-82 87t-30 122q0 68 30 122.5t82 86t119 31.5q50 0 89.5 -18.5t64 -52
t27.5 -77.5v-185q-3 -43 -27.5 -76.5t-64.5 -52.5t-89 -19zM282 151q32 0 55.5 14t36 37.5t12.5 53.5t-12.5 54t-36 38t-55.5 14q-31 0 -55 -14t-37 -38t-13 -54q0 -28 13 -52.5t36.5 -38.5t55.5 -14zM411 803l-91 -124l-47 -6q10 14 21.5 21.5t23.5 6.5q29 -5 48.5 -32
t13.5 -63q-6 -38 -35.5 -61.5t-68.5 -17.5q-37 6 -59.5 37t-16.5 70q3 16 12 36t32 50l100 134z" />
    <glyph glyph-name="Hbar" unicode="&#x126;" horiz-adv-x="730" 
d="M0 503v122h730v-122h-730zM68 0v706h157v-706h-157zM505 0v706h158v-706h-158zM162 295v136h395v-136h-395z" />
    <glyph glyph-name="hbar" unicode="&#x127;" horiz-adv-x="572" 
d="M0 540v134h354v-134h-354zM375 0v277q0 38 -23.5 61.5t-59.5 23.5q-25 0 -44 -10.5t-30 -30t-11 -44.5l-59 29q0 57 24 100t67 66.5t99 23.5q57 0 100 -23.5t66.5 -65t23.5 -96.5v-311h-153zM54 0v726h153v-726h-153z" />
    <glyph glyph-name="Imacron" unicode="&#x12a;" horiz-adv-x="293" 
d="M-36 910h366v-113h-366v113zM68 0v706h157v-706h-157z" />
    <glyph glyph-name="imacron" unicode="&#x12b;" horiz-adv-x="261" 
d="M-52 690h366v-113h-366v113zM54 0v486h153v-486h-153z" />
    <glyph glyph-name="Iogonek" unicode="&#x12e;" horiz-adv-x="293" 
d="M68 0v706h157v-706h-157zM148 -215q-63 0 -103.5 27.5t-40.5 83.5q0 52 35 87.5t94 48.5l92 -32q-39 -14 -61.5 -34.5t-22.5 -50.5q0 -17 9.5 -27t27.5 -10q12 0 22 4t19 9l32 -80q-19 -11 -44.5 -18.5t-58.5 -7.5z" />
    <glyph glyph-name="iogonek" unicode="&#x12f;" horiz-adv-x="261" 
d="M54 0v486h153v-486h-153zM131 553q-36 0 -59.5 24.5t-23.5 59.5q0 36 23.5 60t59.5 24t59 -24t23 -60q0 -35 -23 -59.5t-59 -24.5zM130 -215q-63 0 -103.5 27.5t-40.5 83.5q0 52 35 87.5t94 48.5l92 -32q-39 -14 -61.5 -34.5t-22.5 -50.5q0 -17 9.5 -27t27.5 -10
q12 0 22 4t19 9l32 -80q-19 -11 -44.5 -18.5t-58.5 -7.5z" />
    <glyph glyph-name="Idotaccent" unicode="&#x130;" horiz-adv-x="293" 
d="M68 0v706h157v-706h-157zM147 768q-36 0 -59.5 24.5t-23.5 59.5q0 36 23.5 60t59.5 24t59 -24t23 -60q0 -35 -23 -59.5t-59 -24.5z" />
    <glyph glyph-name="dotlessi" unicode="&#x131;" horiz-adv-x="261" 
d="M54 0v486h153v-486h-153z" />
    <glyph glyph-name="IJ" unicode="&#x132;" horiz-adv-x="690" 
d="M373 -11q-67 0 -116.5 24.5t-84.5 68.5l105 101q18 -25 42.5 -38t55.5 -13q30 0 52 12.5t35 36t13 58.5v467h158v-458q0 -79 -32 -137t-90 -90t-138 -32zM68 220v486h153v-486h-153z" />
    <glyph glyph-name="ij" unicode="&#x133;" horiz-adv-x="534" 
d="M54 0v486h153v-486h-153zM131 553q-36 0 -59.5 24.5t-23.5 59.5q0 36 23.5 60t59.5 24t59 -24t23 -60q0 -35 -23 -59.5t-59 -24.5zM287 -218q-53 0 -90 17.5t-65 49.5l95 95q11 -13 22.5 -18.5t26.5 -5.5q22 0 36.5 13t14.5 40v513h153v-511q0 -59 -25 -102t-68.5 -67
t-99.5 -24zM405 553q-36 0 -59.5 24.5t-23.5 59.5q0 36 23.5 60t59.5 24t59 -24t23 -60q0 -35 -23 -59.5t-59 -24.5z" />
    <glyph glyph-name="uni0136" unicode="&#x136;" horiz-adv-x="705" 
d="M495 0l-286 368l277 338h194l-312 -367v64l322 -403h-195zM68 0v706h157v-706h-157zM282 -397l-67 51l90 124l47 5q-9 -13 -20.5 -21t-24.5 -6q-28 4 -47.5 31.5t-14.5 63.5q6 38 36 61t69 17q36 -6 59 -37t16 -70q-2 -15 -11.5 -35t-32.5 -50z" />
    <glyph glyph-name="uni0137" unicode="&#x137;" horiz-adv-x="546" 
d="M365 0l-170 252l169 234h171l-204 -263l5 63l209 -286h-180zM54 0v726h153v-726h-153zM236 -397l-67 51l90 124l47 5q-9 -13 -20.5 -21t-24.5 -6q-28 4 -47.5 31.5t-14.5 63.5q6 38 36 61t69 17q36 -6 59 -37t16 -70q-2 -15 -11.5 -35t-32.5 -50z" />
    <glyph glyph-name="Lacute" unicode="&#x139;" horiz-adv-x="561" 
d="M68 0v706h157v-706h-157zM189 0v138h349v-138h-349zM231 761l-50 73l159 149l84 -118z" />
    <glyph glyph-name="lacute" unicode="&#x13a;" horiz-adv-x="261" 
d="M54 0v726h153v-726h-153zM109 761l-50 73l159 149l84 -118z" />
    <glyph glyph-name="uni013B" unicode="&#x13b;" horiz-adv-x="561" 
d="M68 0v706h157v-706h-157zM189 0v138h349v-138h-349zM255 -397l-67 51l90 124l47 5q-9 -13 -20.5 -21t-24.5 -6q-28 4 -47.5 31.5t-14.5 63.5q6 38 36 61t69 17q36 -6 59 -37t16 -70q-2 -15 -11.5 -35t-32.5 -50z" />
    <glyph glyph-name="uni013C" unicode="&#x13c;" horiz-adv-x="261" 
d="M54 0v726h153v-726h-153zM83 -397l-67 51l90 124l47 5q-9 -13 -20.5 -21t-24.5 -6q-28 4 -47.5 31.5t-14.5 63.5q6 38 36 61t69 17q36 -6 59 -37t16 -70q-2 -15 -11.5 -35t-32.5 -50z" />
    <glyph glyph-name="Lcaron" unicode="&#x13d;" horiz-adv-x="561" 
d="M68 0v706h157v-706h-157zM189 0v138h349v-138h-349zM378 372l-74 40l73 137l45 12q-7 -14 -17 -24t-23 -10q-29 0 -53 24t-24 61q0 39 26.5 66.5t65.5 27.5q37 0 64.5 -27.5t27.5 -66.5q0 -16 -6 -37.5t-24 -54.5z" />
    <glyph glyph-name="lcaron" unicode="&#x13e;" horiz-adv-x="482" 
d="M54 0v726h153v-726h-153zM327 372l-74 40l73 137l45 12q-7 -14 -17 -24t-23 -10q-29 0 -53 24t-24 61q0 39 26.5 66.5t65.5 27.5q37 0 64.5 -27.5t27.5 -66.5q0 -16 -6 -37.5t-24 -54.5z" />
    <glyph glyph-name="Lslash" unicode="&#x141;" horiz-adv-x="609" 
d="M54 350l297 171v-131l-297 -171v131zM115 0v706h158v-706h-158zM236 0v138h350v-138h-350z" />
    <glyph glyph-name="lslash" unicode="&#x142;" horiz-adv-x="384" 
d="M54 350l276 159v-131l-276 -159v131zM115 0v726h153v-726h-153z" />
    <glyph glyph-name="Nacute" unicode="&#x143;" horiz-adv-x="738" 
d="M68 0v706h110l47 -141v-565h-157zM555 0l-416 533l39 173l416 -533zM555 0l-42 141v565h157v-706h-115zM297 761l-50 73l159 149l84 -118z" />
    <glyph glyph-name="nacute" unicode="&#x144;" horiz-adv-x="572" 
d="M375 0v277q0 38 -23.5 61.5t-59.5 23.5q-25 0 -44 -10.5t-30 -30t-11 -44.5l-59 29q0 57 25 100t69.5 66.5t100.5 23.5q54 0 95.5 -25.5t65.5 -67.5t24 -92v-311h-153zM54 0v486h153v-486h-153zM215 541l-50 73l159 149l84 -118z" />
    <glyph glyph-name="uni0145" unicode="&#x145;" horiz-adv-x="738" 
d="M68 0v706h110l47 -141v-565h-157zM555 0l-416 533l39 173l416 -533zM555 0l-42 141v565h157v-706h-115zM321 -397l-67 51l90 124l47 5q-9 -13 -20.5 -21t-24.5 -6q-28 4 -47.5 31.5t-14.5 63.5q6 38 36 61t69 17q36 -6 59 -37t16 -70q-2 -15 -11.5 -35t-32.5 -50z" />
    <glyph glyph-name="uni0146" unicode="&#x146;" horiz-adv-x="572" 
d="M375 0v277q0 38 -23.5 61.5t-59.5 23.5q-25 0 -44 -10.5t-30 -30t-11 -44.5l-59 29q0 57 25 100t69.5 66.5t100.5 23.5q54 0 95.5 -25.5t65.5 -67.5t24 -92v-311h-153zM54 0v486h153v-486h-153zM239 -397l-67 51l90 124l47 5q-9 -13 -20.5 -21t-24.5 -6q-28 4 -47.5 31.5
t-14.5 63.5q6 38 36 61t69 17q36 -6 59 -37t16 -70q-2 -15 -11.5 -35t-32.5 -50z" />
    <glyph glyph-name="Ncaron" unicode="&#x147;" horiz-adv-x="738" 
d="M68 0v706h110l47 -141v-565h-157zM555 0l-416 533l39 173l416 -533zM555 0l-42 141v565h157v-706h-115zM509 968l50 -66l-146 -145h-88l-146 145l50 66l197 -122l-116 1z" />
    <glyph glyph-name="ncaron" unicode="&#x148;" horiz-adv-x="572" 
d="M375 0v277q0 38 -23.5 61.5t-59.5 23.5q-25 0 -44 -10.5t-30 -30t-11 -44.5l-59 29q0 57 25 100t69.5 66.5t100.5 23.5q54 0 95.5 -25.5t65.5 -67.5t24 -92v-311h-153zM54 0v486h153v-486h-153zM426 748l50 -66l-146 -145h-88l-146 145l50 66l198 -122l-116 1z" />
    <glyph glyph-name="Eng" unicode="&#x14a;" horiz-adv-x="738" 
d="M68 0v706h110l47 -141v-565h-157zM555 0l-416 533l39 173l416 -533zM555 0l-42 141v565h157v-706h-115zM477 -218q-53 0 -90 17.5t-65 49.5l95 95q11 -13 22.5 -18.5t26.5 -5.5q22 0 36.5 13t14.5 40v513h153v-511q0 -59 -25 -102t-68.5 -67t-99.5 -24z" />
    <glyph glyph-name="eng" unicode="&#x14b;" horiz-adv-x="572" 
d="M335 -218q-53 0 -90 17.5t-65 49.5l95 95q11 -13 22.5 -18.5t26.5 -5.5q22 0 36.5 13t14.5 40v170h153v-168q0 -59 -25 -102t-68.5 -67t-99.5 -24zM375 0v277q0 38 -23.5 61.5t-59.5 23.5q-25 0 -44 -10.5t-30 -30t-11 -44.5l-59 29q0 57 25 100t69.5 66.5t100.5 23.5
q54 0 95.5 -25.5t65.5 -67.5t24 -92v-311h-153zM54 0v486h153v-486h-153z" />
    <glyph glyph-name="Omacron" unicode="&#x14c;" horiz-adv-x="806" 
d="M405 -12q-80 0 -147.5 28t-118.5 78t-79 116.5t-28 143.5q0 78 28 144t78 115.5t117.5 77t147.5 27.5q79 0 146.5 -27.5t118 -77t78.5 -116t28 -144.5q0 -77 -28 -143.5t-78 -116t-117.5 -77.5t-145.5 -28zM403 131q63 0 110.5 28t73.5 78.5t26 116.5q0 50 -15 90.5
t-43 70t-66.5 45t-85.5 15.5q-63 0 -110.5 -27.5t-73.5 -77t-26 -116.5q0 -50 15 -91t42.5 -70.5t66.5 -45.5t86 -16zM211 910h384v-113h-384v113z" />
    <glyph glyph-name="omacron" unicode="&#x14d;" horiz-adv-x="576" 
d="M288 -11q-75 0 -135.5 33.5t-95.5 91.5t-35 130t35 129t95 90.5t136 33.5t136 -33t95 -90.5t35 -129.5t-35 -130t-95 -91.5t-136 -33.5zM288 128q33 0 58 14.5t38.5 41t13.5 60.5t-14 59.5t-38.5 40t-57.5 14.5q-32 0 -57 -14.5t-39 -40.5t-14 -60q0 -33 14 -59.5t39 -41
t57 -14.5zM96 690h384v-113h-384v113z" />
    <glyph glyph-name="Ohungarumlaut" unicode="&#x150;" horiz-adv-x="806" 
d="M405 -12q-80 0 -147.5 28t-118.5 78t-79 116.5t-28 143.5q0 78 28 144t78 115.5t117.5 77t147.5 27.5q79 0 146.5 -27.5t118 -77t78.5 -116t28 -144.5q0 -77 -28 -143.5t-78 -116t-117.5 -77.5t-145.5 -28zM403 131q63 0 110.5 28t73.5 78.5t26 116.5q0 50 -15 90.5
t-43 70t-66.5 45t-85.5 15.5q-63 0 -110.5 -27.5t-73.5 -77t-26 -116.5q0 -50 15 -91t42.5 -70.5t66.5 -45.5t86 -16zM273 767l-77 46l82 202l126 -72zM501 767l-77 46l82 202l126 -72z" />
    <glyph glyph-name="ohungarumlaut" unicode="&#x151;" horiz-adv-x="576" 
d="M288 -11q-75 0 -135.5 33.5t-95.5 91.5t-35 130t35 129t95 90.5t136 33.5t136 -33t95 -90.5t35 -129.5t-35 -130t-95 -91.5t-136 -33.5zM288 128q33 0 58 14.5t38.5 41t13.5 60.5t-14 59.5t-38.5 40t-57.5 14.5q-32 0 -57 -14.5t-39 -40.5t-14 -60q0 -33 14 -59.5t39 -41
t57 -14.5zM158 547l-77 46l82 202l126 -72zM386 547l-77 46l82 202l126 -72z" />
    <glyph glyph-name="OE" unicode="&#x152;" horiz-adv-x="1160" 
d="M400 -12q-78 0 -144.5 28t-117 78t-78.5 116.5t-28 143.5q0 78 28 144t77.5 115.5t116 77t144.5 27.5q79 0 138 -27.5t99 -77t59.5 -116t19.5 -144.5q0 -77 -19.5 -143.5t-59 -116t-98.5 -77.5t-137 -28zM403 131q63 0 110.5 28t73.5 78.5t26 116.5t-26.5 116t-73.5 77.5
t-110 27.5t-110.5 -27.5t-73.5 -77t-26 -116.5q0 -50 15 -91t42.5 -70.5t66.5 -45.5t86 -16zM613 0v706h158v-706h-158zM734 0v136h387v-136h-387zM734 295v131h351v-131h-351zM734 571v135h381v-135h-381z" />
    <glyph glyph-name="oe" unicode="&#x153;" horiz-adv-x="935" 
d="M288 -11q-75 0 -135.5 33.5t-95.5 91.5t-35 130t35 129t95 90.5t136 33.5t136 -33t95 -90.5t35 -129.5t-35 -130t-95 -91.5t-136 -33.5zM288 128q33 0 58 14.5t38.5 41t13.5 60.5t-14 59.5t-38.5 40t-57.5 14.5q-32 0 -57 -14.5t-39 -40.5t-14 -60q0 -33 14 -59.5t39 -41
t57 -14.5zM681 -11q-79 0 -140.5 32.5t-96.5 90.5t-35 131t34.5 130.5t93.5 90.5t133 33q72 0 127 -31t86.5 -86t31.5 -126q0 -13 -1.5 -27.5t-5.5 -33.5l-419 -1v105l354 1l-66 -44q-1 42 -13 69.5t-35.5 42t-57.5 14.5q-36 0 -62.5 -16.5t-41 -46.5t-14.5 -73t15.5 -73.5
t44 -47t67.5 -16.5q36 0 65 12.5t51 37.5l84 -84q-36 -42 -87 -63t-112 -21z" />
    <glyph glyph-name="Racute" unicode="&#x154;" horiz-adv-x="652" 
d="M188 291v116h149q47 0 72.5 24t25.5 65q0 38 -25 63t-72 25h-150v122h168q70 0 123 -26.5t83 -73.5t30 -108q0 -62 -30 -108.5t-84 -72.5t-127 -26h-163zM68 0v706h157v-706h-157zM452 0l-220 304l144 39l262 -343h-186zM226 761l-50 73l159 149l84 -118z" />
    <glyph glyph-name="racute" unicode="&#x155;" horiz-adv-x="444" 
d="M54 0v486h153v-486h-153zM207 267l-64 50q19 85 64 132t125 47q35 0 61.5 -10.5t46.5 -32.5l-91 -115q-10 11 -25 17t-34 6q-38 0 -60.5 -23.5t-22.5 -70.5zM157 541l-50 73l159 149l84 -118z" />
    <glyph glyph-name="uni0156" unicode="&#x156;" horiz-adv-x="652" 
d="M188 291v116h149q47 0 72.5 24t25.5 65q0 38 -25 63t-72 25h-150v122h168q70 0 123 -26.5t83 -73.5t30 -108q0 -62 -30 -108.5t-84 -72.5t-127 -26h-163zM68 0v706h157v-706h-157zM452 0l-220 304l144 39l262 -343h-186zM258 -397l-67 51l90 124l47 5q-9 -13 -20.5 -21
t-24.5 -6q-28 4 -47.5 31.5t-14.5 63.5q6 38 36 61t69 17q36 -6 59 -37t16 -70q-2 -15 -11.5 -35t-32.5 -50z" />
    <glyph glyph-name="uni0157" unicode="&#x157;" horiz-adv-x="444" 
d="M54 0v486h153v-486h-153zM207 267l-64 50q19 85 64 132t125 47q35 0 61.5 -10.5t46.5 -32.5l-91 -115q-10 11 -25 17t-34 6q-38 0 -60.5 -23.5t-22.5 -70.5zM83 -397l-67 51l90 124l47 5q-9 -13 -20.5 -21t-24.5 -6q-28 4 -47.5 31.5t-14.5 63.5q6 38 36 61t69 17
q36 -6 59 -37t16 -70q-2 -15 -11.5 -35t-32.5 -50z" />
    <glyph glyph-name="Rcaron" unicode="&#x158;" horiz-adv-x="652" 
d="M188 291v116h149q47 0 72.5 24t25.5 65q0 38 -25 63t-72 25h-150v122h168q70 0 123 -26.5t83 -73.5t30 -108q0 -62 -30 -108.5t-84 -72.5t-127 -26h-163zM68 0v706h157v-706h-157zM452 0l-220 304l144 39l262 -343h-186zM438 968l50 -66l-146 -145h-88l-146 145l50 66
l197 -122l-116 1z" />
    <glyph glyph-name="rcaron" unicode="&#x159;" horiz-adv-x="444" 
d="M54 0v486h153v-486h-153zM207 267l-64 50q19 85 64.5 132t124.5 47q35 0 61.5 -10.5t46.5 -32.5l-91 -115q-10 11 -24.5 17t-34.5 6q-38 0 -60.5 -23.5t-22.5 -70.5zM369 748l50 -66l-146 -145h-88l-146 145l50 66l197 -122l-116 1z" />
    <glyph glyph-name="Sacute" unicode="&#x15a;" horiz-adv-x="583" 
d="M280 -11q-87 0 -149.5 28.5t-114.5 86.5l102 101q34 -39 75.5 -60.5t96.5 -21.5q50 0 77.5 18t27.5 50q0 29 -18 47t-47.5 31t-65 25t-70.5 27.5t-64.5 39t-47.5 59t-18 89.5q0 65 31.5 112t87.5 71.5t129 24.5q74 0 135.5 -26t101.5 -71l-102 -101q-32 33 -64.5 49
t-73.5 16t-65 -15.5t-24 -44.5q0 -27 18 -43.5t47.5 -28.5t65 -24t70.5 -28t64.5 -40.5t47.5 -62t18 -92.5q0 -101 -72 -158.5t-199 -57.5zM240 761l-50 73l159 149l84 -118z" />
    <glyph glyph-name="sacute" unicode="&#x15b;" horiz-adv-x="458" 
d="M231 -12q-43 0 -84.5 11t-77 31.5t-60.5 47.5l87 88q24 -26 57 -40.5t72 -14.5q27 0 41.5 8t14.5 22q0 18 -17.5 27.5t-44.5 17t-57 16.5t-57 25t-44 44.5t-17 72.5q0 47 24 81.5t68 54.5t103 20q62 0 114.5 -21.5t85.5 -63.5l-87 -88q-23 27 -51.5 38t-55.5 11
q-26 0 -39 -7.5t-13 -21.5q0 -15 17 -24t44 -16t57 -17t57 -27t44 -45.5t17 -74.5q0 -71 -53.5 -113t-144.5 -42zM167 541l-50 73l159 149l84 -118z" />
    <glyph glyph-name="Scedilla" unicode="&#x15e;" horiz-adv-x="583" 
d="M280 -11q-87 0 -149.5 28.5t-114.5 86.5l102 101q34 -39 75.5 -60.5t96.5 -21.5q50 0 77.5 18t27.5 50q0 29 -18 47t-47.5 31t-65 25t-70.5 27.5t-64.5 39t-47.5 59t-18 89.5q0 65 31.5 112t87.5 71.5t129 24.5q74 0 135.5 -26t101.5 -71l-102 -101q-32 33 -64.5 49
t-73.5 16t-65 -15.5t-24 -44.5q0 -27 18 -43.5t47.5 -28.5t65 -24t70.5 -28t64.5 -40.5t47.5 -62t18 -92.5q0 -101 -72 -158.5t-199 -57.5zM262 -215q-40 0 -68.5 9.5t-56.5 26.5l47 62q13 -10 28.5 -15.5t34.5 -5.5q21 0 30 6.5t9 15.5t-11 16t-34 7h-32l34 106h86l-26 -73
l-44 35q66 1 102.5 -25.5t36.5 -69.5q0 -40 -37 -67.5t-99 -27.5z" />
    <glyph glyph-name="scedilla" unicode="&#x15f;" horiz-adv-x="458" 
d="M231 -12q-43 0 -84.5 11t-77 31.5t-60.5 47.5l87 88q24 -26 57 -40.5t72 -14.5q27 0 41.5 8t14.5 22q0 18 -17.5 27.5t-44.5 17t-57 16.5t-57 25t-44 44.5t-17 72.5q0 47 24 81.5t68 54.5t103 20q62 0 114.5 -21.5t85.5 -63.5l-87 -88q-23 27 -51.5 38t-55.5 11
q-26 0 -39 -7.5t-13 -21.5q0 -15 17 -24t44 -16t57 -17t57 -27t44 -45.5t17 -74.5q0 -71 -53.5 -113t-144.5 -42zM211 -215q-40 0 -68.5 9.5t-56.5 26.5l47 62q13 -10 28.5 -15.5t34.5 -5.5q21 0 30 6.5t9 15.5t-11 16t-34 7h-32l34 106h86l-26 -73l-44 35q66 1 102.5 -25.5
t36.5 -69.5q0 -40 -37 -67.5t-99 -27.5z" />
    <glyph glyph-name="Scaron" unicode="&#x160;" horiz-adv-x="583" 
d="M280 -11q-87 0 -149.5 28.5t-114.5 86.5l102 101q34 -39 75.5 -60.5t96.5 -21.5q50 0 77.5 18t27.5 50q0 29 -18 47t-47.5 31t-65 25t-70.5 27.5t-64.5 39t-47.5 59t-18 89.5q0 65 31.5 112t87.5 71.5t129 24.5q74 0 135.5 -26t101.5 -71l-102 -101q-32 33 -64.5 49
t-73.5 16t-65 -15.5t-24 -44.5q0 -27 18 -43.5t47.5 -28.5t65 -24t70.5 -28t64.5 -40.5t47.5 -62t18 -92.5q0 -101 -72 -158.5t-199 -57.5zM451 968l50 -66l-146 -145h-88l-146 145l50 66l198 -122l-116 1z" />
    <glyph glyph-name="scaron" unicode="&#x161;" horiz-adv-x="458" 
d="M231 -12q-43 0 -84.5 11t-77 31.5t-60.5 47.5l87 88q24 -26 57 -40.5t72 -14.5q27 0 41.5 8t14.5 22q0 18 -17.5 27.5t-44.5 17t-57 16.5t-57 25t-44 44.5t-17 72.5q0 47 24 81.5t68 54.5t103 20q62 0 114.5 -21.5t85.5 -63.5l-87 -88q-23 27 -51.5 38t-55.5 11
q-26 0 -39 -7.5t-13 -21.5q0 -15 17 -24t44 -16t57 -17t57 -27t44 -45.5t17 -74.5q0 -71 -53.5 -113t-144.5 -42zM379 748l50 -66l-146 -145h-88l-146 145l50 66l197 -122l-116 1z" />
    <glyph glyph-name="Tcaron" unicode="&#x164;" horiz-adv-x="639" 
d="M241 0v696h157v-696h-157zM20 569v137h599v-137h-599zM459 968l50 -66l-146 -145h-88l-146 145l50 66l198 -122l-116 1z" />
    <glyph glyph-name="tcaron" unicode="&#x165;" horiz-adv-x="534" 
d="M123 0v687h153v-687h-153zM13 356v130h373v-130h-373zM379 517l-74 40l73 137l45 12q-7 -14 -17 -24t-23 -10q-29 0 -53 24t-24 61q0 39 26.5 66.5t65.5 27.5q37 0 64.5 -27.5t27.5 -66.5q0 -16 -6 -37.5t-24 -54.5z" />
    <glyph glyph-name="Umacron" unicode="&#x16a;" horiz-adv-x="702" 
d="M352 -11q-87 0 -153.5 37t-104 102.5t-37.5 149.5v428h158v-437q0 -42 18 -73t49.5 -47.5t69.5 -16.5q40 0 70 16.5t47.5 47t17.5 72.5v438h158v-429q0 -84 -37 -149t-103 -102t-153 -37zM159 910h384v-113h-384v113z" />
    <glyph glyph-name="umacron" unicode="&#x16b;" horiz-adv-x="539" 
d="M270 -11q-67 0 -118.5 27.5t-80.5 76t-29 111.5v282h153v-280q0 -25 8.5 -43t25.5 -28t41 -10q34 0 54 21.5t20 59.5v280h153v-281q0 -64 -29 -112.5t-80 -76t-118 -27.5zM78 690h384v-113h-384v113z" />
    <glyph glyph-name="Ubreve" unicode="&#x16c;" horiz-adv-x="702" 
d="M352 -11q-87 0 -153.5 37t-104 102.5t-37.5 149.5v428h158v-437q0 -42 18 -73t49.5 -47.5t69.5 -16.5q40 0 70 16.5t47.5 47t17.5 72.5v438h158v-429q0 -84 -37 -149t-103 -102t-153 -37zM541 941q0 -53 -25 -95.5t-67.5 -67.5t-96.5 -25t-97 25t-68.5 67.5t-25.5 95.5
h120q0 -31 19.5 -52t52.5 -21q20 0 35 9.5t24.5 26t9.5 37.5h119z" />
    <glyph glyph-name="ubreve" unicode="&#x16d;" horiz-adv-x="539" 
d="M270 -11q-67 0 -118.5 27.5t-80.5 76t-29 111.5v282h153v-280q0 -25 8.5 -43t25.5 -28t41 -10q34 0 54 21.5t20 59.5v280h153v-281q0 -64 -29 -112.5t-80 -76t-118 -27.5zM460 721q0 -53 -25 -95.5t-67.5 -67.5t-96.5 -25t-97 25t-68.5 67.5t-25.5 95.5h120
q0 -31 19.5 -52t52.5 -21q20 0 35 9.5t24.5 26t9.5 37.5h119z" />
    <glyph glyph-name="Uring" unicode="&#x16e;" horiz-adv-x="702" 
d="M352 -11q-87 0 -153.5 37t-104 102.5t-37.5 149.5v428h158v-437q0 -42 18 -73t49.5 -47.5t69.5 -16.5q40 0 70 16.5t47.5 47t17.5 72.5v438h158v-429q0 -84 -37 -149t-103 -102t-153 -37zM352 753q-38 0 -67.5 17t-47 46t-17.5 66t17.5 66t47 46.5t67.5 17.5
q37 0 66.5 -17.5t46.5 -46.5t17 -66t-17 -66t-46.5 -46t-66.5 -17zM352 837q18 0 30.5 13t12.5 32q0 20 -12.5 32.5t-30.5 12.5q-20 0 -32 -13t-12 -32t12 -32t32 -13z" />
    <glyph glyph-name="uring" unicode="&#x16f;" horiz-adv-x="539" 
d="M270 -11q-67 0 -118.5 27.5t-80.5 76t-29 111.5v282h153v-280q0 -25 8.5 -43t25.5 -28t41 -10q34 0 54 21.5t20 59.5v280h153v-281q0 -64 -29 -112.5t-80 -76t-118 -27.5zM271 533q-38 0 -67.5 17t-47 46t-17.5 66t17.5 66t47 46.5t67.5 17.5q37 0 66.5 -17.5t46.5 -46.5
t17 -66t-17 -66t-46.5 -46t-66.5 -17zM271 617q18 0 30.5 13t12.5 32q0 20 -12.5 32.5t-30.5 12.5q-20 0 -32 -13t-12 -32t12 -32t32 -13z" />
    <glyph glyph-name="Uhungarumlaut" unicode="&#x170;" horiz-adv-x="702" 
d="M352 -11q-87 0 -153.5 37t-104 102.5t-37.5 149.5v428h158v-437q0 -42 18 -73t49.5 -47.5t69.5 -16.5q40 0 70 16.5t47.5 47t17.5 72.5v438h158v-429q0 -84 -37 -149t-103 -102t-153 -37zM221 767l-77 46l82 202l126 -72zM449 767l-77 46l82 202l126 -72z" />
    <glyph glyph-name="uhungarumlaut" unicode="&#x171;" horiz-adv-x="539" 
d="M270 -11q-67 0 -118.5 27.5t-80.5 76.5t-29 112v281h153v-280q0 -25 9 -43t26 -28t40 -10q34 0 54 21.5t20 59.5v280h153v-281q0 -64 -29 -112.5t-80 -76t-118 -27.5zM140 547l-77 46l82 202l126 -72zM368 547l-77 46l82 202l126 -72z" />
    <glyph glyph-name="Uogonek" unicode="&#x172;" horiz-adv-x="702" 
d="M352 -11q-87 0 -153.5 37t-104 102.5t-37.5 149.5v428h158v-437q0 -42 18 -73t49.5 -47.5t69.5 -16.5q40 0 70 16.5t47.5 47t17.5 72.5v438h158v-429q0 -84 -37 -149t-103 -102t-153 -37zM392 -205q-63 0 -103.5 27.5t-40.5 83.5q0 52 35 87.5t94 48.5l92 -32
q-39 -14 -61.5 -34.5t-22.5 -50.5q0 -17 9.5 -27t27.5 -10q12 0 22 4t19 9l32 -80q-19 -11 -44.5 -18.5t-58.5 -7.5z" />
    <glyph glyph-name="uogonek" unicode="&#x173;" horiz-adv-x="539" 
d="M270 -11q-67 0 -118.5 27.5t-80.5 76t-29 111.5v282h153v-280q0 -25 8.5 -43t25.5 -28t41 -10q34 0 54 21.5t20 59.5v280h153v-281q0 -64 -29 -112.5t-80 -76t-118 -27.5zM297 -205q-63 0 -103.5 27.5t-40.5 83.5q0 52 35 87.5t94 48.5l92 -32q-39 -14 -61.5 -34.5
t-22.5 -50.5q0 -17 9.5 -27t27.5 -10q12 0 22 4t19 9l32 -80q-19 -11 -44.5 -18.5t-58.5 -7.5z" />
    <glyph glyph-name="Wcircumflex" unicode="&#x174;" horiz-adv-x="1002" 
d="M244 0l-227 706h156l166 -543h-61l162 543h123l162 -543h-60l165 543h155l-227 -706h-123l-163 543h58l-163 -543h-123zM361 757l-50 66l146 145h88l146 -145l-50 -66l-197 122h116z" />
    <glyph glyph-name="wcircumflex" unicode="&#x175;" horiz-adv-x="785" 
d="M173 0l-168 486h150l104 -353l-44 -1l115 354h124l116 -354l-45 1l105 353h150l-168 -486h-125l-113 336h38l-115 -336h-124zM252 537l-50 66l146 145h88l146 -145l-50 -66l-197 122h116z" />
    <glyph glyph-name="Ycircumflex" unicode="&#x176;" horiz-adv-x="687" 
d="M285 263l-272 443h182l209 -358h-117l209 358h178l-274 -443h-115zM266 0v335h157v-335h-157zM203 757l-50 66l146 145h88l146 -145l-50 -66l-197 122h116z" />
    <glyph glyph-name="ycircumflex" unicode="&#x177;" horiz-adv-x="534" 
d="M204 -2l-200 488h165l127 -387h-61l130 387h165l-208 -488h-118zM79 -205l146 315l97 -112l-86 -203h-157zM127 537l-50 66l146 145h88l146 -145l-50 -66l-197 122h116z" />
    <glyph glyph-name="Ydieresis" unicode="&#x178;" horiz-adv-x="687" 
d="M285 263l-272 443h182l209 -358h-117l209 358h178l-274 -443h-115zM266 0v335h157v-335h-157zM234 768q-36 0 -59.5 24.5t-23.5 59.5q0 36 23.5 60t59.5 24t59 -24t23 -60q0 -35 -23 -59.5t-59 -24.5zM454 768q-36 0 -59.5 24.5t-23.5 59.5q0 36 23.5 60t59.5 24t59 -24
t23 -60q0 -35 -23 -59.5t-59 -24.5z" />
    <glyph glyph-name="Zacute" unicode="&#x179;" horiz-adv-x="608" 
d="M30 110l355 487h190l-356 -487h-189zM30 0v110l104 25h432v-135h-536zM50 571v135h525v-109l-106 -26h-419zM234 761l-50 73l159 149l84 -118z" />
    <glyph glyph-name="zacute" unicode="&#x17a;" horiz-adv-x="481" 
d="M23 90l244 307h186l-244 -307h-186zM23 0v90l109 38h315v-128h-424zM41 358v128h412v-89l-108 -39h-304zM181 541l-50 73l159 149l84 -118z" />
    <glyph glyph-name="Zdotaccent" unicode="&#x17b;" horiz-adv-x="608" 
d="M30 110l355 487h190l-356 -487h-189zM30 0v110l104 25h432v-135h-536zM50 571v135h525v-109l-106 -26h-419zM307 768q-36 0 -59.5 24.5t-23.5 59.5q0 36 23.5 60t59.5 24t59 -24t23 -60q0 -35 -23 -59.5t-59 -24.5z" />
    <glyph glyph-name="zdotaccent" unicode="&#x17c;" horiz-adv-x="481" 
d="M23 90l244 307h186l-244 -307h-186zM23 0v90l109 38h315v-128h-424zM41 358v128h412v-89l-108 -39h-304zM253 548q-36 0 -59.5 24.5t-23.5 59.5q0 36 23.5 60t59.5 24t59 -24t23 -60q0 -35 -23 -59.5t-59 -24.5z" />
    <glyph glyph-name="Zcaron" unicode="&#x17d;" horiz-adv-x="608" 
d="M30 110l355 487h190l-356 -487h-189zM30 0v110l104 25h432v-135h-536zM50 571v135h525v-109l-106 -26h-419zM446 968l50 -66l-146 -145h-88l-146 145l50 66l197 -122l-116 1z" />
    <glyph glyph-name="zcaron" unicode="&#x17e;" horiz-adv-x="481" 
d="M23 90l244 307h186l-244 -307h-186zM23 0v90l109 38h315v-128h-424zM41 358v128h412v-89l-108 -39h-304zM392 748l50 -66l-146 -145h-88l-146 145l50 66l198 -122l-116 1z" />
    <glyph glyph-name="uni01CD" unicode="&#x1cd;" horiz-adv-x="729" 
d="M15 0l280 706h142l277 -706h-166l-212 586h57l-215 -586h-163zM174 128v128h385v-128h-385zM504 968l50 -66l-146 -145h-88l-146 145l50 66l198 -122l-116 1z" />
    <glyph glyph-name="uni01CE" unicode="&#x1ce;" horiz-adv-x="595" 
d="M257 -10q-67 0 -119.5 33t-83 90t-30.5 130t30.5 130t83 90t119.5 33q49 0 88.5 -19t64.5 -52.5t28 -76.5v-210q-3 -43 -27.5 -76.5t-64.5 -52.5t-89 -19zM288 128q49 0 79 32.5t30 82.5q0 34 -13.5 60t-38 40.5t-56.5 14.5t-56.5 -14.5t-39 -40.5t-14.5 -60
q0 -33 14 -59t39 -41t56 -15zM391 0v131l23 118l-23 118v119h150v-486h-150zM442 748l50 -66l-146 -145h-88l-146 145l50 66l198 -122l-116 1z" />
    <glyph glyph-name="uni0218" unicode="&#x218;" horiz-adv-x="583" 
d="M280 -11q-87 0 -149.5 28.5t-114.5 86.5l102 101q34 -39 75.5 -60.5t96.5 -21.5q50 0 77.5 18t27.5 50q0 29 -18 47t-47.5 31t-65 25t-70.5 27.5t-64.5 39t-47.5 59t-18 89.5q0 65 31.5 112t87.5 71.5t129 24.5q74 0 135.5 -26t101.5 -71l-102 -101q-32 33 -64.5 49
t-73.5 16t-65 -15.5t-24 -44.5q0 -27 18 -43.5t47.5 -28.5t65 -24t70.5 -28t64.5 -40.5t47.5 -62t18 -92.5q0 -101 -72 -158.5t-199 -57.5zM236 -397l-67 51l90 124l47 5q-9 -13 -20.5 -21t-24.5 -6q-28 4 -47.5 31.5t-14.5 63.5q6 38 36 61t69 17q36 -6 59 -37t16 -70
q-2 -15 -11.5 -35t-32.5 -50z" />
    <glyph glyph-name="uni0219" unicode="&#x219;" horiz-adv-x="458" 
d="M231 -12q-43 0 -84.5 11t-77 31.5t-60.5 47.5l87 88q24 -26 57 -40.5t72 -14.5q27 0 41.5 8t14.5 22q0 18 -17.5 27.5t-44.5 17t-57 16.5t-57 25t-44 44.5t-17 72.5q0 47 24 81.5t68 54.5t103 20q62 0 114.5 -21.5t85.5 -63.5l-87 -88q-23 27 -51.5 38t-55.5 11
q-26 0 -39 -7.5t-13 -21.5q0 -15 17 -24t44 -16t57 -17t57 -27t44 -45.5t17 -74.5q0 -71 -53.5 -113t-144.5 -42zM185 -397l-67 51l90 124l47 5q-9 -13 -20.5 -21t-24.5 -6q-28 4 -47.5 31.5t-14.5 63.5q6 38 36 61t69 17q36 -6 59 -37t16 -70q-2 -15 -11.5 -35t-32.5 -50z
" />
    <glyph glyph-name="uni021A" unicode="&#x21a;" horiz-adv-x="639" 
d="M241 0v696h157v-696h-157zM20 569v137h599v-137h-599zM272 -397l-67 51l90 124l47 5q-9 -13 -20.5 -21t-24.5 -6q-28 4 -47.5 31.5t-14.5 63.5q6 38 36 61t69 17q36 -6 59 -37t16 -70q-2 -15 -11.5 -35t-32.5 -50z" />
    <glyph glyph-name="uni021B" unicode="&#x21b;" horiz-adv-x="399" 
d="M123 0v687h153v-687h-153zM13 356v130h373v-130h-373zM152 -397l-67 51l90 124l47 5q-9 -13 -20.5 -21t-24.5 -6q-28 4 -47.5 31.5t-14.5 63.5q6 38 36 61t69 17q36 -6 59 -37t16 -70q-2 -15 -11.5 -35t-32.5 -50z" />
    <glyph glyph-name="uni0237" unicode="&#x237;" horiz-adv-x="273" 
d="M26 -218q-53 0 -90 17.5t-65 49.5l95 95q11 -13 22.5 -18.5t26.5 -5.5q22 0 36.5 13t14.5 40v513h153v-511q0 -59 -25 -102t-68.5 -67t-99.5 -24z" />
    <glyph glyph-name="apostrophe" unicode="&#x2bc;" horiz-adv-x="270" 
d="M32 442l91 137l47 12q-7 -14 -17 -24t-23 -10q-29 0 -53 24t-24 61q0 39 26.5 66.5t66.5 27.5q38 0 64.5 -27t26.5 -66q0 -17 -6.5 -39t-27.5 -54l-97 -148z" />
    <glyph glyph-name="circumflex" unicode="&#x2c6;" horiz-adv-x="460" 
d="M90 537l-50 66l146 145h88l146 -145l-50 -66l-197 122h116z" />
    <glyph glyph-name="caron" unicode="&#x2c7;" horiz-adv-x="460" 
d="M370 748l50 -66l-146 -145h-88l-146 145l50 66l198 -122l-116 1z" />
    <glyph glyph-name="breve" unicode="&#x2d8;" horiz-adv-x="460" 
d="M420 721q0 -53 -25 -95.5t-67.5 -67.5t-96.5 -25t-97 25t-68.5 67.5t-25.5 95.5h120q0 -31 19.5 -52t52.5 -21q20 0 35 9.5t24.5 26t9.5 37.5h119z" />
    <glyph glyph-name="dotaccent" unicode="&#x2d9;" horiz-adv-x="345" 
d="M173 548q-36 0 -59.5 24.5t-23.5 59.5q0 36 23.5 60t59.5 24t59 -24t23 -60q0 -35 -23 -59.5t-59 -24.5z" />
    <glyph glyph-name="ring" unicode="&#x2da;" horiz-adv-x="342" 
d="M172 533q-38 0 -67.5 17t-47 46t-17.5 66t17.5 66t47 46.5t67.5 17.5q37 0 66.5 -17.5t46.5 -46.5t17 -66t-17 -66t-46.5 -46t-66.5 -17zM172 617q18 0 30.5 13t12.5 32q0 20 -12.5 32.5t-30.5 12.5q-20 0 -32 -13t-12 -32t12 -32t32 -13z" />
    <glyph glyph-name="ogonek" unicode="&#x2db;" horiz-adv-x="327" 
d="M184 -215q-63 0 -103.5 27.5t-40.5 83.5q0 52 35 87.5t94 48.5l92 -32q-39 -14 -61.5 -34.5t-22.5 -50.5q0 -17 9.5 -27t27.5 -10q12 0 22 4t19 9l32 -80q-19 -11 -44.5 -18.5t-58.5 -7.5z" />
    <glyph glyph-name="tilde" unicode="&#x2dc;" horiz-adv-x="500" 
d="M323 542q-32 0 -55.5 11t-43 22t-42.5 11t-39 -9.5t-30 -28.5l-73 72q29 43 61.5 64t75.5 21q32 0 55.5 -11t43.5 -22.5t42 -11.5q24 0 40 9.5t29 29.5l73 -73q-29 -42 -61.5 -63t-75.5 -21z" />
    <glyph glyph-name="hungarumlaut" unicode="&#x2dd;" horiz-adv-x="516" 
d="M117 521l-77 46l82 202l126 -72zM345 521l-77 46l82 202l126 -72z" />
    <glyph glyph-name="gravecomb" unicode="&#x300;" 
d="M233 541l-193 104l84 118l159 -149z" />
    <glyph glyph-name="acutecomb" unicode="&#x301;" 
d="M90 541l-50 73l159 149l84 -118z" />
    <glyph glyph-name="uni0302" unicode="&#x302;" 
d="M90 537l-50 66l146 145h88l146 -145l-50 -66l-197 122h116z" />
    <glyph glyph-name="tildecomb" unicode="&#x303;" 
d="M323 542q-32 0 -55.5 11t-43 22t-42.5 11t-39 -9.5t-30 -28.5l-73 72q29 43 61.5 64t75.5 21q32 0 55.5 -11t43.5 -22.5t42 -11.5q24 0 40 9.5t29 29.5l73 -73q-29 -42 -61.5 -63t-75.5 -21z" />
    <glyph glyph-name="uni0304" unicode="&#x304;" 
d="M40 690h384v-113h-384v113z" />
    <glyph glyph-name="uni0306" unicode="&#x306;" 
d="M420 721q0 -53 -25 -95.5t-67.5 -67.5t-96.5 -25t-97 25t-68.5 67.5t-25.5 95.5h120q0 -31 19.5 -52t52.5 -21q20 0 35 9.5t24.5 26t9.5 37.5h119z" />
    <glyph glyph-name="uni0307" unicode="&#x307;" 
d="M173 548q-36 0 -59.5 24.5t-23.5 59.5q0 36 23.5 60t59.5 24t59 -24t23 -60q0 -35 -23 -59.5t-59 -24.5z" />
    <glyph glyph-name="uni0308" unicode="&#x308;" 
d="M138 548q-36 0 -59.5 24.5t-23.5 59.5q0 36 23.5 60t59.5 24t59 -24t23 -60q0 -35 -23 -59.5t-59 -24.5zM358 548q-36 0 -59.5 24.5t-23.5 59.5q0 36 23.5 60t59.5 24t59 -24t23 -60q0 -35 -23 -59.5t-59 -24.5z" />
    <glyph glyph-name="uni030A" unicode="&#x30a;" 
d="M172 533q-38 0 -67.5 17t-47 46t-17.5 66t17.5 66t47 46.5t67.5 17.5q37 0 66.5 -17.5t46.5 -46.5t17 -66t-17 -66t-46.5 -46t-66.5 -17zM172 617q18 0 30.5 13t12.5 32q0 20 -12.5 32.5t-30.5 12.5q-20 0 -32 -13t-12 -32t12 -32t32 -13z" />
    <glyph glyph-name="uni030B" unicode="&#x30b;" 
d="M117 521l-77 46l82 202l126 -72zM345 521l-77 46l82 202l126 -72z" />
    <glyph glyph-name="uni030C" unicode="&#x30c;" 
d="M370 748l50 -66l-146 -145h-88l-146 145l50 66l198 -122l-116 1z" />
    <glyph glyph-name="uni0312" unicode="&#x312;" 
d="M243 803l-91 -124l-47 -6q10 14 21.5 21.5t23.5 6.5q29 -5 48.5 -32t13.5 -63q-6 -38 -35.5 -61.5t-68.5 -17.5q-37 6 -59.5 37t-16.5 70q3 16 12 36t32 50l100 134z" />
    <glyph glyph-name="uni0326" unicode="&#x326;" 
d="M94 -397l-67 51l90 124l47 5q-9 -13 -20.5 -21t-24.5 -6q-28 4 -47.5 31.5t-14.5 63.5q6 38 36 61t69 17q36 -6 59 -37t16 -70q-2 -15 -11.5 -35t-32.5 -50z" />
    <glyph glyph-name="uni0327" unicode="&#x327;" 
d="M145 -215q-40 0 -68.5 9.5t-56.5 26.5l47 62q13 -10 28.5 -15.5t34.5 -5.5q21 0 30 6.5t9 15.5t-11 16t-34 7h-32l34 106h86l-26 -73l-44 35q66 1 102.5 -25.5t36.5 -69.5q0 -40 -37 -67.5t-99 -27.5z" />
    <glyph glyph-name="uni0328" unicode="&#x328;" 
d="M184 -215q-63 0 -103.5 27.5t-40.5 83.5q0 52 35 87.5t94 48.5l92 -32q-39 -14 -61.5 -34.5t-22.5 -50.5q0 -17 9.5 -27t27.5 -10q12 0 22 4t19 9l32 -80q-19 -11 -44.5 -18.5t-58.5 -7.5z" />
    <glyph glyph-name="Wgrave" unicode="&#x1e80;" horiz-adv-x="1002" 
d="M244 0l-227 706h156l166 -543h-61l162 543h123l162 -543h-60l165 543h155l-227 -706h-123l-163 543h58l-163 -543h-123zM554 761l-193 104l84 118l159 -149z" />
    <glyph glyph-name="wgrave" unicode="&#x1e81;" horiz-adv-x="785" 
d="M173 0l-168 486h150l104 -353l-44 -1l115 354h124l116 -354l-45 1l105 353h150l-168 -486h-125l-113 336h38l-115 -336h-124zM446 541l-193 104l84 118l159 -149z" />
    <glyph glyph-name="Wacute" unicode="&#x1e82;" horiz-adv-x="1002" 
d="M244 0l-227 706h156l166 -543h-61l162 543h123l162 -543h-60l165 543h155l-227 -706h-123l-163 543h58l-163 -543h-123zM429 761l-50 73l159 149l84 -118z" />
    <glyph glyph-name="wacute" unicode="&#x1e83;" horiz-adv-x="785" 
d="M173 0l-168 486h150l104 -353l-44 -1l115 354h124l116 -354l-45 1l105 353h150l-168 -486h-125l-113 336h38l-115 -336h-124zM321 541l-50 73l159 149l84 -118z" />
    <glyph glyph-name="Wdieresis" unicode="&#x1e84;" horiz-adv-x="1002" 
d="M244 0l-227 706h156l166 -543h-61l162 543h123l162 -543h-60l165 543h155l-227 -706h-123l-163 543h58l-163 -543h-123zM392 768q-36 0 -59.5 24.5t-23.5 59.5q0 36 23.5 60t59.5 24t59 -24t23 -60q0 -35 -23 -59.5t-59 -24.5zM612 768q-36 0 -59.5 24.5t-23.5 59.5
q0 36 23.5 60t59.5 24t59 -24t23 -60q0 -35 -23 -59.5t-59 -24.5z" />
    <glyph glyph-name="wdieresis" unicode="&#x1e85;" horiz-adv-x="785" 
d="M173 0l-168 486h150l104 -353l-44 -1l115 354h124l116 -354l-45 1l105 353h150l-168 -486h-125l-113 336h38l-115 -336h-124zM283 548q-36 0 -59.5 24.5t-23.5 59.5q0 36 23.5 60t59.5 24t59 -24t23 -60q0 -35 -23 -59.5t-59 -24.5zM503 548q-36 0 -59.5 24.5t-23.5 59.5
q0 36 23.5 60t59.5 24t59 -24t23 -60q0 -35 -23 -59.5t-59 -24.5z" />
    <glyph glyph-name="uni1E9E" unicode="&#x1e9e;" horiz-adv-x="740" 
d="M347 422l179 185l127 -39l-137 -147l-169 -87v88zM433 -5q-47 0 -80 6t-56 21v172q19 -28 55.5 -45t77.5 -17q37 0 64 13t42.5 37t15.5 56q0 34 -15.5 57.5t-45 36t-70.5 12.5q-19 0 -39.5 -2.5t-34.5 -7.5l69 87q28 8 53.5 13.5t47.5 5.5q54 0 97 -25.5t68.5 -72
t25.5 -109.5q0 -71 -34.5 -124.5t-96 -83.5t-144.5 -30zM383 731q49 0 97 -9.5t87 -21.5t62.5 -21l23.5 -9v-102l-19.5 3t-50.5 7.5t-67.5 9t-71.5 7.5t-60 3q-53 0 -89.5 -20.5t-55 -54t-18.5 -73.5v-450h-153v489q0 73 39 127t110 84.5t166 30.5z" />
    <glyph glyph-name="Ygrave" unicode="&#x1ef2;" horiz-adv-x="687" 
d="M285 263l-272 443h182l209 -358h-117l209 358h178l-274 -443h-115zM266 0v335h157v-335h-157zM397 761l-193 104l84 118l159 -149z" />
    <glyph glyph-name="ygrave" unicode="&#x1ef3;" horiz-adv-x="534" 
d="M204 -2l-200 488h165l127 -387h-61l130 387h165l-208 -488h-118zM79 -205l146 315l97 -112l-86 -203h-157zM320 541l-193 104l84 118l159 -149z" />
    <glyph glyph-name="endash" unicode="&#x2013;" horiz-adv-x="568" 
d="M54 193v124h460v-124h-460z" />
    <glyph glyph-name="emdash" unicode="&#x2014;" horiz-adv-x="867" 
d="M54 194v122h755v-122h-755z" />
    <glyph glyph-name="quoteleft" unicode="&#x2018;" horiz-adv-x="261" 
d="M219 695l-73 -136l-46 -13q8 15 18 24.5t23 9.5q29 0 52.5 -23.5t23.5 -60.5q0 -39 -26.5 -67t-65.5 -28q-37 0 -64.5 27.5t-27.5 67.5q0 16 6.5 37t24.5 55l80 148z" />
    <glyph glyph-name="quoteright" unicode="&#x2019;" horiz-adv-x="261" 
d="M43 422l73 137l45 12q-7 -14 -17 -24t-23 -10q-29 0 -53 24t-24 61q0 39 26.5 66.5t65.5 27.5q37 0 64.5 -27.5t27.5 -66.5q0 -16 -6 -37.5t-24 -54.5l-81 -148z" />
    <glyph glyph-name="quotesinglbase" unicode="&#x201a;" horiz-adv-x="283" 
d="M54 -120l73 136l45 13q-7 -15 -17 -24.5t-23 -9.5q-29 0 -53 24t-24 60q0 39 26.5 67t65.5 28q37 0 64.5 -27.5t27.5 -67.5q0 -16 -6 -37t-24 -55l-81 -148z" />
    <glyph glyph-name="quotedblleft" unicode="&#x201c;" horiz-adv-x="487" 
d="M219 695l-73 -136l-46 -13q8 15 18 24.5t23 9.5q29 0 52.5 -23.5t23.5 -60.5q0 -39 -26.5 -67t-65.5 -28q-37 0 -64.5 27.5t-27.5 67.5q0 16 6.5 37t24.5 55l80 148zM444 695l-73 -136l-45 -13q7 15 17.5 24.5t22.5 9.5q29 0 53 -23.5t24 -60.5q0 -39 -26.5 -67
t-65.5 -28q-37 0 -64.5 27.5t-27.5 67.5q0 16 6 37t24 55l81 148z" />
    <glyph glyph-name="quotedblright" unicode="&#x201d;" horiz-adv-x="487" 
d="M268 422l73 137l46 12q-8 -14 -18 -24t-23 -10q-28 0 -52 24t-24 61q0 39 26.5 66.5t65.5 27.5q37 0 64.5 -27.5t27.5 -66.5q0 -16 -6.5 -37.5t-24.5 -54.5l-80 -148zM43 422l73 137l45 12q-7 -14 -17 -24t-23 -10q-29 0 -53 24t-24 61q0 39 26.5 66.5t65.5 27.5
q37 0 64.5 -27.5t27.5 -66.5q0 -16 -6 -37.5t-24 -54.5l-81 -148z" />
    <glyph glyph-name="quotedblbase" unicode="&#x201e;" horiz-adv-x="509" 
d="M279 -120l73 137l46 12q-8 -14 -18 -24t-23 -10q-28 0 -52 24t-24 61q0 39 26.5 66.5t65.5 27.5q37 0 64.5 -27.5t27.5 -66.5q0 -16 -6.5 -37.5t-24.5 -54.5l-80 -148zM54 -120l73 137l45 12q-7 -14 -17 -24t-23 -10q-29 0 -53 24t-24 61q0 39 26.5 66.5t65.5 27.5
q37 0 64.5 -27.5t27.5 -66.5q0 -16 -6 -37.5t-24 -54.5l-81 -148z" />
    <glyph glyph-name="bullet" unicode="&#x2022;" horiz-adv-x="351" 
d="M176 248q-36 0 -63.5 16t-43 44t-15.5 62q0 33 15.5 61t43 44.5t63.5 16.5q35 0 62.5 -16.5t43 -44.5t15.5 -61q0 -34 -15.5 -62t-43 -44t-62.5 -16z" />
    <glyph glyph-name="ellipsis" unicode="&#x2026;" horiz-adv-x="840" 
d="M420 -11q-39 0 -65 27t-26 65q0 40 26 66.5t65 26.5q40 0 65.5 -26.5t25.5 -66.5q0 -38 -25.5 -65t-65.5 -27zM690 -11q-39 0 -65 27t-26 65q0 40 26 66.5t65 26.5q40 0 65.5 -26.5t25.5 -66.5q0 -38 -25.5 -65t-65.5 -27zM150 -11q-39 0 -65 27t-26 65q0 40 26 66.5
t65 26.5q40 0 65.5 -26.5t25.5 -66.5q0 -38 -25.5 -65t-65.5 -27z" />
    <glyph glyph-name="guilsinglleft" unicode="&#x2039;" horiz-adv-x="291" 
d="M126 72l-102 173l102 173h142l-107 -173l107 -173h-142z" />
    <glyph glyph-name="guilsinglright" unicode="&#x203a;" horiz-adv-x="291" 
d="M23 72l107 173l-107 173h142l102 -173l-102 -173h-142z" />
    <glyph glyph-name="fraction" unicode="&#x2044;" horiz-adv-x="692" 
d="M283 317l57 -60l-220 -270l-101 101zM396 391l-57 60l220 270l101 -101z" />
    <glyph glyph-name="uni2074" unicode="&#x2074;" horiz-adv-x="346" 
d="M21 468l102 238h117l-104 -238h-115zM21 407v61l30 33h273v-94h-303zM192 347v207h108v-207h-108z" />
    <glyph glyph-name="Euro" unicode="&#x20ac;" horiz-adv-x="714" 
d="M420 -11q-77 0 -141.5 27.5t-113 77.5t-75 116.5t-26.5 143.5t26.5 143.5t74.5 115.5t112.5 76.5t141.5 27.5q81 0 144.5 -27t112.5 -74l-105 -106q-28 31 -65.5 48.5t-88.5 17.5q-58 0 -101.5 -27.5t-67.5 -77.5t-24 -117t24.5 -117.5t68.5 -78t103 -27.5q50 0 88 17
t67 48l106 -106q-51 -47 -114.5 -74t-146.5 -27zM-3 383v95h481l-24 -95h-457zM-3 223v95h445l-24 -95h-421z" />
    <glyph glyph-name="uni2120" unicode="&#x2120;" horiz-adv-x="713" 
d="M157 314q-44 0 -75.5 14t-57.5 43l51 51q17 -20 38 -30.5t49 -10.5q25 0 39 9t14 25q0 14 -9 23t-24 15.5t-33 12.5t-35.5 13.5t-32.5 19.5t-24 30t-9 45q0 32 16 55.5t44 36t64 12.5q38 0 68.5 -13.5t50.5 -35.5l-51 -50q-16 16 -32.5 24t-36.5 8q-21 0 -33 -7.5
t-12 -22.5q0 -13 9 -21.5t24 -14.5t32.5 -12t35.5 -14t32.5 -20t23.5 -31t9 -46q0 -51 -35.5 -79.5t-99.5 -28.5zM326 319v353h56l140 -216h-29l140 216h56v-353h-79v221l14 -4l-90 -141h-53l-90 141l13 4v-221h-78z" />
    <glyph glyph-name="trademark" unicode="&#x2122;" horiz-adv-x="733" 
d="M135 319v348h79v-348h-79zM24 604v68h300v-68h-300zM346 319v353h56l140 -216h-29l140 216h56v-353h-79v221l14 -4l-90 -141h-53l-90 141l13 4v-221h-78z" />
    <glyph glyph-name="arrowleft" unicode="&#x2190;" horiz-adv-x="658" 
d="M188 271v134h452v-134h-452zM467 600l-261 -262l261 -261h-188l-261 261l261 262h188z" />
    <glyph glyph-name="arrowup" unicode="&#x2191;" horiz-adv-x="658" 
d="M262 480h134v-453h-134v453zM591 200l-262 262l-261 -262v188l261 262l262 -262v-188z" />
    <glyph glyph-name="arrowright" unicode="&#x2192;" horiz-adv-x="658" 
d="M471 405v-134h-453v134h453zM191 77l262 261l-262 262h188l262 -262l-262 -261h-188z" />
    <glyph glyph-name="arrowdown" unicode="&#x2193;" horiz-adv-x="658" 
d="M396 197h-134v452h134v-452zM68 476l261 -261l262 261v-188l-262 -261l-261 261v188z" />
    <glyph glyph-name="uni2196" unicode="&#x2196;" horiz-adv-x="658" 
d="M142 432l94 95l355 -355l-94 -95zM569 470l-368 -3l-2 -368l-131 131v370h370z" />
    <glyph glyph-name="uni2197" unicode="&#x2197;" horiz-adv-x="658" 
d="M424 526l94 -94l-354 -355l-96 94zM461 99l-2 368l-368 2l130 131h370v-370z" />
    <glyph glyph-name="uni2198" unicode="&#x2198;" horiz-adv-x="658" 
d="M518 244l-95 -94l-355 354l95 96zM91 207l367 2l2 368l131 -130v-370h-370z" />
    <glyph glyph-name="uni2199" unicode="&#x2199;" horiz-adv-x="658" 
d="M236 150l-95 95l355 355l95 -95zM198 577l3 -367l368 -2l-131 -131h-370v370z" />
    <glyph glyph-name="minus" unicode="&#x2212;" horiz-adv-x="563" 
d="M49 271v127h465v-127h-465z" />
    <glyph glyph-name="uni2215" unicode="&#x2215;" horiz-adv-x="384" 
d="M3 -55l245 810h133l-245 -810h-133z" />
    <glyph glyph-name="uni2713" unicode="&#x2713;" horiz-adv-x="838" 
d="M271 63l-253 250l97 96l235 -233l-60 -2l432 489l98 -98l-458 -502h-91z" />
    <glyph glyph-name="T_T" horiz-adv-x="1136" 
d="M241 0v696h157v-696h-157zM20 569v137h599v-137h-599zM737 0v696h158v-696h-158zM517 569v137h599v-137h-599z" />
    <glyph glyph-name="T_h" horiz-adv-x="1123" 
d="M241 0v696h157v-696h-157zM20 569v137h608v-137h-608zM926 0v277q0 38 -23.5 61.5t-60.5 23.5q-25 0 -44 -10.5t-29.5 -30t-10.5 -44.5l-60 29q0 57 24.5 100t67 66.5t98.5 23.5q57 0 100 -23.5t67 -65t24 -96.5v-311h-153zM605 0v706h153v-706h-153z" />
    <glyph glyph-name="T_l" horiz-adv-x="812" 
d="M241 0v696h157v-696h-157zM20 569v137h629v-137h-629zM605 0v706h153v-706h-153z" />
    <glyph glyph-name="ae.ss01" horiz-adv-x="912" 
d="M686 -11q-81 0 -143 33.5t-97.5 91.5t-35.5 130t34.5 129t95 90.5t136.5 33.5q80 0 136 -36.5t85 -104.5l-296 -286l-78 79l268 258l-9 -101q-12 33 -37.5 51t-67.5 18q-39 0 -67 -15.5t-43 -44t-15 -66.5q0 -42 17 -73.5t49 -49.5t73 -18q36 0 64.5 12.5t51.5 38.5
l84 -84q-39 -43 -90.5 -64.5t-114.5 -21.5zM257 -10q-67 0 -119.5 33t-83 90t-30.5 130t30.5 130t83 90t119.5 33q49 0 88.5 -19t64.5 -52.5t28 -76.5v-210q-3 -43 -27.5 -76.5t-64.5 -52.5t-89 -19zM288 128q49 0 79 32.5t30 82.5q0 34 -13.5 60t-38 40.5t-56.5 14.5
t-56.5 -14.5t-39 -40.5t-14.5 -60q0 -33 14 -59t39 -41t56 -15zM391 0v131l23 118l-23 118v119h150v-486h-150z" />
    <glyph glyph-name="e.ss01" horiz-adv-x="525" 
d="M299 -11q-81 0 -143 33.5t-97.5 91.5t-35.5 130t34.5 129t95 90.5t136.5 33.5q80 0 136 -36.5t85 -104.5l-296 -286l-78 79l268 258l-9 -101q-12 33 -37.5 51t-67.5 18q-39 0 -67 -15.5t-43 -44t-15 -66.5q0 -42 17 -73.5t49 -49.5t73 -18q36 0 64.5 12.5t51.5 38.5
l84 -84q-39 -43 -90.5 -64.5t-114.5 -21.5z" />
    <glyph glyph-name="eacute.ss01" horiz-adv-x="525" 
d="M299 -11q-81 0 -143 33.5t-97.5 91.5t-35.5 130t34.5 129t95 90.5t136.5 33.5q80 0 136 -36.5t85 -104.5l-296 -286l-78 79l268 258l-9 -101q-12 33 -37.5 51t-67.5 18q-39 0 -67 -15.5t-43 -44t-15 -66.5q0 -42 17 -73.5t49 -49.5t73 -18q36 0 64.5 12.5t51.5 38.5
l84 -84q-39 -43 -90.5 -64.5t-114.5 -21.5zM211 541l-50 73l159 149l84 -118z" />
    <glyph glyph-name="ecaron.ss01" horiz-adv-x="525" 
d="M299 -11q-81 0 -143 33.5t-97.5 91.5t-35.5 130t34.5 129t95 90.5t136.5 33.5q80 0 136 -36.5t85 -104.5l-296 -286l-78 79l268 258l-9 -101q-12 33 -37.5 51t-67.5 18q-39 0 -67 -15.5t-43 -44t-15 -66.5q0 -42 17 -73.5t49 -49.5t73 -18q36 0 64.5 12.5t51.5 38.5
l84 -84q-39 -43 -90.5 -64.5t-114.5 -21.5zM423 748l50 -66l-146 -145h-88l-146 145l50 66l197 -122l-116 1z" />
    <glyph glyph-name="ecircumflex.ss01" horiz-adv-x="525" 
d="M299 -11q-81 0 -143 33.5t-97.5 91.5t-35.5 130t34.5 129t95 90.5t136.5 33.5q80 0 136 -36.5t85 -104.5l-296 -286l-78 79l268 258l-9 -101q-12 33 -37.5 51t-67.5 18q-39 0 -67 -15.5t-43 -44t-15 -66.5q0 -42 17 -73.5t49 -49.5t73 -18q36 0 64.5 12.5t51.5 38.5
l84 -84q-39 -43 -90.5 -64.5t-114.5 -21.5zM143 537l-50 66l146 145h88l146 -145l-50 -66l-197 122h116z" />
    <glyph glyph-name="edieresis.ss01" horiz-adv-x="525" 
d="M299 -11q-81 0 -143 33.5t-97.5 91.5t-35.5 130t34.5 129t95 90.5t136.5 33.5q80 0 136 -36.5t85 -104.5l-296 -286l-78 79l268 258l-9 -101q-12 33 -37.5 51t-67.5 18q-39 0 -67 -15.5t-43 -44t-15 -66.5q0 -42 17 -73.5t49 -49.5t73 -18q36 0 64.5 12.5t51.5 38.5
l84 -84q-39 -43 -90.5 -64.5t-114.5 -21.5zM174 548q-36 0 -59.5 24.5t-23.5 59.5q0 36 23.5 60t59.5 24t59 -24t23 -60q0 -35 -23 -59.5t-59 -24.5zM394 548q-36 0 -59.5 24.5t-23.5 59.5q0 36 23.5 60t59.5 24t59 -24t23 -60q0 -35 -23 -59.5t-59 -24.5z" />
    <glyph glyph-name="edotaccent.ss01" horiz-adv-x="525" 
d="M299 -11q-81 0 -143 33.5t-97.5 91.5t-35.5 130t34.5 129t95 90.5t136.5 33.5q80 0 136 -36.5t85 -104.5l-296 -286l-78 79l268 258l-9 -101q-12 33 -37.5 51t-67.5 18q-39 0 -67 -15.5t-43 -44t-15 -66.5q0 -42 17 -73.5t49 -49.5t73 -18q36 0 64.5 12.5t51.5 38.5
l84 -84q-39 -43 -90.5 -64.5t-114.5 -21.5zM284 548q-36 0 -59.5 24.5t-23.5 59.5q0 36 23.5 60t59.5 24t59 -24t23 -60q0 -35 -23 -59.5t-59 -24.5z" />
    <glyph glyph-name="egrave.ss01" horiz-adv-x="525" 
d="M299 -11q-81 0 -143 33.5t-97.5 91.5t-35.5 130t34.5 129t95 90.5t136.5 33.5q80 0 136 -36.5t85 -104.5l-296 -286l-78 79l268 258l-9 -101q-12 33 -37.5 51t-67.5 18q-39 0 -67 -15.5t-43 -44t-15 -66.5q0 -42 17 -73.5t49 -49.5t73 -18q36 0 64.5 12.5t51.5 38.5
l84 -84q-39 -43 -90.5 -64.5t-114.5 -21.5zM336 541l-193 104l84 118l159 -149z" />
    <glyph glyph-name="emacron.ss01" horiz-adv-x="525" 
d="M299 -11q-81 0 -143 33.5t-97.5 91.5t-35.5 130t34.5 129t95 90.5t136.5 33.5q80 0 136 -36.5t85 -104.5l-296 -286l-78 79l268 258l-9 -101q-12 33 -37.5 51t-67.5 18q-39 0 -67 -15.5t-43 -44t-15 -66.5q0 -42 17 -73.5t49 -49.5t73 -18q36 0 64.5 12.5t51.5 38.5
l84 -84q-39 -43 -90.5 -64.5t-114.5 -21.5zM91 690h384v-113h-384v113z" />
    <glyph glyph-name="eogonek.ss01" horiz-adv-x="525" 
d="M299 -11q-81 0 -143 33.5t-97.5 91.5t-35.5 130t34.5 129t95 90.5t136.5 33.5q80 0 136 -36.5t85 -104.5l-296 -286l-78 79l268 258l-9 -101q-12 33 -37.5 51t-67.5 18q-39 0 -67 -15.5t-43 -44t-15 -66.5q0 -42 17 -73.5t49 -49.5t73 -18q36 0 64.5 12.5t51.5 38.5
l84 -84q-39 -43 -90.5 -64.5t-114.5 -21.5zM335 -205q-63 0 -103.5 27.5t-40.5 83.5q0 52 35 87.5t94 48.5l92 -32q-39 -14 -61.5 -34.5t-22.5 -50.5q0 -17 9.5 -27t27.5 -10q12 0 22 4t19 9l32 -80q-19 -11 -44.5 -18.5t-58.5 -7.5z" />
    <glyph glyph-name="g.ss01" horiz-adv-x="520" 
d="M246 -216q-67 0 -120.5 24t-84 66.5t-30.5 97.5q0 44 12.5 72t38.5 55l109 -70q-9 -10 -14 -21t-5 -26q0 -30 25 -48t70 -18q48 0 74 22.5t26 63.5q0 27 -13 47.5t-36.5 32t-53.5 11.5q-57 0 -102.5 26.5t-72 72t-26.5 102.5q0 59 27.5 104.5t75 71.5t106.5 26
t106.5 -25.5t75 -68.5t27.5 -98t-26.5 -97t-72.5 -66t-105 -24l-1 82q68 -1 119 -28.5t80 -73.5t29 -105q0 -61 -30 -108t-83 -73.5t-125 -26.5zM252 219q23 0 40 9.5t27 26.5t10 39t-9.5 39t-27 26.5t-40.5 9.5t-40 -9.5t-27 -26.5t-10 -39t10 -39t27.5 -26.5t39.5 -9.5z
M402 357l-89 89l112 110l88 -88z" />
    <glyph glyph-name="k.ss01" horiz-adv-x="533" 
d="M408 -18l-213 270l211 255l107 -85l-180 -201l5 67l186 -217zM54 0v726h153v-726h-153z" />
    <glyph glyph-name="uni0137.ss01" horiz-adv-x="533" 
d="M408 -18l-213 270l211 255l107 -85l-180 -201l5 67l186 -217zM54 0v726h153v-726h-153zM236 -397l-67 51l90 124l47 5q-9 -13 -20.5 -21t-24.5 -6q-28 4 -47.5 31.5t-14.5 63.5q6 38 36 61t69 17q36 -6 59 -37t16 -70q-2 -15 -11.5 -35t-32.5 -50z" />
    <glyph glyph-name="m.ss01" horiz-adv-x="851" 
d="M43 0v282q0 63 27 111.5t77 76t116 27.5t114 -28.5t74 -86.5h-50q26 58 74 86.5t113 28.5q68 0 117 -27.5t76.5 -76t27.5 -111.5v-282h-153v275q0 41 -20.5 63.5t-56.5 22.5t-56.5 -22.5t-20.5 -63.5v-275h-153v275q0 41 -20 63.5t-56 22.5t-56.5 -22.5t-20.5 -63.5v-275
h-153z" />
    <glyph glyph-name="n.ss01" horiz-adv-x="549" 
d="M42 0v273q0 67 29.5 117.5t82 78.5t121.5 28q70 0 122 -28t81 -78t29 -118v-273h-153v270q0 42 -20.5 66.5t-58.5 24.5q-39 0 -59.5 -24.5t-20.5 -66.5v-270h-153z" />
    <glyph glyph-name="nacute.ss01" horiz-adv-x="549" 
d="M42 0v273q0 67 29.5 117.5t82 78.5t121.5 28q70 0 122 -28t81 -78t29 -118v-273h-153v270q0 42 -20.5 66.5t-58.5 24.5q-39 0 -59.5 -24.5t-20.5 -66.5v-270h-153zM203 541l-50 73l159 149l84 -118z" />
    <glyph glyph-name="ncaron.ss01" horiz-adv-x="549" 
d="M42 0v273q0 67 29.5 117.5t82 78.5t121.5 28q70 0 122 -28t81 -78t29 -118v-273h-153v270q0 42 -20.5 66.5t-58.5 24.5q-39 0 -59.5 -24.5t-20.5 -66.5v-270h-153zM415 748l50 -66l-146 -145h-88l-146 145l50 66l197 -122l-116 1z" />
    <glyph glyph-name="uni0146.ss01" horiz-adv-x="549" 
d="M42 0v273q0 67 29.5 117.5t82 78.5t121.5 28q70 0 122 -28t81 -78t29 -118v-273h-153v270q0 42 -20.5 66.5t-58.5 24.5q-39 0 -59.5 -24.5t-20.5 -66.5v-270h-153zM227 -397l-67 51l90 124l47 5q-9 -13 -20.5 -21t-24.5 -6q-28 4 -47.5 31.5t-14.5 63.5q6 38 36 61t69 17
q36 -6 59 -37t16 -70q-2 -15 -11.5 -35t-32.5 -50z" />
    <glyph glyph-name="ntilde.ss01" horiz-adv-x="549" 
d="M42 0v273q0 67 29.5 117.5t82 78.5t121.5 28q70 0 122 -28t81 -78t29 -118v-273h-153v270q0 42 -20.5 66.5t-58.5 24.5q-39 0 -59.5 -24.5t-20.5 -66.5v-270h-153zM348 542q-32 0 -55.5 11t-43 22t-42.5 11t-39 -9.5t-30 -28.5l-73 72q29 43 61.5 64t75.5 21
q32 0 55.5 -11t43.5 -22.5t42 -11.5q24 0 40 9.5t29 29.5l73 -73q-29 -42 -61.5 -63t-75.5 -21z" />
    <glyph glyph-name="eng.ss01" horiz-adv-x="549" 
d="M314 -218q-53 0 -90 17.5t-65 49.5l95 95q11 -13 22.5 -18.5t26.5 -5.5q22 0 36.5 13t14.5 40v170h153v-168q0 -59 -25 -102t-68.5 -67t-99.5 -24zM42 0v273q0 67 29.5 117.5t82 78.5t121.5 28q70 0 122 -28t81 -78t29 -118v-273h-153v270q0 42 -20.5 66.5t-58.5 24.5
q-39 0 -59.5 -24.5t-20.5 -66.5v-270h-153z" />
    <glyph glyph-name="oe.ss01" horiz-adv-x="912" 
d="M288 -11q-75 0 -135.5 33.5t-95.5 91.5t-35 130t35 129t95 90.5t136 33.5t136 -33t95 -90.5t35 -129.5t-35 -130t-95 -91.5t-136 -33.5zM288 128q33 0 58 14.5t38.5 41t13.5 60.5t-14 59.5t-38.5 40t-57.5 14.5q-32 0 -57 -14.5t-39 -40.5t-14 -60q0 -33 14 -59.5t39 -41
t57 -14.5zM686 -11q-81 0 -143 33.5t-97.5 91.5t-35.5 130t34.5 129t95 90.5t136.5 33.5q80 0 136 -36.5t85 -104.5l-296 -286l-78 79l268 258l-9 -101q-12 33 -37.5 51t-67.5 18q-39 0 -67 -15.5t-43 -44t-15 -66.5q0 -42 17 -73.5t49 -49.5t73 -18q36 0 64.5 12.5
t51.5 38.5l84 -84q-39 -43 -90.5 -64.5t-114.5 -21.5z" />
    <glyph glyph-name="t.ss01" horiz-adv-x="480" 
d="M316 -11q-58 0 -101.5 23t-67.5 66t-24 102v507h153v-508q0 -26 14.5 -39t34.5 -13q17 0 29.5 5.5t22.5 16.5l93 -94q-28 -32 -63 -49t-91 -17zM15 355v131h420v-131h-420z" />
    <glyph glyph-name="tcaron.ss01" horiz-adv-x="506" 
d="M316 -11q-58 0 -101.5 23t-67.5 66t-24 102v507h153v-508q0 -26 14.5 -39t34.5 -13q17 0 29.5 5.5t22.5 16.5l93 -94q-28 -32 -63 -49t-91 -17zM15 355v131h420v-131h-420zM386 517l-74 40l73 137l45 12q-7 -14 -17 -24t-23 -10q-29 0 -53 24t-24 61q0 39 26.5 66.5
t65.5 27.5q37 0 64.5 -27.5t27.5 -66.5q0 -16 -6 -37.5t-24 -54.5z" />
    <glyph glyph-name="uni021B.ss01" horiz-adv-x="480" 
d="M316 -11q-58 0 -101.5 23t-67.5 66t-24 102v507h153v-508q0 -26 14.5 -39t34.5 -13q17 0 29.5 5.5t22.5 16.5l93 -94q-28 -32 -63 -49t-91 -17zM15 355v131h420v-131h-420zM240 -397l-67 51l90 124l47 5q-9 -13 -20.5 -21t-24.5 -6q-28 4 -47.5 31.5t-14.5 63.5
q6 38 36 61t69 17q36 -6 59 -37t16 -70q-2 -15 -11.5 -35t-32.5 -50z" />
    <glyph glyph-name="f_t" horiz-adv-x="700" 
d="M116 0v528q0 59 26 106.5t75.5 75t116.5 27.5l-1 -137q-29 0 -46.5 -18t-17.5 -49v-533h-153zM9 356v130h678v-130h-678zM424 0v687h153v-687h-153z" />
    <glyph glyph-name="r_f" horiz-adv-x="733" 
d="M54 0v486h153v-486h-153zM413 0v528q0 59 26.5 106.5t74.5 75t114 27.5q50 0 87.5 -16.5t65.5 -45.5l-96 -96q-10 10 -22.5 15.5t-29.5 5.5q-31 0 -49 -18t-18 -49v-533h-153zM207 266l-64 46q19 86 67.5 130.5t146.5 44.5h349v-131h-386q-56 0 -84.5 -21.5t-28.5 -68.5z
" />
    <glyph glyph-name="r_t" horiz-adv-x="691" 
d="M54 0v486h153v-486h-153zM207 266l-64 46q19 86 67.5 130.5t146.5 44.5h321v-131h-358q-56 0 -84.5 -21.5t-28.5 -68.5zM415 0v687h153v-687h-153z" />
    <glyph glyph-name="t_f" horiz-adv-x="751" 
d="M123 0v687h153v-687h-153zM13 356v130h711v-130h-711zM431 0v528q0 59 26.5 106.5t74.5 75t114 27.5q50 0 87.5 -16.5t65.5 -45.5l-96 -96q-10 10 -22.5 15.5t-29.5 5.5q-31 0 -49 -18t-18 -49v-533h-153z" />
    <glyph glyph-name="one.ss01" horiz-adv-x="409" 
d="M189 0v627l33 79h122v-706h-155zM97 418l-85 93l210 195l37 -132z" />
    <glyph glyph-name="zero.tf" horiz-adv-x="590" 
d="M296 -11q-82 0 -148 46t-104.5 128.5t-38.5 190.5q0 109 38 190.5t103.5 127t147.5 45.5q83 0 149 -45.5t104 -127.5t38 -191t-38 -191t-103 -127.5t-148 -45.5zM295 128q42 0 71.5 25.5t45.5 76t16 123.5q0 74 -16.5 124t-46 75.5t-71.5 25.5q-40 0 -69.5 -25t-45.5 -75
t-16 -124t16 -124t46 -76t70 -26z" />
    <glyph glyph-name="one.tf" horiz-adv-x="590" 
d="M244 0v706h154v-706h-154zM74 573v133h310v-133h-310zM74 0v134h453v-134h-453z" />
    <glyph glyph-name="two.tf" horiz-adv-x="590" 
d="M33 88l276 280q26 26 42 46.5t22.5 39t6.5 37.5q0 41 -27 64.5t-71 23.5q-42 0 -77 -22t-68 -74l-105 91q43 71 109 107t151 36q74 0 128 -27t84 -77t30 -117q0 -43 -11 -78t-36 -69.5t-67 -75.5l-193 -187zM33 0v88l133 46h383v-134h-516z" />
    <glyph glyph-name="three.tf" horiz-adv-x="590" 
d="M268 -11q-75 0 -137 25.5t-105 73.5l102 101q20 -28 57.5 -45.5t79.5 -17.5q38 0 66.5 13t44.5 37t16 57t-16.5 56.5t-46.5 36.5t-73 13q-20 0 -40.5 -2.5t-34.5 -7.5l69 87q28 8 54 13.5t48 5.5q55 0 99.5 -25.5t70.5 -72t26 -110.5q0 -70 -35 -124t-98 -84t-147 -30z
M181 329v87l178 202l176 1l-185 -204zM71 573v133h464v-87l-124 -46h-340z" />
    <glyph glyph-name="four.tf" horiz-adv-x="590" 
d="M15 245l228 461h171l-234 -461h-165zM15 157v88l51 45h509v-133h-560zM344 0v437h154v-437h-154z" />
    <glyph glyph-name="five.tf" horiz-adv-x="590" 
d="M268 -11q-72 0 -137 25t-108 74l102 101q20 -29 57.5 -46t80.5 -17q39 0 68.5 13.5t46 39t16.5 59.5q0 35 -16.5 60t-46 38.5t-67.5 13.5q-36 0 -67 -9.5t-56 -28.5l12 100q24 18 45.5 29.5t47 17.5t59.5 6q80 0 134.5 -32t82.5 -85t28 -117q0 -70 -35 -125t-98.5 -86
t-148.5 -31zM141 312l-69 63l35 331h142l-38 -328zM129 573l-22 133h403v-133h-381z" />
    <glyph glyph-name="six.tf" horiz-adv-x="590" 
d="M295 -11q-74 0 -134 33t-95 88.5t-35 124.5q0 91 63 182l202 289h178l-224 -308l-58 -5q13 25 29 42t40 26.5t62 9.5q66 0 119.5 -30.5t85.5 -83t32 -120.5q0 -69 -35.5 -125.5t-95 -89.5t-134.5 -33zM295 126q32 0 57.5 15t40 41t14.5 58q0 33 -14.5 58.5t-40 40
t-57.5 14.5t-57 -14.5t-39.5 -40t-14.5 -58.5q0 -32 14.5 -58t39.5 -41t57 -15z" />
    <glyph glyph-name="seven.tf" horiz-adv-x="590" 
d="M150 0l249 618h154l-241 -618h-162zM36 573v133h517v-88l-53 -45h-464z" />
    <glyph glyph-name="eight.tf" horiz-adv-x="590" 
d="M295 -11q-77 0 -135 27t-89.5 74t-31.5 107q0 51 20 91t56 67t83 36l-2 -32q-41 9 -70 33.5t-44 59.5t-15 73q0 56 29.5 99.5t81 68.5t117.5 25t117.5 -25t80.5 -68.5t29 -99.5q0 -38 -15 -73t-43 -59.5t-70 -33.5l-3 32q48 -9 84 -36t56 -67t20 -91q0 -60 -31.5 -107
t-89 -74t-135.5 -27zM295 123q31 0 55.5 12.5t38 34.5t13.5 49q0 28 -13.5 49.5t-38 34t-55.5 12.5t-55.5 -12.5t-38 -34t-13.5 -49.5q0 -27 13.5 -49t38 -34.5t55.5 -12.5zM295 429q36 0 59.5 22.5t23.5 56.5q0 35 -23.5 57.5t-59.5 22.5t-60 -22t-24 -57q0 -34 24 -57
t60 -23z" />
    <glyph glyph-name="nine.tf" horiz-adv-x="590" 
d="M117 0l224 309l58 4q-14 -23 -29.5 -41t-39.5 -27t-62 -9q-65 0 -119 30.5t-86 83t-32 119.5q0 70 35 126t95 89t134 33q75 0 135 -32.5t94.5 -88t34.5 -125.5q0 -90 -63 -181l-202 -290h-177zM295 353q32 0 57.5 15t40 40.5t14.5 57.5q0 33 -14.5 59t-40 40.5
t-57.5 14.5t-57 -14.5t-40 -40.5t-15 -59q0 -32 15 -57.5t40.5 -40.5t56.5 -15z" />
    <glyph glyph-name="ampersand.ss01" horiz-adv-x="660" 
d="M306 -11q-80 0 -139 26.5t-91 74.5t-32 110q0 72 41.5 123t115.5 67l-4 -31q-39 10 -67 34t-43 58t-15 73q0 58 29.5 101.5t81 68t118.5 24.5q75 0 129 -29t83 -75l-100 -95q-21 31 -46 48t-63 17q-41 0 -64.5 -22t-23.5 -55q0 -22 10.5 -39t27.5 -27t39 -10v-118
q-28 0 -50.5 -12t-35.5 -33t-13 -49t14 -49.5t40 -34t60 -12.5q36 0 61.5 12.5t39.5 34t14 49.5q0 24 -8 42t-22 30.5t-33 17.5l48 81q50 -12 86.5 -40.5t57 -68t20.5 -86.5q0 -60 -34 -106.5t-94 -73t-138 -26.5zM360 309v122h278v-122h-278z" />
    <glyph glyph-name="uni030C.alt" 
d="M153 152l-74 40l73 137l45 12q-7 -14 -17 -24t-23 -10q-29 0 -53 24t-24 61q0 39 26.5 66.5t65.5 27.5q37 0 64.5 -27.5t27.5 -66.5q0 -16 -6 -37.5t-24 -54.5z" />
    <glyph glyph-name="Dcroat.BRACKET.varAlt01" horiz-adv-x="780" 
d="M200 0v138h175q64 0 112 25.5t74 74.5t26 116t-26.5 115t-74 74t-111.5 26h-180v137h182q80 0 147.5 -25.5t118 -73t78 -112t27.5 -142.5q0 -77 -27.5 -142t-77.5 -112t-117.5 -73t-146.5 -26h-179zM94 0v706h157v-706h-157zM0 286v134h354v-134h-354z" />
    <glyph glyph-name="cent.BRACKET.varAlt01" horiz-adv-x="516" 
d="M298 99q-75 0 -136 33t-96 91t-35 130q0 73 35.5 130.5t96.5 90.5t137 33q57 0 104.5 -19.5t84.5 -58.5l-98 -98q-17 19 -39.5 28t-51.5 9q-33 0 -58.5 -14.5t-40 -40t-14.5 -59.5t14.5 -60t40.5 -41t58 -15q30 0 53.5 10.5t40.5 29.5l97 -98q-38 -40 -86 -60.5
t-107 -20.5zM233 168h110v-158h-110v158zM343 528h-110v168h110v-168z" />
    <glyph glyph-name="dollar.BRACKET.varAlt01" horiz-adv-x="603" 
d="M290 -11q-82 0 -143 28.5t-111 86.5l99 101q33 -40 73 -62.5t92 -22.5q49 0 76 18.5t27 52.5q0 29 -17.5 47t-46.5 31t-64 25t-69.5 27.5t-63.5 39t-47 59t-18 89.5q0 65 31.5 112t86.5 71.5t126 24.5q69 0 129 -26t98 -71l-99 -101q-31 33 -62.5 50.5t-68.5 17.5
q-43 0 -67 -16t-24 -47q0 -27 18 -43.5t47.5 -28.5t64 -24t69.5 -28t64.5 -40.5t47.5 -62t18 -92.5q0 -101 -70.5 -158.5t-195.5 -57.5zM257 67h110v-168h-110v168zM367 645h-110v162h110v-162z" />
    </font>
</defs>
</svg>
