<?xml version="1.0" standalone="no"?>
<!DOCTYPE svg PUBLIC "-//W3C//DTD SVG 1.1//EN" "http://www.w3.org/Graphics/SVG/1.1/DTD/svg11.dtd" >
<svg xmlns="http://www.w3.org/2000/svg" xmlns:xlink="http://www.w3.org/1999/xlink" version="1.1">
<metadata>
Created by FontForge 20201107 at Fri Mar 17 16:10:02 2023
 By 
Copyright 2021 The Outfit Project Authors (https://github.com/Outfitio/Outfit-Fonts)
</metadata>
<defs>
<font id="Outfit-Black" horiz-adv-x="561" >
  <font-face 
    font-family="Outfit Black"
    font-weight="900"
    font-stretch="normal"
    units-per-em="1000"
    panose-1="0 0 0 0 0 0 0 0 0 0"
    ascent="800"
    descent="-200"
    x-height="492"
    cap-height="712"
    bbox="-129 -429 3990 1028"
    underline-thickness="50"
    underline-position="-125"
    unicode-range="U+000D-FB02"
  />
<missing-glyph horiz-adv-x="665" 
d="M59 0v712h547v-712h-547zM179 120h307v472h-307v-472zM203 424l62 62l197 -197l-62 -62zM404 492l64 -63l-208 -208l-63 64z" />
    <glyph glyph-name="fi" unicode="fi" horiz-adv-x="691" 
d="M105 0v512q0 64 28 116.5t81 84t128 31.5q30 0 57.5 -6t55.5 -22l-81 -152q-9 5 -16.5 6.5t-15.5 1.5q-20 0 -30.5 -12t-10.5 -32v-528h-196zM5 332v160h511v-160h-511zM451 0v492h196v-492h-196zM549 520q-40 0 -66.5 27.5t-26.5 67.5t26.5 67.5t66.5 27.5
q41 0 67 -27.5t26 -67.5t-26 -67.5t-67 -27.5z" />
    <glyph glyph-name="fl" unicode="fl" horiz-adv-x="674" 
d="M105 0v512q0 64 28 116.5t82.5 84t131.5 31.5v-172q-19 0 -32.5 -14t-13.5 -37v-521h-196zM5 332v160h512v-160h-512zM431 0v732h196v-732h-196z" />
    <glyph glyph-name="f_f" unicode="ff" horiz-adv-x="794" 
d="M105 0v492q0 69 28 123.5t82 86.5t131 32t131 -30t82 -74t28 -88l-156 -31q0 29 -17.5 45t-47.5 16t-47.5 -16t-17.5 -45v-511h-196zM5 332v160h757v-160h-757zM431 0v511q0 64 28 117t81 84.5t128 31.5q56 0 99.5 -18t72.5 -48l-121 -121q-7 8 -18 11.5t-23 3.5
q-23 0 -37 -14t-14 -37v-521h-196z" />
    <glyph glyph-name="f_j" unicode="fj" horiz-adv-x="691" 
d="M105 0v512q0 64 28 116.5t81 84t128 31.5q30 0 57.5 -6t55.5 -22l-81 -152q-9 5 -16.5 6.5t-15.5 1.5q-20 0 -30.5 -12t-10.5 -32v-528h-196zM5 332v160h511v-160h-511zM428 -226q-55 0 -96.5 19t-70.5 51l119 119q10 -10 18.5 -13.5t16.5 -3.5q17 0 26.5 9.5t9.5 31.5
v505h196v-501q0 -63 -27 -112t-76 -77t-116 -28zM549 520q-40 0 -66.5 27.5t-26.5 67.5t26.5 67.5t66.5 27.5q41 0 67 -27.5t26 -67.5t-26 -67.5t-67 -27.5z" />
    <glyph glyph-name="o_u_t_f_i_t" unicode="outfit" horiz-adv-x="2541" 
d="M295 -12q-81 0 -144.5 33.5t-100 92.5t-36.5 133t36 132t99.5 91.5t144.5 33.5t144 -33.5t99.5 -91.5t36.5 -132t-36 -133t-99 -92.5t-144 -33.5zM294 160q25 0 43.5 10.5t28.5 30t10 45.5t-10.5 45.5t-28.5 30t-43 10.5q-24 0 -42.5 -11t-29 -30.5t-10.5 -45.5
q0 -25 10.5 -44.5t29 -30t42.5 -10.5zM869 -12q-72 0 -127.5 28t-87.5 78t-32 114v284h196v-286q0 -15 6.5 -27t18 -18.5t26.5 -6.5q21 0 35.5 14.5t14.5 37.5v286h196v-284q0 -65 -31.5 -114.5t-87 -77.5t-127.5 -28zM1036 332v160h1498v-160h-1498zM1235 0v694h196v-694
h-196zM1561 0v512q0 64 28 116.5t81 84t128 31.5q30 0 57.5 -6t55.5 -22l-81 -152q-9 5 -16.5 6.5t-15.5 1.5q-20 0 -30.5 -12t-10.5 -32v-528h-196zM1907 0v492h196v-492h-196zM2005 520q-40 0 -66.5 27.5t-26.5 67.5t26.5 67.5t66.5 27.5q41 0 67 -27.5t26 -67.5
t-26 -67.5t-67 -27.5zM2233 0v694h196v-694h-196z" />
    <glyph glyph-name="o_u_t_f_i_t_t_e_d" unicode="outfitted" horiz-adv-x="4037" 
d="M295 -12q-81 0 -144.5 33.5t-100 92.5t-36.5 133t36 132t99.5 91.5t144.5 33.5t144 -33.5t99.5 -91.5t36.5 -132t-36 -133t-99 -92.5t-144 -33.5zM294 160q25 0 43.5 10.5t28.5 30t10 45.5t-10.5 45.5t-28.5 30t-43 10.5q-24 0 -42.5 -11t-29 -30.5t-10.5 -45.5
q0 -25 10.5 -44.5t29 -30t42.5 -10.5zM869 -12q-72 0 -127.5 28t-87.5 78t-32 114v284h196v-286q0 -15 6.5 -27t18 -18.5t26.5 -6.5q21 0 35.5 14.5t14.5 37.5v286h196v-284q0 -65 -31.5 -114.5t-87 -77.5t-127.5 -28zM1235 0v694h196v-694h-196zM1561 0v512q0 64 28 116.5
t81 84t128 31.5q30 0 57.5 -6t55.5 -22l-81 -152q-9 5 -16.5 6.5t-15.5 1.5q-20 0 -30.5 -12t-10.5 -32v-528h-196zM1907 0v492h196v-492h-196zM1036 332v160h1824v-160h-1824zM2005 520q-40 0 -66.5 27.5t-26.5 67.5t26.5 67.5t66.5 27.5q41 0 67 -27.5t26 -67.5t-26 -67.5
t-67 -27.5zM2233 0v694h196v-694h-196zM2559 0v694h196v-694h-196zM3169 -12q-86 0 -151 32.5t-101.5 91t-36.5 134.5q0 75 35.5 133t97.5 91.5t140 33.5q77 0 136 -31.5t92.5 -87.5t33.5 -128q0 -15 -1.5 -31.5t-6.5 -38.5l-444 -3v120l371 3l-91 -53q0 40 -9.5 65.5
t-28.5 38.5t-48 13q-30 0 -52 -15t-33.5 -43t-11.5 -68q0 -41 12.5 -68.5t36.5 -41.5t60 -14q35 0 61.5 11.5t48.5 36.5l98 -97q-37 -42 -89 -63t-119 -21zM3687 -10q-73 0 -127.5 33t-85 90.5t-30.5 132.5t30.5 133t85 90.5t127.5 32.5q44 0 83 -14.5t66.5 -40.5t34.5 -60
v-272q-7 -34 -34.5 -62.5t-66.5 -45.5t-83 -17zM3723 162q25 0 43 10.5t28.5 29.5t10.5 44t-10 43.5t-28.5 29.5t-42.5 11t-42.5 -11t-29.5 -30t-11 -43t10.5 -43t29.5 -30t42 -11zM3799 0v132l27 120l-32 119v361h196v-732h-191z" />
    <glyph glyph-name="o_u_t_f_i_t_t_e_r" unicode="outfitter" horiz-adv-x="3889" 
d="M295 -12q-81 0 -144.5 33.5t-100 92.5t-36.5 133t36 132t99.5 91.5t144.5 33.5t144 -33.5t99.5 -91.5t36.5 -132t-36 -133t-99 -92.5t-144 -33.5zM294 160q25 0 43.5 10.5t28.5 30t10 45.5t-10.5 45.5t-28.5 30t-43 10.5q-24 0 -42.5 -11t-29 -30.5t-10.5 -45.5
q0 -25 10.5 -44.5t29 -30t42.5 -10.5zM869 -12q-72 0 -127.5 28t-87.5 78t-32 114v284h196v-286q0 -15 6.5 -27t18 -18.5t26.5 -6.5q21 0 35.5 14.5t14.5 37.5v286h196v-284q0 -65 -31.5 -114.5t-87 -77.5t-127.5 -28zM1235 0v694h196v-694h-196zM1561 0v512q0 64 28 116.5
t81 84t128 31.5q30 0 57.5 -6t55.5 -22l-81 -152q-9 5 -16.5 6.5t-15.5 1.5q-20 0 -30.5 -12t-10.5 -32v-528h-196zM1907 0v492h196v-492h-196zM1036 332v160h1824v-160h-1824zM2005 520q-40 0 -66.5 27.5t-26.5 67.5t26.5 67.5t66.5 27.5q41 0 67 -27.5t26 -67.5t-26 -67.5
t-67 -27.5zM2233 0v694h196v-694h-196zM2559 0v694h196v-694h-196zM3169 -12q-86 0 -151 32.5t-101.5 91t-36.5 134.5q0 75 35.5 133t97.5 91.5t140 33.5q77 0 136 -31.5t92.5 -87.5t33.5 -128q0 -15 -1.5 -31.5t-6.5 -38.5l-444 -3v120l371 3l-91 -53q0 40 -9.5 65.5
t-28.5 38.5t-48 13q-30 0 -52 -15t-33.5 -43t-11.5 -68q0 -41 12.5 -68.5t36.5 -41.5t60 -14q35 0 61.5 11.5t48.5 36.5l98 -97q-37 -42 -89 -63t-119 -21zM3474 0v492h196v-492h-196zM3670 266l-91 81q38 80 88.5 117.5t126.5 37.5q34 0 58.5 -8t39.5 -23l-110 -156
q-7 8 -20.5 13.5t-31.5 5.5q-30 0 -45 -17.5t-15 -50.5z" />
    <glyph glyph-name="t_t" unicode="tt" horiz-adv-x="746" 
d="M112 0v694h196v-694h-196zM7 332v160h732v-160h-732zM438 0v694h196v-694h-196z" />
    <glyph glyph-name=".notdef" horiz-adv-x="665" 
d="M59 0v712h547v-712h-547zM179 120h307v472h-307v-472zM203 424l62 62l197 -197l-62 -62zM404 492l64 -63l-208 -208l-63 64z" />
    <glyph glyph-name=".null" horiz-adv-x="0" 
 />
    <glyph glyph-name="nonmarkingreturn" horiz-adv-x="333" 
 />
    <glyph glyph-name="CR" unicode="&#xd;" horiz-adv-x="600" 
 />
    <glyph glyph-name="space" unicode=" " horiz-adv-x="180" 
 />
    <glyph glyph-name="exclam" unicode="!" horiz-adv-x="309" 
d="M82 283l-35 449h215l-35 -449h-145zM155 -12q-47 0 -78 32t-31 78q0 47 31 79t78 32t77.5 -32t30.5 -79q0 -46 -30.5 -78t-77.5 -32z" />
    <glyph glyph-name="quotedbl" unicode="&#x22;" horiz-adv-x="486" 
d="M298 404l-31 328h175l-31 -328h-113zM75 404l-31 328h176l-32 -328h-113z" />
    <glyph glyph-name="numbersign" unicode="#" horiz-adv-x="683" 
d="M316 0l124 712h156l-125 -712h-155zM27 193v130h594v-130h-594zM81 0l125 712h154l-123 -712h-156zM63 404v129h593v-129h-593z" />
    <glyph glyph-name="dollar" unicode="$" horiz-adv-x="622" 
d="M296 -12q-88 0 -153 26.5t-120 84.5l121 125q38 -37 79 -56.5t89 -19.5q40 0 60 12.5t20 34.5t-17.5 36.5t-46 26t-62.5 23.5t-68 29t-62.5 41.5t-46 61t-17.5 89.5q0 69 32 119t90 76.5t136 26.5q77 0 143.5 -25.5t109.5 -72.5l-122 -125q-31 32 -63 47.5t-70 15.5
q-30 0 -48 -10t-18 -30q0 -21 17.5 -34.5t46 -24.5t62.5 -23t68 -28.5t62.5 -42t46 -63.5t17.5 -92q0 -109 -74.5 -168.5t-211.5 -59.5zM246 -102v916h140v-916h-140z" />
    <glyph glyph-name="percent" unicode="%" horiz-adv-x="711" 
d="M72 0l397 712h170l-397 -712h-170zM530 -10q-42 0 -77 20.5t-55.5 55.5t-20.5 78t20.5 77t55 54.5t77.5 20.5q44 0 79 -20.5t55.5 -54.5t20.5 -77t-20.5 -78t-55.5 -55.5t-79 -20.5zM531 113q13 0 21.5 8.5t8.5 21.5t-8.5 21.5t-21.5 8.5t-21.5 -8.5t-8.5 -21.5
t8.5 -21.5t21.5 -8.5zM179 416q-42 0 -77 20.5t-55.5 55.5t-20.5 78t20.5 77t55 54.5t77.5 20.5q44 0 79 -20.5t55.5 -54.5t20.5 -77t-20.5 -78t-55.5 -55.5t-79 -20.5zM180 539q13 0 21.5 8.5t8.5 21.5t-8.5 21.5t-21.5 8.5t-21.5 -8.5t-8.5 -21.5t8.5 -21.5t21.5 -8.5z
" />
    <glyph glyph-name="ampersand" unicode="&#x26;" horiz-adv-x="712" 
d="M490 0l-316 349q-38 43 -53.5 81t-15.5 83q0 55 28.5 103t79 78t117.5 30q54 0 94.5 -14.5t68.5 -36t41 -42.5l-125 -125q-18 25 -36 33.5t-38 8.5q-22 0 -35.5 -12.5t-13.5 -29.5q0 -11 5.5 -23t16.5 -25l408 -458h-226zM266 -12q-72 0 -125.5 29.5t-83 79.5t-29.5 111
q0 68 35 121.5t108 86.5l80 -132q-23 -7 -33.5 -24t-10.5 -36q0 -15 7 -29t21 -23t34 -9q17 0 33 8.5t32 31.5l135 -129q-14 -18 -43.5 -38t-70.5 -34t-89 -14z" />
    <glyph glyph-name="quotesingle" unicode="'" horiz-adv-x="258" 
d="M72 404l-31 328h176l-32 -328h-113z" />
    <glyph glyph-name="parenleft" unicode="(" horiz-adv-x="320" 
d="M209 -136q-60 52 -101.5 121.5t-63 153t-21.5 175.5q0 93 21.5 176t63 153t101.5 121l105 -105q-62 -64 -93.5 -149.5t-31.5 -195.5q0 -109 31.5 -195t93.5 -150z" />
    <glyph glyph-name="parenright" unicode=")" horiz-adv-x="320" 
d="M111 -136l-105 105q62 64 93.5 150t31.5 195q0 110 -31.5 195.5t-93.5 149.5l105 105q61 -51 102 -121t62.5 -153t21.5 -176q0 -92 -21.5 -175.5t-62.5 -153t-102 -121.5z" />
    <glyph glyph-name="asterisk" unicode="*" horiz-adv-x="488" 
d="M202 292l3 156l-117 -91l-67 130l140 44l-117 83l103 104l80 -120l43 144l130 -68l-90 -121l151 3l-24 -145l-140 52l50 -146z" />
    <glyph glyph-name="plus" unicode="+" horiz-adv-x="579" 
d="M45 257v154h489v-154h-489zM211 592h158v-514h-158v514z" />
    <glyph glyph-name="comma" unicode="," horiz-adv-x="290" 
d="M46 -124l78 146l54 15q-9 -17 -21 -28.5t-27 -11.5q-34 0 -62.5 28.5t-28.5 71.5q0 46 31 79t78 33q44 0 76.5 -32.5t32.5 -79.5q0 -19 -7 -44t-29 -65l-87 -160z" />
    <glyph glyph-name="hyphen" unicode="-" horiz-adv-x="463" 
d="M47 173v164h369v-164h-369z" />
    <glyph glyph-name="period" unicode="." horiz-adv-x="309" 
d="M155 -12q-47 0 -78 32t-31 78q0 47 31 79t78 32t77.5 -32t30.5 -79q0 -46 -30.5 -78t-77.5 -32z" />
    <glyph glyph-name="slash" unicode="/" horiz-adv-x="367" 
d="M-3 -70l210 840h163l-210 -840h-163z" />
    <glyph glyph-name="zero" unicode="0" horiz-adv-x="676" 
d="M339 -12q-92 0 -163.5 47.5t-112.5 131t-41 190.5t40.5 190t111.5 130t163 47q93 0 164.5 -47t112 -130t40.5 -191t-40.5 -191t-111.5 -130t-163 -47zM338 158q37 0 63 23t39.5 67.5t13.5 107.5t-13.5 107t-39.5 67.5t-64 23.5q-36 0 -62 -23t-39.5 -67t-13.5 -107
t13.5 -107.5t39.5 -68t63 -23.5z" />
    <glyph glyph-name="one" unicode="1" horiz-adv-x="401" 
d="M146 0v712h198v-712h-198zM13 548v164h321v-164h-321z" />
    <glyph glyph-name="two" unicode="2" horiz-adv-x="587" 
d="M20 107l284 286q17 17 27.5 31.5t15 27.5t4.5 27q0 35 -22.5 55.5t-60.5 20.5q-34 0 -63 -20.5t-62 -69.5l-130 117q44 70 113.5 106t158.5 36q81 0 139.5 -28.5t90 -81.5t31.5 -126q0 -41 -11 -77t-35 -70.5t-62 -70.5l-179 -170zM20 0v107l166 57h375v-164h-541z" />
    <glyph glyph-name="three" unicode="3" horiz-adv-x="578" 
d="M259 -12q-76 0 -141.5 25.5t-110.5 72.5l125 123q17 -24 52 -39.5t72 -15.5q30 0 53.5 10t37 29t13.5 46t-14 46t-40 29t-62 10q-20 0 -42.5 -2.5t-34.5 -7.5l87 108q35 8 62.5 13.5t48.5 5.5q54 0 97 -25t68 -71.5t25 -110.5q0 -73 -36.5 -128.5t-103 -86.5t-156.5 -31z
M167 314v107l157 185l213 -1l-162 -183zM60 548v164h477v-107l-147 -57h-330z" />
    <glyph glyph-name="four" unicode="4" horiz-adv-x="618" 
d="M14 240l214 472h212l-219 -472h-207zM14 133v107l54 57h534v-164h-588zM348 0v416h195v-416h-195z" />
    <glyph glyph-name="five" unicode="5" horiz-adv-x="575" 
d="M260 -12q-73 0 -142.5 25.5t-114.5 72.5l126 123q17 -24 51.5 -39.5t71.5 -15.5q32 0 55 11t36 31.5t13 47.5t-13.5 48.5t-39.5 34t-64 12.5q-32 0 -60 -10t-48 -25l22 128q30 15 51 25t43 14.5t52 4.5q83 0 139 -33t85 -87.5t29 -118.5q0 -73 -35.5 -129.5t-100.5 -88
t-156 -31.5zM131 304l-73 64l37 344h178l-37 -325zM117 548l-22 164h418v-164h-396z" />
    <glyph glyph-name="six" unicode="6" horiz-adv-x="584" 
d="M292 -12q-78 0 -140.5 33t-99 89.5t-36.5 127.5q0 84 58 169l207 305h222l-239 -330l-75 16q17 25 32.5 43t38 28t59.5 10q70 0 126 -32.5t89.5 -87t33.5 -121.5q0 -71 -36.5 -127.5t-98.5 -89.5t-141 -33zM292 154q25 0 44.5 11.5t30.5 32t11 46.5t-11 46.5t-30.5 32
t-44.5 11.5t-44.5 -11.5t-30.5 -32t-11 -46.5t11 -46.5t30.5 -32t44.5 -11.5z" />
    <glyph glyph-name="seven" unicode="7" horiz-adv-x="532" 
d="M102 0l224 605h193l-213 -605h-204zM13 548v164h506v-107l-56 -57h-450z" />
    <glyph glyph-name="eight" unicode="8" horiz-adv-x="576" 
d="M288 -12q-81 0 -141 27.5t-93 75t-33 108.5q0 53 20 94t55.5 67t80.5 34l-3 -33q-40 7 -68.5 31.5t-44 60.5t-15.5 74q0 57 30.5 101.5t85 70t126.5 25.5t126 -25.5t84.5 -70t30.5 -101.5q0 -38 -15 -74t-43.5 -60.5t-68.5 -31.5l-4 33q46 -8 81.5 -34t55.5 -67t20 -94
q0 -61 -33 -108.5t-93 -75t-141 -27.5zM288 152q23 0 40.5 10t27.5 27.5t10 39.5t-10 39t-27.5 27t-40.5 10t-40.5 -10t-27.5 -27t-10 -39t10 -39.5t27.5 -27.5t40.5 -10zM288 444q26 0 42.5 16.5t16.5 41.5q0 26 -16.5 43.5t-42.5 17.5t-43 -16.5t-17 -42.5q0 -25 17 -42.5
t43 -17.5z" />
    <glyph glyph-name="nine" unicode="9" horiz-adv-x="584" 
d="M81 0l239 330l75 -16q-17 -25 -32.5 -43t-37.5 -28t-60 -10q-69 0 -125.5 32.5t-90 87t-33.5 121.5q0 71 36.5 127.5t99 89.5t140.5 33q79 0 141 -33t98.5 -89.5t36.5 -127.5q0 -84 -58 -169l-207 -305h-222zM292 378q25 0 44.5 11.5t30.5 32t11 46.5t-11 46.5t-30.5 32
t-44.5 11.5t-44.5 -11.5t-30.5 -32t-11 -46.5t11 -46.5t30.5 -32t44.5 -11.5z" />
    <glyph glyph-name="colon" unicode=":" horiz-adv-x="309" 
d="M155 -12q-47 0 -78 32t-31 78q0 47 31 79t78 32t77.5 -32t30.5 -79q0 -46 -30.5 -78t-77.5 -32zM155 271q-47 0 -78 32t-31 78q0 47 31 79t78 32t77.5 -32t30.5 -79q0 -46 -30.5 -78t-77.5 -32z" />
    <glyph glyph-name="semicolon" unicode=";" horiz-adv-x="291" 
d="M45 -124l78 146l54 15q-9 -17 -21 -28.5t-27 -11.5q-34 0 -62.5 28.5t-28.5 71.5q0 46 31 79t78 33q44 0 76.5 -32.5t32.5 -79.5q0 -19 -7 -44t-29 -65l-87 -160zM148 271q-47 0 -78 32t-31 78q0 47 31 79t78 32t77.5 -32t30.5 -79q0 -46 -30.5 -78t-77.5 -32z" />
    <glyph glyph-name="less" unicode="&#x3c;" horiz-adv-x="579" 
d="M536 73l-493 197v130l493 197v-166l-360 -136v80l360 -136v-166z" />
    <glyph glyph-name="equal" unicode="=" horiz-adv-x="579" 
d="M45 377v154h489v-154h-489zM45 127v154h489v-154h-489z" />
    <glyph glyph-name="greater" unicode="&#x3e;" horiz-adv-x="579" 
d="M43 431v166l493 -197v-130l-493 -197v166l360 136v-80z" />
    <glyph glyph-name="question" unicode="?" horiz-adv-x="492" 
d="M185 278l-15 190h58q17 0 30 5.5t20 16.5t7 26t-7 25.5t-18.5 16t-27.5 5.5q-31 0 -58.5 -20t-45.5 -47l-116 117q30 54 87.5 92.5t141.5 38.5q67 0 118.5 -29.5t80.5 -78t29 -106.5q0 -64 -24.5 -106t-64 -66.5t-84.5 -35.5l43 69l-8 -113h-146zM258 -12q-47 0 -78 32
t-31 78q0 47 31 79t78 32t77.5 -32t30.5 -79q0 -46 -30.5 -78t-77.5 -32z" />
    <glyph glyph-name="at" unicode="@" horiz-adv-x="775" 
d="M393 -128q-76 0 -141 26.5t-114 73.5t-76.5 110.5t-27.5 137.5t28 137.5t77.5 111t116 74t143.5 26.5q101 0 178 -42.5t120 -118t43 -176.5q0 -52 -10 -92t-31 -72h-138q16 19 27 45t16.5 56.5t5.5 62.5q0 71 -26 118t-72.5 70.5t-108.5 23.5q-65 0 -117.5 -26t-83 -76
t-30.5 -123q0 -70 29 -120t79 -76t112 -26q44 0 79 12.5t66 35.5l87 -89q-46 -42 -106 -63t-125 -21zM371 66q-37 0 -71 20.5t-55 55.5t-21 78q0 45 21 81t55 57t71 21q47 0 74.5 -20.5t27.5 -74.5v-126q0 -52 -27 -72t-75 -20zM380 176q21 0 31.5 14t10.5 31q0 18 -11 31
t-31 13q-19 0 -30 -13t-11 -31q0 -19 11 -32t30 -13zM499 68v102h200v-102h-200zM440 68v83l13 73l-13 73v73h111v-302h-111z" />
    <glyph glyph-name="A" unicode="A" horiz-adv-x="755" 
d="M6 0l271 712h204l268 -712h-208l-199 605h72l-204 -605h-204zM182 120v156h398v-156h-398z" />
    <glyph glyph-name="B" unicode="B" horiz-adv-x="659" 
d="M221 0v144h131q38 0 61 20.5t23 56.5q0 24 -10.5 41.5t-29 26.5t-44.5 9h-131v138h122q32 0 53 16t21 50t-21 50t-53 16h-122v144h178q65 0 113.5 -24.5t75.5 -67t27 -97.5q0 -76 -54 -124t-158 -55l-2 69q113 -7 173 -62t60 -141q0 -62 -31 -109.5t-86.5 -74
t-129.5 -26.5h-166zM59 0v712h196v-712h-196z" />
    <glyph glyph-name="C" unicode="C" horiz-adv-x="695" 
d="M411 -12q-82 0 -152.5 27.5t-123.5 77.5t-82.5 117.5t-29.5 146.5q0 80 29.5 147t82 116t122.5 76.5t152 27.5q83 0 152 -26t120 -72l-133 -134q-24 26 -58.5 41t-80.5 15q-40 0 -73.5 -13t-57.5 -38t-37.5 -60.5t-13.5 -79.5q0 -45 13.5 -80.5t37.5 -60.5t57.5 -38.5
t73.5 -13.5q45 0 80.5 14t61.5 41l134 -134q-53 -46 -119 -71.5t-155 -25.5z" />
    <glyph glyph-name="D" unicode="D" horiz-adv-x="768" 
d="M193 0v170h166q56 0 97 20.5t63 62.5t22 104t-22.5 103t-63 61.5t-96.5 20.5h-176v170h176q84 0 154.5 -25t122.5 -72t80.5 -112.5t28.5 -146.5t-28.5 -146.5t-80.5 -112.5t-122 -72t-153 -25h-168zM59 0v712h200v-712h-200z" />
    <glyph glyph-name="E" unicode="E" horiz-adv-x="639" 
d="M59 0v712h200v-712h-200zM221 0v166h382v-166h-382zM221 282v162h345v-162h-345zM221 546v166h376v-166h-376z" />
    <glyph glyph-name="F" unicode="F" horiz-adv-x="614" 
d="M59 0v712h200v-712h-200zM221 253v166h350v-166h-350zM221 546v166h365v-166h-365z" />
    <glyph glyph-name="G" unicode="G" horiz-adv-x="797" 
d="M410 -12q-83 0 -153.5 27.5t-123 77.5t-81.5 117t-29 146q0 80 30.5 147t85 116.5t126.5 77t154 27.5q99 0 177.5 -34t127.5 -92l-135 -135q-37 43 -77 64t-96 21q-53 0 -96 -23.5t-68.5 -66.5t-25.5 -101t23.5 -101.5t65.5 -67.5t98 -24q54 0 91 21t56.5 60t19.5 92
l137 -87l-331 10v160h395v-30q0 -128 -46.5 -218t-130 -137t-194.5 -47z" />
    <glyph glyph-name="H" unicode="H" horiz-adv-x="748" 
d="M59 0v712h200v-712h-200zM489 0v712h200v-712h-200zM168 280v166h399v-166h-399z" />
    <glyph glyph-name="I" unicode="I" horiz-adv-x="318" 
d="M59 0v712h200v-712h-200z" />
    <glyph glyph-name="J" unicode="J" horiz-adv-x="569" 
d="M222 -12q-73 0 -124.5 24.5t-92.5 71.5l128 128q19 -24 42.5 -36t54.5 -12q25 0 45.5 10.5t33 32t12.5 55.5v450h201v-442q0 -88 -36 -151t-103 -97t-161 -34z" />
    <glyph glyph-name="K" unicode="K" horiz-adv-x="737" 
d="M491 0l-249 371l237 341h241l-274 -370v64l285 -406h-240zM59 0v712h200v-712h-200z" />
    <glyph glyph-name="L" unicode="L" horiz-adv-x="572" 
d="M59 0v712h200v-712h-200zM222 0v170h333v-170h-333z" />
    <glyph glyph-name="M" unicode="M" horiz-adv-x="874" 
d="M59 0v712h145l265 -388h-63l264 388h145v-712h-198v384l29 -8l-145 -208h-128l-144 208l28 8v-384h-198z" />
    <glyph glyph-name="N" unicode="N" horiz-adv-x="758" 
d="M59 0v712h140l60 -150v-562h-200zM549 0l-413 519l63 193l413 -519zM549 0l-50 158v554h200v-712h-150z" />
    <glyph glyph-name="O" unicode="O" horiz-adv-x="818" 
d="M411 -14q-84 0 -154.5 28t-123 78t-81.5 118t-29 147q0 80 28.5 147t80.5 117t122.5 77.5t154.5 27.5t154.5 -27.5t122.5 -77.5t80.5 -117.5t28.5 -147.5q0 -79 -28.5 -146.5t-80.5 -118t-122 -78t-153 -27.5zM409 162q56 0 97 24t63 68t22 103q0 44 -12.5 79.5t-36.5 61
t-57.5 39t-75.5 13.5q-56 0 -97 -23.5t-63 -67t-22 -102.5q0 -45 12.5 -81t36.5 -61.5t57.5 -39t75.5 -13.5z" />
    <glyph glyph-name="P" unicode="P" horiz-adv-x="652" 
d="M221 250v144h129q23 0 42.5 9.5t31.5 29t12 48.5t-12 48.5t-31.5 29t-42.5 9.5h-129v144h168q69 0 124.5 -27.5t88 -79t32.5 -124.5q0 -72 -32.5 -124t-88 -79.5t-124.5 -27.5h-168zM59 0v712h200v-712h-200z" />
    <glyph glyph-name="Q" unicode="Q" horiz-adv-x="818" 
d="M411 -14q-84 0 -154.5 28t-123 78t-81.5 118t-29 147q0 80 28.5 147t80.5 117t122.5 77.5t154.5 27.5t154.5 -27.5t122.5 -77.5t80.5 -117.5t28.5 -147.5q0 -79 -28.5 -146.5t-80.5 -118t-122 -78t-153 -27.5zM720 -65l-345 345l108 108l345 -345zM409 162q56 0 97 24
t63 68t22 103q0 44 -12.5 79.5t-36.5 61t-57.5 39t-75.5 13.5q-56 0 -97 -23.5t-63 -67t-22 -102.5q0 -45 12.5 -81t36.5 -61.5t57.5 -39t75.5 -13.5z" />
    <glyph glyph-name="R" unicode="R" horiz-adv-x="675" 
d="M221 284v138h121q41 0 62.5 20t21.5 53t-21.5 53t-62.5 20h-121v144h153q74 0 130 -27t88 -75t32 -112t-32.5 -112t-90.5 -75t-137 -27h-143zM59 0v712h200v-712h-200zM443 0l-194 304l180 39l241 -343h-227z" />
    <glyph glyph-name="S" unicode="S" horiz-adv-x="609" 
d="M289 -12q-91 0 -158.5 26.5t-124.5 84.5l125 125q39 -37 82 -56.5t92 -19.5q41 0 62 12.5t21 34.5t-18 36.5t-47.5 26t-65 23.5t-70.5 29t-64.5 41.5t-47.5 61t-18 89.5q0 69 33 119t93 76.5t141 26.5q80 0 148.5 -25.5t113.5 -72.5l-126 -125q-33 32 -66 47.5t-72 15.5
q-31 0 -49.5 -10t-18.5 -30q0 -21 18 -34.5t47.5 -24.5t65 -23t70.5 -28.5t64.5 -42t47.5 -63.5t18 -92q0 -109 -77.5 -168.5t-218.5 -59.5z" />
    <glyph glyph-name="T" unicode="T" horiz-adv-x="659" 
d="M229 0v712h200v-712h-200zM16 542v170h627v-170h-627z" />
    <glyph glyph-name="U" unicode="U" horiz-adv-x="714" 
d="M358 -12q-94 0 -164 38.5t-109 106.5t-39 156v423h200v-441q0 -34 15 -58t40.5 -36.5t56.5 -12.5q32 0 56.5 12.5t38.5 36t14 57.5v442h201v-424q0 -88 -38.5 -155.5t-108 -106t-163.5 -38.5z" />
    <glyph glyph-name="V" unicode="V" horiz-adv-x="730" 
d="M268 0l-261 712h212l193 -575h-94l196 575h209l-265 -712h-190z" />
    <glyph glyph-name="W" unicode="W" horiz-adv-x="1022" 
d="M232 0l-224 712h199l158 -548h-92l156 548h165l156 -548h-91l158 548h197l-224 -712h-166l-156 547h86l-156 -547h-166z" />
    <glyph glyph-name="X" unicode="X" horiz-adv-x="732" 
d="M491 0l-188 317h-17l-267 395h238l182 -299h17l270 -413h-235zM6 0l256 381l162 -68l-189 -313h-229zM459 331l-162 68l187 313h229z" />
    <glyph glyph-name="Y" unicode="Y" horiz-adv-x="701" 
d="M275 245l-271 467h230l205 -381h-172l205 381h225l-273 -467h-149zM252 0v318h200v-318h-200z" />
    <glyph glyph-name="Z" unicode="Z" horiz-adv-x="626" 
d="M26 139l328 434h244l-329 -434h-243zM26 0v139l109 26h454v-165h-563zM42 547v165h556v-139l-111 -26h-445z" />
    <glyph glyph-name="bracketleft" unicode="[" horiz-adv-x="356" 
d="M57 -96v828h154v-828h-154zM134 -96v137h191v-137h-191zM134 595v137h191v-137h-191z" />
    <glyph glyph-name="backslash" unicode="\" horiz-adv-x="367" 
d="M207 -70l-210 840h163l210 -840h-163z" />
    <glyph glyph-name="bracketright" unicode="]" horiz-adv-x="356" 
d="M145 -96v828h154v-828h-154zM31 -96v137h191v-137h-191zM31 595v137h191v-137h-191z" />
    <glyph glyph-name="asciicircum" unicode="^" horiz-adv-x="481" 
d="M314 447l-107 213h68l-108 -213h-145l161 285h115l161 -285h-145z" />
    <glyph glyph-name="underscore" unicode="_" horiz-adv-x="529" 
d="M0 -183v144h529v-144h-529z" />
    <glyph glyph-name="grave" unicode="`" horiz-adv-x="353" 
d="M263 542l-223 80l83 152l190 -135z" />
    <glyph glyph-name="a" unicode="a" horiz-adv-x="610" 
d="M252 -10q-69 0 -122 33t-83 90.5t-30 132.5t30 133t83 90.5t122 32.5q43 0 79.5 -14.5t61 -40.5t31.5 -60v-282q-7 -34 -31.5 -60t-61 -40.5t-79.5 -14.5zM296 162q37 0 59.5 23.5t22.5 60.5q0 25 -10 43.5t-28.5 29.5t-42.5 11t-42.5 -11t-29.5 -30t-11 -43t10.5 -43
t29.5 -30t42 -11zM372 0v132l27 120l-27 119v121h191v-492h-191z" />
    <glyph glyph-name="b" unicode="b" horiz-adv-x="610" 
d="M350 -10q-44 0 -83 17t-66 45.5t-35 62.5v272q8 34 35 60t66 40.5t83 14.5q73 0 127.5 -32.5t85 -90.5t30.5 -133t-30.5 -132.5t-85 -90.5t-127.5 -33zM47 0v732h196v-361l-32 -119l27 -120v-132h-191zM314 162q24 0 42.5 11t29 30t10.5 43t-10.5 43t-29.5 30t-43 11
t-42.5 -11t-28.5 -29.5t-10 -43.5t10.5 -44t29 -29.5t42.5 -10.5z" />
    <glyph glyph-name="c" unicode="c" horiz-adv-x="505" 
d="M296 -12q-80 0 -144 33t-101 91.5t-37 132.5q0 75 37.5 133.5t102 92t145.5 33.5q58 0 104.5 -18t86.5 -55l-123 -123q-13 12 -29 18t-39 6q-24 0 -43.5 -10.5t-31.5 -29.5t-12 -45t12 -45.5t32 -30.5t43 -11q26 0 43 8t30 22l123 -123q-43 -40 -90 -59.5t-109 -19.5z
" />
    <glyph glyph-name="d" unicode="d" horiz-adv-x="610" 
d="M260 -10q-73 0 -127.5 33t-85 90.5t-30.5 132.5t30.5 133t85 90.5t127.5 32.5q44 0 83 -14.5t66.5 -40.5t34.5 -60v-272q-7 -34 -34.5 -62.5t-66.5 -45.5t-83 -17zM296 162q25 0 43 10.5t28.5 29.5t10.5 44t-10 43.5t-28.5 29.5t-42.5 11t-42.5 -11t-29.5 -30t-11 -43
t10.5 -43t29.5 -30t42 -11zM563 0h-191v132l27 120l-32 119v361h196v-732z" />
    <glyph glyph-name="e" unicode="e" 
d="M303 -12q-86 0 -151 32.5t-101.5 91t-36.5 134.5q0 75 35.5 133t97.5 91.5t140 33.5q77 0 136 -31.5t92.5 -87.5t33.5 -128q0 -15 -1.5 -31.5t-6.5 -38.5l-444 -3v120l371 3l-91 -53q0 40 -9.5 65.5t-28.5 38.5t-48 13q-30 0 -52 -15t-33.5 -43t-11.5 -68
q0 -41 12.5 -68.5t36.5 -41.5t60 -14q35 0 61.5 11.5t48.5 36.5l98 -97q-37 -42 -89 -63t-119 -21z" />
    <glyph glyph-name="f" unicode="f" horiz-adv-x="468" 
d="M105 0v512q0 64 28 116.5t81 84t128 31.5q56 0 99.5 -18t72.5 -48l-121 -121q-7 8 -18 11.5t-23 3.5q-23 0 -37 -14t-14 -37v-521h-196zM5 332v160h431v-160h-431z" />
    <glyph glyph-name="g" unicode="g" horiz-adv-x="592" 
d="M258 -226q-83 0 -147 27.5t-99 77.5l116 115q23 -25 51 -39.5t68 -14.5q48 0 75.5 23t27.5 67v130l32 106l-27 105v121h191v-454q0 -81 -38 -140t-103 -91.5t-147 -32.5zM249 20q-69 0 -122 32t-83 87t-30 122q0 68 30 122.5t83 86.5t122 32q43 0 79.5 -14.5t61 -40.5
t31.5 -60v-252q-7 -34 -31.5 -60t-61 -40.5t-79.5 -14.5zM285 187q24 0 41 11t26 28t9 36t-9 36t-25.5 28t-40.5 11q-23 0 -40 -11t-26 -28.5t-9 -35.5q0 -17 9 -34.5t25.5 -29t39.5 -11.5z" />
    <glyph glyph-name="h" unicode="h" horiz-adv-x="593" 
d="M360 0v276q0 29 -16.5 44.5t-41.5 15.5q-17 0 -30.5 -7t-21 -20.5t-7.5 -32.5l-76 34q0 60 24.5 103t68 66t101.5 23q60 0 104 -23.5t67.5 -64t23.5 -93.5v-321h-196zM47 0v732h196v-732h-196z" />
    <glyph glyph-name="i" unicode="i" horiz-adv-x="288" 
d="M46 0v492h196v-492h-196zM144 538q-43 0 -71.5 29.5t-28.5 72.5t28.5 72.5t71.5 29.5q44 0 72 -29.5t28 -72.5t-28 -72.5t-72 -29.5z" />
    <glyph glyph-name="j" unicode="j" horiz-adv-x="303" 
d="M38 -226q-55 0 -96.5 19t-70.5 51l119 119q10 -10 18.5 -13.5t16.5 -3.5q17 0 26.5 9.5t9.5 31.5v505h196v-501q0 -63 -27 -112t-76 -77t-116 -28zM159 538q-43 0 -71.5 29.5t-28.5 72.5t28.5 72.5t71.5 29.5q44 0 72 -29.5t28 -72.5t-28 -72.5t-72 -29.5z" />
    <glyph glyph-name="k" unicode="k" horiz-adv-x="580" 
d="M364 0l-137 259l136 233h211l-176 -263l5 64l181 -293h-220zM47 0v732h196v-732h-196z" />
    <glyph glyph-name="l" unicode="l" horiz-adv-x="290" 
d="M47 0v732h196v-732h-196z" />
    <glyph glyph-name="m" unicode="m" horiz-adv-x="885" 
d="M47 0v492h196v-492h-196zM350 0v282q0 25 -15 39.5t-38 14.5q-16 0 -28.5 -6.5t-19 -18.5t-6.5 -29l-76 28q0 60 26.5 103t71.5 66t102 23q50 0 90.5 -24t64.5 -66.5t24 -100.5v-311h-196zM653 0v282q0 25 -15 39.5t-38 14.5q-16 0 -28.5 -6.5t-19 -18.5t-6.5 -29
l-115 -1q0 69 27.5 118.5t76.5 76t112 26.5q59 0 104.5 -25t71.5 -72t26 -113v-292h-196z" />
    <glyph glyph-name="n" unicode="n" horiz-adv-x="593" 
d="M360 0v276q0 29 -16.5 44.5t-41.5 15.5q-17 0 -30.5 -7t-21 -20.5t-7.5 -32.5l-76 34q0 60 26.5 103t73 66t105.5 23q53 0 94.5 -23.5t65.5 -64t24 -93.5v-321h-196zM47 0v492h196v-492h-196z" />
    <glyph glyph-name="o" unicode="o" horiz-adv-x="588" 
d="M295 -12q-81 0 -144.5 33.5t-100 92.5t-36.5 133t36 132t99.5 91.5t144.5 33.5t144 -33.5t99.5 -91.5t36.5 -132t-36 -133t-99 -92.5t-144 -33.5zM294 160q25 0 43.5 10.5t28.5 30t10 45.5t-10.5 45.5t-28.5 30t-43 10.5q-24 0 -42.5 -11t-29 -30.5t-10.5 -45.5
q0 -25 10.5 -44.5t29 -30t42.5 -10.5z" />
    <glyph glyph-name="p" unicode="p" horiz-adv-x="610" 
d="M350 -10q-44 0 -83 14.5t-66 40.5t-35 60v272q8 34 35 62.5t66 45.5t83 17q73 0 127.5 -32.5t85 -90.5t30.5 -133t-30.5 -132.5t-85 -90.5t-127.5 -33zM47 -210v702h196v-121l-32 -119l27 -120v-342h-191zM313 162q24 0 43 11t29.5 30t10.5 43q0 25 -10.5 43.5t-29 29.5
t-42.5 11t-42.5 -10.5t-29 -29.5t-10.5 -44q0 -24 10 -43t28.5 -30t42.5 -11z" />
    <glyph glyph-name="q" unicode="q" horiz-adv-x="610" 
d="M252 -10q-69 0 -122 33t-83 90.5t-30 132.5t30 133t83 90.5t122 32.5q43 0 79.5 -14.5t61 -40.5t31.5 -60v-282q-7 -34 -31.5 -60t-61 -40.5t-79.5 -14.5zM296 162q37 0 59.5 23.5t22.5 60.5q0 25 -10 43.5t-28.5 29.5t-42.5 11t-42.5 -11t-29.5 -30t-11 -43t10.5 -43
t29.5 -30t42 -11zM372 -210v342l27 120l-27 119v121h191v-702h-191z" />
    <glyph glyph-name="r" unicode="r" horiz-adv-x="462" 
d="M47 0v492h196v-492h-196zM243 266l-91 81q38 80 88.5 117.5t126.5 37.5q34 0 58.5 -8t39.5 -23l-110 -156q-7 8 -20.5 13.5t-31.5 5.5q-30 0 -45 -17.5t-15 -50.5z" />
    <glyph glyph-name="s" unicode="s" horiz-adv-x="485" 
d="M243 -15q-46 0 -92 12t-85.5 33t-66.5 48l103 106q24 -24 57.5 -38t70.5 -14q17 0 26.5 4.5t9.5 12.5q0 14 -16.5 21t-42 13t-54 15.5t-54.5 26t-42 46t-16 75.5q0 47 26.5 83.5t75 58t112.5 21.5q65 0 126 -22t97 -66l-104 -106q-25 28 -55 37.5t-50 9.5
q-19 0 -26.5 -5.5t-7.5 -13.5q0 -11 16 -18t41.5 -13t53.5 -16t53.5 -28t41.5 -47.5t16 -76.5q0 -73 -58 -116t-156 -43z" />
    <glyph glyph-name="t" unicode="t" horiz-adv-x="420" 
d="M112 0v694h196v-694h-196zM7 332v160h406v-160h-406z" />
    <glyph glyph-name="u" unicode="u" 
d="M281 -12q-72 0 -127.5 28t-87.5 78t-32 114v284h196v-286q0 -15 6.5 -27t18 -18.5t26.5 -6.5q21 0 35.5 14.5t14.5 37.5v286h196v-284q0 -65 -31.5 -114.5t-87 -77.5t-127.5 -28z" />
    <glyph glyph-name="v" unicode="v" horiz-adv-x="563" 
d="M190 0l-193 492h208l113 -419h-71l112 419h207l-193 -492h-183z" />
    <glyph glyph-name="w" unicode="w" horiz-adv-x="815" 
d="M144 0l-143 492h186l79 -358l-55 -1l103 359h185l104 -359l-56 1l81 358h186l-143 -492h-187l-96 340h40l-99 -340h-185z" />
    <glyph glyph-name="x" unicode="x" horiz-adv-x="563" 
d="M344 0l-95 174l-46 25l-196 293h224l96 -176l45 -23l194 -293h-222zM-3 0l204 296l110 -117l-108 -179h-206zM360 199l-110 117l100 176h206z" />
    <glyph glyph-name="y" unicode="y" horiz-adv-x="549" 
d="M191 0l-194 492h208l114 -419h-86l112 419h207l-193 -492h-168zM84 -210l143 323l132 -113l-83 -210h-192z" />
    <glyph glyph-name="z" unicode="z" horiz-adv-x="510" 
d="M21 119l220 254h243l-220 -254h-243zM21 0v119l117 37h340v-156h-457zM38 336v156h446v-119l-117 -37h-329z" />
    <glyph glyph-name="braceleft" unicode="{" horiz-adv-x="357" 
d="M260 -96q-93 0 -144 46t-41 144l11 111q3 27 -8 37t-39 10h-28v135h28q28 0 39 10t8 37l-12 108q-10 95 41.5 142.5t144.5 47.5h66v-137h-28q-42 0 -55.5 -16t-10.5 -43l8 -87q4 -42 -4 -71t-35 -48t-79 -31v38q52 -10 79 -28.5t35 -47.5t4 -71l-8 -90q-2 -27 11 -43
t55 -16h28v-137h-66z" />
    <glyph glyph-name="bar" unicode="|" horiz-adv-x="317" 
d="M71 -130v912h175v-912h-175z" />
    <glyph glyph-name="braceright" unicode="}" horiz-adv-x="357" 
d="M87 -96h-66v137h28q42 0 55 16t11 43l-8 90q-4 42 4 71t35 47.5t79 28.5v-38q-52 12 -79 31t-35 48t-4 71l8 87q3 27 -10.5 43t-55.5 16h-28v137h66q93 0 144.5 -47.5t41.5 -142.5l-12 -108q-3 -27 8 -37t39 -10h28v-135h-28q-28 0 -39 -10t-8 -37l11 -111
q11 -98 -40.5 -144t-144.5 -46z" />
    <glyph glyph-name="asciitilde" unicode="~" horiz-adv-x="579" 
d="M375 256q-35 0 -58.5 9t-41 20t-34.5 20t-41 9q-28 0 -48.5 -12t-41.5 -37l-96 96q44 54 87 79.5t98 25.5q32 0 55 -9t41 -20t36.5 -20t42.5 -9q28 0 50 10.5t44 38.5l97 -97q-45 -55 -89.5 -79.5t-100.5 -24.5z" />
    <glyph glyph-name="uni00A0" unicode="&#xa0;" horiz-adv-x="180" 
 />
    <glyph glyph-name="exclamdown" unicode="&#xa1;" horiz-adv-x="305" 
d="M45 -210l35 417h145l35 -417h-215zM153 281q-47 0 -78 32.5t-31 78.5q0 47 31 78.5t78 31.5t77.5 -31.5t30.5 -78.5q0 -46 -30.5 -78.5t-77.5 -32.5z" />
    <glyph glyph-name="cent" unicode="&#xa2;" horiz-adv-x="505" 
d="M296 98q-80 0 -144 33t-101 91.5t-37 132.5q0 75 37.5 133.5t102 92t145.5 33.5q58 0 104.5 -18t86.5 -55l-123 -123q-13 12 -29 18t-39 6q-24 0 -43.5 -10.5t-31.5 -29.5t-12 -45t12 -45.5t32 -30.5t43 -11q26 0 43 8t30 22l123 -123q-43 -40 -90 -59.5t-109 -19.5z
M212 10v692h140v-692h-140z" />
    <glyph glyph-name="sterling" unicode="&#xa3;" horiz-adv-x="637" 
d="M147 0v502q0 70 32.5 124t90 85t130.5 31q64 0 119 -25t87 -69l-123 -123q-16 23 -31 32t-37 9q-21 0 -36.5 -8.5t-23.5 -24t-8 -38.5v-495h-200zM48 0v170h535v-170h-535zM48 285v140h464v-140h-464z" />
    <glyph glyph-name="currency" unicode="&#xa4;" horiz-adv-x="602" 
d="M302 146q-68 0 -121 27t-83.5 74.5t-30.5 108.5t30 108t83 74t121 27q69 0 121.5 -27t82.5 -74t30 -108q0 -60 -30 -107.5t-82.5 -75t-120.5 -27.5zM139 95l-99 99l117 117l99 -99zM301 302q16 0 28.5 6t19.5 18t7 29q0 18 -7.5 30t-19.5 18t-28 6q-15 0 -27.5 -7
t-20 -19t-7.5 -29q0 -16 7.5 -27.5t20 -18t27.5 -6.5zM463 95l-117 117l99 99l117 -117zM157 401l-117 117l99 99l117 -117zM445 401l-99 99l117 117l99 -99z" />
    <glyph glyph-name="yen" unicode="&#xa5;" horiz-adv-x="701" 
d="M275 245l-231 467h210l155 -381h-112l155 381h205l-233 -467h-149zM252 0v318h200v-318h-200zM242 473l22 -100h-202v100h180zM62 228v100h577v-100h-577zM456 373l33 100h150v-100h-183z" />
    <glyph glyph-name="brokenbar" unicode="&#xa6;" horiz-adv-x="317" 
d="M71 397v385h175v-385h-175zM71 -130v385h175v-385h-175z" />
    <glyph glyph-name="section" unicode="&#xa7;" 
d="M289 148l-11 116q23 0 36 7.5t13 22.5q0 20 -18.5 30.5t-47 18.5t-61 19t-61 30.5t-47 53t-18.5 87.5q0 56 28 98.5t79.5 66.5t119.5 24q69 0 133 -26t102 -77l-107 -111q-26 32 -59 45t-58 13q-24 0 -34.5 -8t-10.5 -22q0 -17 18 -26.5t46.5 -17.5t60.5 -18.5
t60.5 -28.5t46.5 -49.5t18 -80.5q0 -47 -28 -85t-79 -60t-121 -22zM260 -122q-69 0 -133 26t-102 77l107 111q26 -32 59 -45t58 -13q24 0 34.5 8.5t10.5 21.5q0 17 -18 26.5t-46.5 17.5t-60.5 18.5t-60.5 28.5t-46.5 49.5t-18 80.5q0 48 28 85.5t79 59.5t121 22l11 -116
q-22 0 -35.5 -7.5t-13.5 -22.5q0 -19 18.5 -30t47 -19t61 -19t61 -30.5t47 -53t18.5 -87.5q0 -55 -28 -98t-79 -67t-120 -24z" />
    <glyph glyph-name="dieresis" unicode="&#xa8;" horiz-adv-x="530" 
d="M150 538q-43 0 -71.5 29.5t-28.5 72.5t28.5 72.5t71.5 29.5q44 0 72 -29.5t28 -72.5t-28 -72.5t-72 -29.5zM380 538q-43 0 -71.5 29.5t-28.5 72.5t28.5 72.5t71.5 29.5q44 0 72 -29.5t28 -72.5t-28 -72.5t-72 -29.5z" />
    <glyph glyph-name="copyright" unicode="&#xa9;" horiz-adv-x="797" 
d="M399 -10q-80 0 -146.5 28.5t-115.5 78.5t-76 117.5t-27 145.5q0 77 26.5 143.5t75 116.5t115 78t146.5 28q81 0 148 -28t116 -78t75.5 -116.5t26.5 -144.5t-26.5 -145t-75 -117.5t-115.5 -78.5t-147 -28zM413 150q-65 0 -117.5 27t-83 73.5t-30.5 107.5q0 60 31 107
t84 74t119 27q47 0 84 -14t70 -43l-109 -109q-8 8 -18 11.5t-27 3.5q-16 0 -29.5 -7t-21.5 -19.5t-8 -29.5t8.5 -30t22 -20.5t28.5 -7.5q17 0 28.5 5t21.5 16l109 -109q-37 -34 -75.5 -48.5t-86.5 -14.5zM397 53q89 0 157 40.5t106 110t38 156.5q0 85 -38 153.5t-106 109
t-157 40.5q-88 0 -155.5 -40t-105 -108.5t-37.5 -154.5q0 -87 38 -156.5t105 -110t155 -40.5z" />
    <glyph glyph-name="ordfeminine" unicode="&#xaa;" horiz-adv-x="367" 
d="M151 410q-41 0 -73 19.5t-50 54.5t-18 80t18 79.5t50 54.5t73 20q38 0 67 -19t36 -49v-172q-7 -30 -36 -49t-67 -19zM178 515q22 0 35 13.5t13 35.5q0 21 -13.5 35t-33.5 14q-21 0 -35 -14t-14 -35q0 -22 14 -35.5t34 -13.5zM222 416v79l17 72l-17 72v73h117v-296h-117z
" />
    <glyph glyph-name="guillemotleft" unicode="&#xab;" horiz-adv-x="544" 
d="M115 62l-100 185l100 185h175l-105 -185l105 -185h-175zM355 62l-100 185l100 185h175l-105 -185l105 -185h-175z" />
    <glyph glyph-name="logicalnot" unicode="&#xac;" horiz-adv-x="579" 
d="M45 317v154h489v-154h-489zM376 441h158v-273h-158v273z" />
    <glyph glyph-name="registered" unicode="&#xae;" horiz-adv-x="534" 
d="M267 264q-66 0 -117 30.5t-80.5 83t-29.5 117.5q0 64 29 115.5t80 81.5t117 30q67 0 118.5 -30.5t80.5 -82t29 -115.5t-29 -116.5t-80 -83t-118 -30.5zM190 390v214h60v-214h-60zM305 390l-58 91l54 12l72 -103h-68zM266 318q52 0 91 23t61 63.5t22 90.5q0 49 -22 88
t-61 62.5t-91 23.5q-51 0 -89.5 -23t-60 -62.5t-21.5 -88.5q0 -50 21.5 -90.5t60.5 -63.5t89 -23zM238 475v42h37q12 0 18.5 6t6.5 16t-6.5 15.5t-18.5 5.5h-37v44h46q32 0 53.5 -18t21.5 -47q0 -28 -21.5 -46t-56.5 -18h-43z" />
    <glyph glyph-name="macron" unicode="&#xaf;" horiz-adv-x="472" 
d="M40 712h392v-137h-392v137z" />
    <glyph glyph-name="degree" unicode="&#xb0;" horiz-adv-x="399" 
d="M200 377q-52 0 -91.5 23t-62 61.5t-22.5 87.5t22.5 88t62 62t91.5 23t91 -23t61.5 -62t22.5 -88t-22.5 -87.5t-61.5 -61.5t-91 -23zM200 506q18 0 30.5 12.5t12.5 30.5q0 19 -12.5 31.5t-30.5 12.5q-19 0 -31.5 -12.5t-12.5 -31.5q0 -18 12.5 -30.5t31.5 -12.5z" />
    <glyph glyph-name="plusminus" unicode="&#xb1;" horiz-adv-x="579" 
d="M45 337v154h489v-154h-489zM211 582h158v-334h-158v334zM45 67v154h489v-154h-489z" />
    <glyph glyph-name="uni00B2" unicode="&#xb2;" horiz-adv-x="339" 
d="M20 419l150 148q3 2 5 7t2 9q0 11 -7.5 18.5t-21.5 7.5q-12 0 -23 -9t-28 -32l-84 77q23 36 61.5 54.5t86.5 18.5q68 0 106.5 -34t38.5 -94q0 -28 -12 -55.5t-38 -50.5l-81 -72zM20 350v69l109 37h184v-106h-293z" />
    <glyph glyph-name="uni00B3" unicode="&#xb3;" horiz-adv-x="329" 
d="M143 343q-40 0 -75.5 13t-60.5 36l81 79q7 -8 22.5 -14.5t30.5 -6.5t26.5 6.5t11.5 19.5q0 12 -12 19t-34 7q-13 0 -24.5 -1.5t-15.5 -3.5l58 70q20 3 36.5 6t26.5 3q39 0 65.5 -27t26.5 -76q0 -58 -44.5 -94t-118.5 -36zM93 497v68l64 78h137l-66 -76zM39 605v107h255
v-69l-93 -38h-162z" />
    <glyph glyph-name="acute" unicode="&#xb4;" horiz-adv-x="353" 
d="M90 532l-50 97l190 135l83 -152z" />
    <glyph glyph-name="uni00B5" unicode="&#xb5;" horiz-adv-x="610" 
d="M71 -200v692h196v-692h-196zM367 -10q-90 0 -133 56t-43 146l76 20q0 -32 16 -45t35 -13t34.5 13t15.5 45v280h196v-311q0 -58 -27 -100.5t-71.5 -66.5t-98.5 -24z" />
    <glyph glyph-name="paragraph" unicode="&#xb6;" horiz-adv-x="717" 
d="M411 250h-138q-68 0 -124 27.5t-88.5 79.5t-32.5 124q0 73 32.5 124.5t88.5 79t124 27.5h420v-144h-411q-22 0 -42 -9.5t-32 -29t-12 -48.5t12 -48.5t32 -29t42 -9.5h129v-144zM443 -100h-150v812h150v-812zM633 -100h-150v812h150v-812z" />
    <glyph glyph-name="periodcentered" unicode="&#xb7;" horiz-adv-x="217" 
d="M109 261q-47 0 -78 32t-31 78q0 47 31 79t78 32t77.5 -32t30.5 -79q0 -46 -30.5 -78t-77.5 -32z" />
    <glyph glyph-name="cedilla" unicode="&#xb8;" horiz-adv-x="332" 
d="M161 -220q-43 0 -71.5 9.5t-59.5 26.5l50 67q15 -9 30 -13.5t29 -4.5q16 0 22.5 5.5t6.5 13.5t-11 13.5t-34 5.5h-12l34 108h93l-29 -74l-48 41q71 0 106 -26.5t35 -72.5q0 -42 -38 -70.5t-103 -28.5z" />
    <glyph glyph-name="uni00B9" unicode="&#xb9;" horiz-adv-x="264" 
d="M77 350v362h130v-362h-130zM13 605v107h189v-107h-189z" />
    <glyph glyph-name="ordmasculine" unicode="&#xba;" horiz-adv-x="353" 
d="M177 408q-48 0 -86.5 20t-60.5 55.5t-22 79.5q0 45 22 80t60 55t87 20t86.5 -20t59.5 -55t22 -80q0 -44 -22 -79.5t-59.5 -55.5t-86.5 -20zM177 513q22 0 34.5 14t12.5 36q0 23 -13 36.5t-34 13.5q-22 0 -35 -14t-13 -37q0 -22 13 -35.5t35 -13.5z" />
    <glyph glyph-name="guillemotright" unicode="&#xbb;" horiz-adv-x="544" 
d="M254 62l105 185l-105 185h175l100 -185l-100 -185h-175zM14 62l105 185l-105 185h175l100 -185l-100 -185h-175z" />
    <glyph glyph-name="onequarter" unicode="&#xbc;" horiz-adv-x="700" 
d="M279 320l67 -65l-225 -265l-111 111zM407 392l-67 65l225 265l111 -111zM115 350v362h130v-362h-130zM51 605v107h189v-107h-189zM366 121l96 241h128l-98 -241h-126zM366 53v68l32 38h279v-106h-311zM541 0v206h118v-206h-118z" />
    <glyph glyph-name="onehalf" unicode="&#xbd;" horiz-adv-x="700" 
d="M269 320l67 -65l-215 -265l-111 111zM407 392l-67 65l225 265l111 -111zM115 350v362h130v-362h-130zM51 605v107h189v-107h-189zM372 69l150 148q3 2 5 7t2 9q0 11 -7.5 18.5t-21.5 7.5q-12 0 -23 -9t-28 -32l-84 77q23 36 61.5 54.5t86.5 18.5q68 0 106.5 -34t38.5 -94
q0 -28 -12 -55.5t-38 -50.5l-81 -72zM372 0v69l109 37h184v-106h-293z" />
    <glyph glyph-name="threequarters" unicode="&#xbe;" horiz-adv-x="696" 
d="M258 330l67 -65l-205 -275l-111 111zM436 382l-67 65l195 275l111 -111zM170 343q-40 0 -75.5 13t-60.5 36l81 79q7 -8 22.5 -14.5t30.5 -6.5t26.5 6.5t11.5 19.5q0 12 -12 19t-34 7q-13 0 -24.5 -1.5t-15.5 -3.5l58 70q20 3 36.5 6t26.5 3q39 0 65.5 -27t26.5 -76
q0 -58 -44.5 -94t-118.5 -36zM120 497v68l64 78h137l-66 -76zM66 605v107h255v-69l-93 -38h-162zM355 121l96 241h128l-98 -241h-126zM355 53v68l32 38h279v-106h-311zM530 0v206h118v-206h-118z" />
    <glyph glyph-name="questiondown" unicode="&#xbf;" horiz-adv-x="493" 
d="M251 -222q-67 0 -118.5 26t-80.5 71.5t-29 103.5q0 56 25 97t66.5 67.5t91.5 37.5l-53 -50l8 81h146l15 -158h-58q-25 0 -41 -12.5t-16 -35.5q0 -15 7 -25.5t19 -16t27 -5.5q31 0 58.5 20t45.5 47l116 -117q-30 -54 -87.5 -92.5t-141.5 -38.5zM234 281q-46 0 -77 32.5
t-31 78.5q0 47 31 78.5t77 31.5q47 0 78 -31.5t31 -78.5q0 -46 -31 -78.5t-78 -32.5z" />
    <glyph glyph-name="Agrave" unicode="&#xc0;" horiz-adv-x="755" 
d="M6 0l271 712h204l268 -712h-208l-199 605h72l-204 -605h-204zM182 120v156h398v-156h-398zM444 762l-223 80l83 152l190 -135z" />
    <glyph glyph-name="Aacute" unicode="&#xc1;" horiz-adv-x="755" 
d="M6 0l271 712h204l268 -712h-208l-199 605h72l-204 -605h-204zM182 120v156h398v-156h-398zM291 752l-50 97l190 135l83 -152z" />
    <glyph glyph-name="Acircumflex" unicode="&#xc2;" horiz-adv-x="755" 
d="M6 0l271 712h204l268 -712h-208l-199 605h72l-204 -605h-204zM182 120v156h398v-156h-398zM225 747l-50 82l156 135h93l156 -135l-50 -82l-231 111h158z" />
    <glyph glyph-name="Atilde" unicode="&#xc3;" horiz-adv-x="755" 
d="M6 0l271 712h204l268 -712h-208l-199 605h72l-204 -605h-204zM182 120v156h398v-156h-398zM452 754q-31 0 -55 10.5t-44 21t-41 10.5q-22 0 -39 -10t-31 -31l-86 86q28 53 64 75t83 22q32 0 55.5 -10.5t43.5 -21t41 -10.5q23 0 40 10t30 31l86 -86q-28 -52 -64 -74.5
t-83 -22.5z" />
    <glyph glyph-name="Adieresis" unicode="&#xc4;" horiz-adv-x="755" 
d="M6 0l271 712h204l268 -712h-208l-199 605h72l-204 -605h-204zM182 120v156h398v-156h-398zM263 758q-43 0 -71.5 29.5t-28.5 72.5t28.5 72.5t71.5 29.5q44 0 72 -29.5t28 -72.5t-28 -72.5t-72 -29.5zM493 758q-43 0 -71.5 29.5t-28.5 72.5t28.5 72.5t71.5 29.5
q44 0 72 -29.5t28 -72.5t-28 -72.5t-72 -29.5z" />
    <glyph glyph-name="Aring" unicode="&#xc5;" horiz-adv-x="755" 
d="M6 0l271 712h204l268 -712h-208l-199 605h72l-204 -605h-204zM182 120v156h398v-156h-398zM378 658q-39 0 -70 18t-49 48.5t-18 68.5t18 68.5t49 48.5t70 18q38 0 69 -18t49 -48.5t18 -68.5t-18 -68.5t-49 -48.5t-69 -18zM378 749q18 0 30 12.5t12 31.5t-12 31.5
t-30 12.5q-19 0 -31 -12.5t-12 -31.5t12 -31.5t31 -12.5z" />
    <glyph glyph-name="AE" unicode="&#xc6;" horiz-adv-x="1006" 
d="M6 0l271 712h226v-166h-109l-184 -546h-204zM182 170v156h358v-156h-358zM618 0v166h352v-166h-352zM456 0v712h200v-712h-200zM618 282v162h315v-162h-315zM618 546v166h346v-166h-346z" />
    <glyph glyph-name="Ccedilla" unicode="&#xc7;" horiz-adv-x="695" 
d="M411 -12q-82 0 -152.5 27.5t-123.5 77.5t-82.5 117.5t-29.5 146.5q0 80 29.5 147t82 116t122.5 76.5t152 27.5q83 0 152 -26t120 -72l-133 -134q-24 26 -58.5 41t-80.5 15q-40 0 -73.5 -13t-57.5 -38t-37.5 -60.5t-13.5 -79.5q0 -45 13.5 -80.5t37.5 -60.5t57.5 -38.5
t73.5 -13.5q45 0 80.5 14t61.5 41l134 -134q-53 -46 -119 -71.5t-155 -25.5zM354 -220q-43 0 -71.5 9.5t-59.5 26.5l50 67q15 -9 30 -13.5t29 -4.5q16 0 22.5 5.5t6.5 13.5t-11 13.5t-34 5.5h-12l34 108h93l-29 -74l-48 41q71 0 106 -26.5t35 -72.5q0 -42 -38 -70.5
t-103 -28.5z" />
    <glyph glyph-name="Egrave" unicode="&#xc8;" horiz-adv-x="639" 
d="M59 0v712h200v-712h-200zM221 0v166h382v-166h-382zM221 282v162h345v-162h-345zM221 546v166h376v-166h-376zM406 762l-223 80l83 152l190 -135z" />
    <glyph glyph-name="Eacute" unicode="&#xc9;" horiz-adv-x="639" 
d="M59 0v712h200v-712h-200zM221 0v166h382v-166h-382zM221 282v162h345v-162h-345zM221 546v166h376v-166h-376zM253 752l-50 97l190 135l83 -152z" />
    <glyph glyph-name="Ecircumflex" unicode="&#xca;" horiz-adv-x="639" 
d="M59 0v712h200v-712h-200zM221 0v166h382v-166h-382zM221 282v162h345v-162h-345zM221 546v166h376v-166h-376zM187 747l-50 82l156 135h93l156 -135l-50 -82l-231 111h158z" />
    <glyph glyph-name="Edieresis" unicode="&#xcb;" horiz-adv-x="639" 
d="M59 0v712h200v-712h-200zM221 0v166h382v-166h-382zM221 282v162h345v-162h-345zM221 546v166h376v-166h-376zM225 758q-43 0 -71.5 29.5t-28.5 72.5t28.5 72.5t71.5 29.5q44 0 72 -29.5t28 -72.5t-28 -72.5t-72 -29.5zM455 758q-43 0 -71.5 29.5t-28.5 72.5t28.5 72.5
t71.5 29.5q44 0 72 -29.5t28 -72.5t-28 -72.5t-72 -29.5z" />
    <glyph glyph-name="Igrave" unicode="&#xcc;" horiz-adv-x="318" 
d="M59 0v712h200v-712h-200zM225 762l-223 80l83 152l190 -135z" />
    <glyph glyph-name="Iacute" unicode="&#xcd;" horiz-adv-x="318" 
d="M59 0v712h200v-712h-200zM72 752l-50 97l190 135l83 -152z" />
    <glyph glyph-name="Icircumflex" unicode="&#xce;" horiz-adv-x="318" 
d="M59 0v712h200v-712h-200zM6 747l-50 82l156 135h93l156 -135l-50 -82l-231 111h158z" />
    <glyph glyph-name="Idieresis" unicode="&#xcf;" horiz-adv-x="318" 
d="M59 0v712h200v-712h-200zM44 758q-43 0 -71.5 29.5t-28.5 72.5t28.5 72.5t71.5 29.5q44 0 72 -29.5t28 -72.5t-28 -72.5t-72 -29.5zM274 758q-43 0 -71.5 29.5t-28.5 72.5t28.5 72.5t71.5 29.5q44 0 72 -29.5t28 -72.5t-28 -72.5t-72 -29.5z" />
    <glyph glyph-name="Eth" unicode="&#xd0;" horiz-adv-x="788" 
d="M18 430h385v-145h-385v145zM213 0v170h166q56 0 97 20.5t63 62.5t22 104t-22.5 103t-63 61.5t-96.5 20.5h-176v170h176q84 0 154.5 -25t122.5 -72t80.5 -112.5t28.5 -146.5t-28.5 -146.5t-80.5 -112.5t-122 -72t-153 -25h-168zM79 0v712h200v-712h-200z" />
    <glyph glyph-name="Ntilde" unicode="&#xd1;" horiz-adv-x="758" 
d="M59 0v712h140l60 -150v-562h-200zM549 0l-413 519l63 193l413 -519zM549 0l-50 158v554h200v-712h-150zM453 754q-31 0 -55 10.5t-44 21t-41 10.5q-22 0 -39 -10t-31 -31l-86 86q28 53 64 75t83 22q32 0 55.5 -10.5t43.5 -21t41 -10.5q23 0 40 10t30 31l86 -86
q-28 -52 -64 -74.5t-83 -22.5z" />
    <glyph glyph-name="Ograve" unicode="&#xd2;" horiz-adv-x="818" 
d="M411 -14q-84 0 -154.5 28t-123 78t-81.5 118t-29 147q0 80 28.5 147t80.5 117t122.5 77.5t154.5 27.5t154.5 -27.5t122.5 -77.5t80.5 -117.5t28.5 -147.5q0 -79 -28.5 -146.5t-80.5 -118t-122 -78t-153 -27.5zM409 162q56 0 97 24t63 68t22 103q0 44 -12.5 79.5t-36.5 61
t-57.5 39t-75.5 13.5q-56 0 -97 -23.5t-63 -67t-22 -102.5q0 -45 12.5 -81t36.5 -61.5t57.5 -39t75.5 -13.5zM475 762l-223 80l83 152l190 -135z" />
    <glyph glyph-name="Oacute" unicode="&#xd3;" horiz-adv-x="818" 
d="M411 -14q-84 0 -154.5 28t-123 78t-81.5 118t-29 147q0 80 28.5 147t80.5 117t122.5 77.5t154.5 27.5t154.5 -27.5t122.5 -77.5t80.5 -117.5t28.5 -147.5q0 -79 -28.5 -146.5t-80.5 -118t-122 -78t-153 -27.5zM409 162q56 0 97 24t63 68t22 103q0 44 -12.5 79.5t-36.5 61
t-57.5 39t-75.5 13.5q-56 0 -97 -23.5t-63 -67t-22 -102.5q0 -45 12.5 -81t36.5 -61.5t57.5 -39t75.5 -13.5zM322 752l-50 97l190 135l83 -152z" />
    <glyph glyph-name="Ocircumflex" unicode="&#xd4;" horiz-adv-x="818" 
d="M411 -14q-84 0 -154.5 28t-123 78t-81.5 118t-29 147q0 80 28.5 147t80.5 117t122.5 77.5t154.5 27.5t154.5 -27.5t122.5 -77.5t80.5 -117.5t28.5 -147.5q0 -79 -28.5 -146.5t-80.5 -118t-122 -78t-153 -27.5zM409 162q56 0 97 24t63 68t22 103q0 44 -12.5 79.5t-36.5 61
t-57.5 39t-75.5 13.5q-56 0 -97 -23.5t-63 -67t-22 -102.5q0 -45 12.5 -81t36.5 -61.5t57.5 -39t75.5 -13.5zM256 747l-50 82l156 135h93l156 -135l-50 -82l-231 111h158z" />
    <glyph glyph-name="Otilde" unicode="&#xd5;" horiz-adv-x="818" 
d="M411 -14q-84 0 -154.5 28t-123 78t-81.5 118t-29 147q0 80 28.5 147t80.5 117t122.5 77.5t154.5 27.5t154.5 -27.5t122.5 -77.5t80.5 -117.5t28.5 -147.5q0 -79 -28.5 -146.5t-80.5 -118t-122 -78t-153 -27.5zM409 162q56 0 97 24t63 68t22 103q0 44 -12.5 79.5t-36.5 61
t-57.5 39t-75.5 13.5q-56 0 -97 -23.5t-63 -67t-22 -102.5q0 -45 12.5 -81t36.5 -61.5t57.5 -39t75.5 -13.5zM483 754q-31 0 -55 10.5t-44 21t-41 10.5q-22 0 -39 -10t-31 -31l-86 86q28 53 64 75t83 22q32 0 55.5 -10.5t43.5 -21t41 -10.5q23 0 40 10t30 31l86 -86
q-28 -52 -64 -74.5t-83 -22.5z" />
    <glyph glyph-name="Odieresis" unicode="&#xd6;" horiz-adv-x="818" 
d="M411 -14q-84 0 -154.5 28t-123 78t-81.5 118t-29 147q0 80 28.5 147t80.5 117t122.5 77.5t154.5 27.5t154.5 -27.5t122.5 -77.5t80.5 -117.5t28.5 -147.5q0 -79 -28.5 -146.5t-80.5 -118t-122 -78t-153 -27.5zM409 162q56 0 97 24t63 68t22 103q0 44 -12.5 79.5t-36.5 61
t-57.5 39t-75.5 13.5q-56 0 -97 -23.5t-63 -67t-22 -102.5q0 -45 12.5 -81t36.5 -61.5t57.5 -39t75.5 -13.5zM294 758q-43 0 -71.5 29.5t-28.5 72.5t28.5 72.5t71.5 29.5q44 0 72 -29.5t28 -72.5t-28 -72.5t-72 -29.5zM524 758q-43 0 -71.5 29.5t-28.5 72.5t28.5 72.5
t71.5 29.5q44 0 72 -29.5t28 -72.5t-28 -72.5t-72 -29.5z" />
    <glyph glyph-name="multiply" unicode="&#xd7;" horiz-adv-x="579" 
d="M150 83l-112 112l392 391l112 -111zM420 91l-374 374l112 112l374 -374z" />
    <glyph glyph-name="Oslash" unicode="&#xd8;" horiz-adv-x="818" 
d="M685 753l121 -121l-673 -673l-121 121zM411 -14q-84 0 -154.5 28t-123 78t-81.5 118t-29 147q0 80 28.5 147t80.5 117t122.5 77.5t154.5 27.5t154.5 -27.5t122.5 -77.5t80.5 -117.5t28.5 -147.5q0 -79 -28.5 -146.5t-80.5 -118t-122 -78t-153 -27.5zM409 162q56 0 97 24
t63 68t22 103q0 44 -12.5 79.5t-36.5 61t-57.5 39t-75.5 13.5q-56 0 -97 -23.5t-63 -67t-22 -102.5q0 -45 12.5 -81t36.5 -61.5t57.5 -39t75.5 -13.5z" />
    <glyph glyph-name="Ugrave" unicode="&#xd9;" horiz-adv-x="714" 
d="M358 -12q-94 0 -164 38.5t-109 106.5t-39 156v423h200v-441q0 -34 15 -58t40.5 -36.5t56.5 -12.5q32 0 56.5 12.5t38.5 36t14 57.5v442h201v-424q0 -88 -38.5 -155.5t-108 -106t-163.5 -38.5zM423 762l-223 80l83 152l190 -135z" />
    <glyph glyph-name="Uacute" unicode="&#xda;" horiz-adv-x="714" 
d="M358 -12q-94 0 -164 38.5t-109 106.5t-39 156v423h200v-441q0 -34 15 -58t40.5 -36.5t56.5 -12.5q32 0 56.5 12.5t38.5 36t14 57.5v442h201v-424q0 -88 -38.5 -155.5t-108 -106t-163.5 -38.5zM270 752l-50 97l190 135l83 -152z" />
    <glyph glyph-name="Ucircumflex" unicode="&#xdb;" horiz-adv-x="714" 
d="M358 -12q-94 0 -164 38.5t-109 106.5t-39 156v423h200v-441q0 -34 15 -58t40.5 -36.5t56.5 -12.5q32 0 56.5 12.5t38.5 36t14 57.5v442h201v-424q0 -88 -38.5 -155.5t-108 -106t-163.5 -38.5zM204 747l-50 82l156 135h93l156 -135l-50 -82l-231 111h158z" />
    <glyph glyph-name="Udieresis" unicode="&#xdc;" horiz-adv-x="714" 
d="M358 -12q-94 0 -164 38.5t-109 106.5t-39 156v423h200v-441q0 -34 15 -58t40.5 -36.5t56.5 -12.5q32 0 56.5 12.5t38.5 36t14 57.5v442h201v-424q0 -88 -38.5 -155.5t-108 -106t-163.5 -38.5zM242 758q-43 0 -71.5 29.5t-28.5 72.5t28.5 72.5t71.5 29.5q44 0 72 -29.5
t28 -72.5t-28 -72.5t-72 -29.5zM472 758q-43 0 -71.5 29.5t-28.5 72.5t28.5 72.5t71.5 29.5q44 0 72 -29.5t28 -72.5t-28 -72.5t-72 -29.5z" />
    <glyph glyph-name="Yacute" unicode="&#xdd;" horiz-adv-x="701" 
d="M275 245l-271 467h230l205 -381h-172l205 381h225l-273 -467h-149zM252 0v318h200v-318h-200zM264 752l-50 97l190 135l83 -152z" />
    <glyph glyph-name="Thorn" unicode="&#xde;" horiz-adv-x="652" 
d="M221 130v144h129q23 0 42.5 9.5t31.5 29t12 48.5t-12 48.5t-31.5 29t-42.5 9.5h-129v144h168q69 0 124.5 -27.5t88 -79t32.5 -124.5q0 -72 -32.5 -124t-88 -79.5t-124.5 -27.5h-168zM59 0v712h200v-712h-200z" />
    <glyph glyph-name="germandbls" unicode="&#xdf;" horiz-adv-x="605" 
d="M346 -9q-28 0 -50 6t-41 16l38 144q6 -2 12.5 -3.5t14.5 -1.5q24 0 42 10t28 28t10 40q0 23 -11.5 40.5t-32 28t-48.5 10.5h-28v150h16q18 0 32 7.5t21.5 21.5t7.5 31t-7 30.5t-20 21t-32 7.5q-28 0 -44.5 -17.5t-16.5 -53.5v-507h-190v494q0 69 30 124.5t87.5 88
t140.5 32.5q78 0 131 -30.5t80 -77t27 -96.5q0 -46 -16 -84t-56 -65l-22 34q52 -18 83.5 -48t45.5 -68.5t14 -83.5q0 -41 -16.5 -81.5t-48.5 -74t-77.5 -53.5t-103.5 -20z" />
    <glyph glyph-name="agrave" unicode="&#xe0;" horiz-adv-x="610" 
d="M252 -10q-69 0 -122 33t-83 90.5t-30 132.5t30 133t83 90.5t122 32.5q43 0 79.5 -14.5t61 -40.5t31.5 -60v-282q-7 -34 -31.5 -60t-61 -40.5t-79.5 -14.5zM296 162q37 0 59.5 23.5t22.5 60.5q0 25 -10 43.5t-28.5 29.5t-42.5 11t-42.5 -11t-29.5 -30t-11 -43t10.5 -43
t29.5 -30t42 -11zM372 0v132l27 120l-27 119v121h191v-492h-191zM381 542l-223 80l83 152l190 -135z" />
    <glyph glyph-name="aacute" unicode="&#xe1;" horiz-adv-x="610" 
d="M252 -10q-69 0 -122 33t-83 90.5t-30 132.5t30 133t83 90.5t122 32.5q43 0 79.5 -14.5t61 -40.5t31.5 -60v-282q-7 -34 -31.5 -60t-61 -40.5t-79.5 -14.5zM296 162q37 0 59.5 23.5t22.5 60.5q0 25 -10 43.5t-28.5 29.5t-42.5 11t-42.5 -11t-29.5 -30t-11 -43t10.5 -43
t29.5 -30t42 -11zM372 0v132l27 120l-27 119v121h191v-492h-191zM228 532l-50 97l190 135l83 -152z" />
    <glyph glyph-name="acircumflex" unicode="&#xe2;" horiz-adv-x="610" 
d="M252 -10q-69 0 -122 33t-83 90.5t-30 132.5t30 133t83 90.5t122 32.5q43 0 79.5 -14.5t61 -40.5t31.5 -60v-282q-7 -34 -31.5 -60t-61 -40.5t-79.5 -14.5zM296 162q37 0 59.5 23.5t22.5 60.5q0 25 -10 43.5t-28.5 29.5t-42.5 11t-42.5 -11t-29.5 -30t-11 -43t10.5 -43
t29.5 -30t42 -11zM372 0v132l27 120l-27 119v121h191v-492h-191zM162 527l-50 82l156 135h93l156 -135l-50 -82l-231 111h158z" />
    <glyph glyph-name="atilde" unicode="&#xe3;" horiz-adv-x="610" 
d="M252 -10q-69 0 -122 33t-83 90.5t-30 132.5t30 133t83 90.5t122 32.5q43 0 79.5 -14.5t61 -40.5t31.5 -60v-282q-7 -34 -31.5 -60t-61 -40.5t-79.5 -14.5zM296 162q37 0 59.5 23.5t22.5 60.5q0 25 -10 43.5t-28.5 29.5t-42.5 11t-42.5 -11t-29.5 -30t-11 -43t10.5 -43
t29.5 -30t42 -11zM372 0v132l27 120l-27 119v121h191v-492h-191zM389 534q-31 0 -55 10.5t-44 21t-41 10.5q-22 0 -39 -10t-31 -31l-86 86q28 53 64 75t83 22q32 0 55.5 -10.5t43.5 -21t41 -10.5q23 0 40 10t30 31l86 -86q-28 -52 -64 -74.5t-83 -22.5z" />
    <glyph glyph-name="adieresis" unicode="&#xe4;" horiz-adv-x="610" 
d="M252 -10q-69 0 -122 33t-83 90.5t-30 132.5t30 133t83 90.5t122 32.5q43 0 79.5 -14.5t61 -40.5t31.5 -60v-282q-7 -34 -31.5 -60t-61 -40.5t-79.5 -14.5zM296 162q37 0 59.5 23.5t22.5 60.5q0 25 -10 43.5t-28.5 29.5t-42.5 11t-42.5 -11t-29.5 -30t-11 -43t10.5 -43
t29.5 -30t42 -11zM372 0v132l27 120l-27 119v121h191v-492h-191zM200 538q-43 0 -71.5 29.5t-28.5 72.5t28.5 72.5t71.5 29.5q44 0 72 -29.5t28 -72.5t-28 -72.5t-72 -29.5zM430 538q-43 0 -71.5 29.5t-28.5 72.5t28.5 72.5t71.5 29.5q44 0 72 -29.5t28 -72.5t-28 -72.5
t-72 -29.5z" />
    <glyph glyph-name="aring" unicode="&#xe5;" horiz-adv-x="610" 
d="M252 -10q-69 0 -122 33t-83 90.5t-30 132.5t30 133t83 90.5t122 32.5q43 0 79.5 -14.5t61 -40.5t31.5 -60v-282q-7 -34 -31.5 -60t-61 -40.5t-79.5 -14.5zM296 162q37 0 59.5 23.5t22.5 60.5q0 25 -10 43.5t-28.5 29.5t-42.5 11t-42.5 -11t-29.5 -30t-11 -43t10.5 -43
t29.5 -30t42 -11zM372 0v132l27 120l-27 119v121h191v-492h-191zM315 528q-39 0 -70 18t-49 48.5t-18 68.5t18 68.5t49 48.5t70 18q38 0 69 -18t49 -48.5t18 -68.5t-18 -68.5t-49 -48.5t-69 -18zM315 619q18 0 30 12.5t12 31.5t-12 31.5t-30 12.5q-19 0 -31 -12.5t-12 -31.5
t12 -31.5t31 -12.5z" />
    <glyph glyph-name="ae" unicode="&#xe6;" horiz-adv-x="949" 
d="M691 -12q-86 0 -151 32.5t-101.5 91t-36.5 134.5q0 75 35.5 133t97.5 91.5t140 33.5q77 0 136 -31.5t92.5 -87.5t33.5 -128q0 -15 -1.5 -31.5t-6.5 -38.5l-444 -3v120l371 3l-91 -53q0 40 -9.5 65.5t-28.5 38.5t-48 13q-30 0 -52 -15t-33.5 -43t-11.5 -68
q0 -41 12.5 -68.5t36.5 -41.5t60 -14q35 0 61.5 11.5t48.5 36.5l98 -97q-37 -42 -89 -63t-119 -21zM252 -10q-69 0 -122 33t-83 90.5t-30 132.5t30 133t83 90.5t122 32.5q43 0 79.5 -14.5t61 -40.5t31.5 -60v-282q-7 -34 -31.5 -60t-61 -40.5t-79.5 -14.5zM296 162
q37 0 59.5 23.5t22.5 60.5q0 25 -10 43.5t-28.5 29.5t-42.5 11t-42.5 -11t-29.5 -30t-11 -43t10.5 -43t29.5 -30t42 -11zM372 0v132l27 120l-27 119v121h191v-492h-191z" />
    <glyph glyph-name="ccedilla" unicode="&#xe7;" horiz-adv-x="505" 
d="M296 -12q-80 0 -144 33t-101 91.5t-37 132.5q0 75 37.5 133.5t102 92t145.5 33.5q58 0 104.5 -18t86.5 -55l-123 -123q-13 12 -29 18t-39 6q-24 0 -43.5 -10.5t-31.5 -29.5t-12 -45t12 -45.5t32 -30.5t43 -11q26 0 43 8t30 22l123 -123q-43 -40 -90 -59.5t-109 -19.5z
M253 -220q-43 0 -71.5 9.5t-59.5 26.5l50 67q15 -9 30 -13.5t29 -4.5q16 0 22.5 5.5t6.5 13.5t-11 13.5t-34 5.5h-12l34 108h93l-29 -74l-48 41q71 0 106 -26.5t35 -72.5q0 -42 -38 -70.5t-103 -28.5z" />
    <glyph glyph-name="egrave" unicode="&#xe8;" 
d="M303 -12q-86 0 -151 32.5t-101.5 91t-36.5 134.5q0 75 35.5 133t97.5 91.5t140 33.5q77 0 136 -31.5t92.5 -87.5t33.5 -128q0 -15 -1.5 -31.5t-6.5 -38.5l-444 -3v120l371 3l-91 -53q0 40 -9.5 65.5t-28.5 38.5t-48 13q-30 0 -52 -15t-33.5 -43t-11.5 -68
q0 -41 12.5 -68.5t36.5 -41.5t60 -14q35 0 61.5 11.5t48.5 36.5l98 -97q-37 -42 -89 -63t-119 -21zM355 542l-223 80l83 152l190 -135z" />
    <glyph glyph-name="eacute" unicode="&#xe9;" 
d="M303 -12q-86 0 -151 32.5t-101.5 91t-36.5 134.5q0 75 35.5 133t97.5 91.5t140 33.5q77 0 136 -31.5t92.5 -87.5t33.5 -128q0 -15 -1.5 -31.5t-6.5 -38.5l-444 -3v120l371 3l-91 -53q0 40 -9.5 65.5t-28.5 38.5t-48 13q-30 0 -52 -15t-33.5 -43t-11.5 -68
q0 -41 12.5 -68.5t36.5 -41.5t60 -14q35 0 61.5 11.5t48.5 36.5l98 -97q-37 -42 -89 -63t-119 -21zM202 532l-50 97l190 135l83 -152z" />
    <glyph glyph-name="ecircumflex" unicode="&#xea;" 
d="M303 -12q-86 0 -151 32.5t-101.5 91t-36.5 134.5q0 75 35.5 133t97.5 91.5t140 33.5q77 0 136 -31.5t92.5 -87.5t33.5 -128q0 -15 -1.5 -31.5t-6.5 -38.5l-444 -3v120l371 3l-91 -53q0 40 -9.5 65.5t-28.5 38.5t-48 13q-30 0 -52 -15t-33.5 -43t-11.5 -68
q0 -41 12.5 -68.5t36.5 -41.5t60 -14q35 0 61.5 11.5t48.5 36.5l98 -97q-37 -42 -89 -63t-119 -21zM136 527l-50 82l156 135h93l156 -135l-50 -82l-231 111h158z" />
    <glyph glyph-name="edieresis" unicode="&#xeb;" 
d="M303 -12q-86 0 -151 32.5t-101.5 91t-36.5 134.5q0 75 35.5 133t97.5 91.5t140 33.5q77 0 136 -31.5t92.5 -87.5t33.5 -128q0 -15 -1.5 -31.5t-6.5 -38.5l-444 -3v120l371 3l-91 -53q0 40 -9.5 65.5t-28.5 38.5t-48 13q-30 0 -52 -15t-33.5 -43t-11.5 -68
q0 -41 12.5 -68.5t36.5 -41.5t60 -14q35 0 61.5 11.5t48.5 36.5l98 -97q-37 -42 -89 -63t-119 -21zM174 538q-43 0 -71.5 29.5t-28.5 72.5t28.5 72.5t71.5 29.5q44 0 72 -29.5t28 -72.5t-28 -72.5t-72 -29.5zM404 538q-43 0 -71.5 29.5t-28.5 72.5t28.5 72.5t71.5 29.5
q44 0 72 -29.5t28 -72.5t-28 -72.5t-72 -29.5z" />
    <glyph glyph-name="igrave" unicode="&#xec;" horiz-adv-x="290" 
d="M47 0v492h196v-492h-196zM211 542l-223 80l83 152l190 -135z" />
    <glyph glyph-name="iacute" unicode="&#xed;" horiz-adv-x="290" 
d="M47 0v492h196v-492h-196zM58 532l-50 97l190 135l83 -152z" />
    <glyph glyph-name="icircumflex" unicode="&#xee;" horiz-adv-x="290" 
d="M47 0v492h196v-492h-196zM-8 527l-50 82l156 135h93l156 -135l-50 -82l-231 111h158z" />
    <glyph glyph-name="idieresis" unicode="&#xef;" horiz-adv-x="290" 
d="M47 0v492h196v-492h-196zM30 538q-43 0 -71.5 29.5t-28.5 72.5t28.5 72.5t71.5 29.5q44 0 72 -29.5t28 -72.5t-28 -72.5t-72 -29.5zM260 538q-43 0 -71.5 29.5t-28.5 72.5t28.5 72.5t71.5 29.5q44 0 72 -29.5t28 -72.5t-28 -72.5t-72 -29.5z" />
    <glyph glyph-name="eth" unicode="&#xf0;" horiz-adv-x="584" 
d="M292 -12q-78 0 -140.5 33t-99 89.5t-36.5 127.5q0 67 33.5 121.5t90 87t125.5 32.5q38 0 60 -10t37.5 -28t32.5 -43l-75 -16l-239 330h222l207 -305q58 -85 58 -169q0 -71 -36.5 -127.5t-98.5 -89.5t-141 -33zM292 154q25 0 44.5 11.5t30.5 32t11 46.5t-11 46.5t-30.5 32
t-44.5 11.5t-44.5 -11.5t-30.5 -32t-11 -46.5t11 -46.5t30.5 -32t44.5 -11.5zM86 468l-36 93l410 151l36 -93z" />
    <glyph glyph-name="ntilde" unicode="&#xf1;" horiz-adv-x="593" 
d="M360 0v276q0 29 -16.5 44.5t-41.5 15.5q-17 0 -30.5 -7t-21 -20.5t-7.5 -32.5l-76 34q0 60 26.5 103t73 66t105.5 23q53 0 94.5 -23.5t65.5 -64t24 -93.5v-321h-196zM47 0v492h196v-492h-196zM371 534q-31 0 -55 10.5t-44 21t-41 10.5q-22 0 -39 -10t-31 -31l-86 86
q28 53 64 75t83 22q32 0 55.5 -10.5t43.5 -21t41 -10.5q23 0 40 10t30 31l86 -86q-28 -52 -64 -74.5t-83 -22.5z" />
    <glyph glyph-name="ograve" unicode="&#xf2;" horiz-adv-x="588" 
d="M295 -12q-81 0 -144.5 33.5t-100 92.5t-36.5 133t36 132t99.5 91.5t144.5 33.5t144 -33.5t99.5 -91.5t36.5 -132t-36 -133t-99 -92.5t-144 -33.5zM294 160q25 0 43.5 10.5t28.5 30t10 45.5t-10.5 45.5t-28.5 30t-43 10.5q-24 0 -42.5 -11t-29 -30.5t-10.5 -45.5
q0 -25 10.5 -44.5t29 -30t42.5 -10.5zM360 542l-223 80l83 152l190 -135z" />
    <glyph glyph-name="oacute" unicode="&#xf3;" horiz-adv-x="588" 
d="M295 -12q-81 0 -144.5 33.5t-100 92.5t-36.5 133t36 132t99.5 91.5t144.5 33.5t144 -33.5t99.5 -91.5t36.5 -132t-36 -133t-99 -92.5t-144 -33.5zM294 160q25 0 43.5 10.5t28.5 30t10 45.5t-10.5 45.5t-28.5 30t-43 10.5q-24 0 -42.5 -11t-29 -30.5t-10.5 -45.5
q0 -25 10.5 -44.5t29 -30t42.5 -10.5zM207 532l-50 97l190 135l83 -152z" />
    <glyph glyph-name="ocircumflex" unicode="&#xf4;" horiz-adv-x="588" 
d="M295 -12q-81 0 -144.5 33.5t-100 92.5t-36.5 133t36 132t99.5 91.5t144.5 33.5t144 -33.5t99.5 -91.5t36.5 -132t-36 -133t-99 -92.5t-144 -33.5zM294 160q25 0 43.5 10.5t28.5 30t10 45.5t-10.5 45.5t-28.5 30t-43 10.5q-24 0 -42.5 -11t-29 -30.5t-10.5 -45.5
q0 -25 10.5 -44.5t29 -30t42.5 -10.5zM141 527l-50 82l156 135h93l156 -135l-50 -82l-231 111h158z" />
    <glyph glyph-name="otilde" unicode="&#xf5;" horiz-adv-x="588" 
d="M295 -12q-81 0 -144.5 33.5t-100 92.5t-36.5 133t36 132t99.5 91.5t144.5 33.5t144 -33.5t99.5 -91.5t36.5 -132t-36 -133t-99 -92.5t-144 -33.5zM294 160q25 0 43.5 10.5t28.5 30t10 45.5t-10.5 45.5t-28.5 30t-43 10.5q-24 0 -42.5 -11t-29 -30.5t-10.5 -45.5
q0 -25 10.5 -44.5t29 -30t42.5 -10.5zM368 534q-31 0 -55 10.5t-44 21t-41 10.5q-22 0 -39 -10t-31 -31l-86 86q28 53 64 75t83 22q32 0 55.5 -10.5t43.5 -21t41 -10.5q23 0 40 10t30 31l86 -86q-28 -52 -64 -74.5t-83 -22.5z" />
    <glyph glyph-name="odieresis" unicode="&#xf6;" horiz-adv-x="588" 
d="M295 -12q-81 0 -144.5 33.5t-100 92.5t-36.5 133t36 132t99.5 91.5t144.5 33.5t144 -33.5t99.5 -91.5t36.5 -132t-36 -133t-99 -92.5t-144 -33.5zM294 160q25 0 43.5 10.5t28.5 30t10 45.5t-10.5 45.5t-28.5 30t-43 10.5q-24 0 -42.5 -11t-29 -30.5t-10.5 -45.5
q0 -25 10.5 -44.5t29 -30t42.5 -10.5zM179 538q-43 0 -71.5 29.5t-28.5 72.5t28.5 72.5t71.5 29.5q44 0 72 -29.5t28 -72.5t-28 -72.5t-72 -29.5zM409 538q-43 0 -71.5 29.5t-28.5 72.5t28.5 72.5t71.5 29.5q44 0 72 -29.5t28 -72.5t-28 -72.5t-72 -29.5z" />
    <glyph glyph-name="divide" unicode="&#xf7;" horiz-adv-x="579" 
d="M45 257v154h489v-154h-489zM290 441q-41 0 -68 28t-27 68q0 41 27 69t68 28t67.5 -28t26.5 -69q0 -40 -26.5 -68t-67.5 -28zM290 35q-41 0 -68 28t-27 68q0 41 27 69t68 28t67.5 -28t26.5 -69q0 -40 -26.5 -68t-67.5 -28z" />
    <glyph glyph-name="oslash" unicode="&#xf8;" horiz-adv-x="588" 
d="M91 -31l-72 72l478 479l72 -72zM293 -12q-80 0 -143.5 33.5t-99.5 92.5t-36 133t36 132t99.5 91.5t144.5 33.5t144 -33.5t99.5 -91.5t36.5 -132t-36.5 -133t-100 -92.5t-144.5 -33.5zM293 129q34 0 59 14.5t39 40.5t14 61q0 36 -14 62.5t-39 41t-59 14.5
q-33 0 -58.5 -14.5t-39.5 -40.5t-14 -62q0 -35 14 -61.5t39 -41t59 -14.5z" />
    <glyph glyph-name="ugrave" unicode="&#xf9;" 
d="M281 -12q-72 0 -127.5 28t-87.5 78t-32 114v284h196v-286q0 -15 6.5 -27t18 -18.5t26.5 -6.5q21 0 35.5 14.5t14.5 37.5v286h196v-284q0 -65 -31.5 -114.5t-87 -77.5t-127.5 -28zM347 542l-223 80l83 152l190 -135z" />
    <glyph glyph-name="uacute" unicode="&#xfa;" 
d="M281 -12q-72 0 -127.5 28t-87.5 78t-32 114v284h196v-286q0 -15 6.5 -27t18 -18.5t26.5 -6.5q21 0 35.5 14.5t14.5 37.5v286h196v-284q0 -65 -31.5 -114.5t-87 -77.5t-127.5 -28zM194 532l-50 97l190 135l83 -152z" />
    <glyph glyph-name="ucircumflex" unicode="&#xfb;" 
d="M281 -12q-72 0 -127.5 28t-87.5 78t-32 114v284h196v-286q0 -15 6.5 -27t18 -18.5t26.5 -6.5q21 0 35.5 14.5t14.5 37.5v286h196v-284q0 -65 -31.5 -114.5t-87 -77.5t-127.5 -28zM128 527l-50 82l156 135h93l156 -135l-50 -82l-231 111h158z" />
    <glyph glyph-name="udieresis" unicode="&#xfc;" 
d="M281 -12q-72 0 -127.5 28t-87.5 78t-32 114v284h196v-286q0 -15 6.5 -27t18 -18.5t26.5 -6.5q21 0 35.5 14.5t14.5 37.5v286h196v-284q0 -65 -31.5 -114.5t-87 -77.5t-127.5 -28zM166 538q-43 0 -71.5 29.5t-28.5 72.5t28.5 72.5t71.5 29.5q44 0 72 -29.5t28 -72.5
t-28 -72.5t-72 -29.5zM396 538q-43 0 -71.5 29.5t-28.5 72.5t28.5 72.5t71.5 29.5q44 0 72 -29.5t28 -72.5t-28 -72.5t-72 -29.5z" />
    <glyph glyph-name="yacute" unicode="&#xfd;" horiz-adv-x="549" 
d="M191 0l-194 492h208l114 -419h-86l112 419h207l-193 -492h-168zM84 -210l143 323l132 -113l-83 -210h-192zM188 532l-50 97l190 135l83 -152z" />
    <glyph glyph-name="thorn" unicode="&#xfe;" horiz-adv-x="610" 
d="M350 -10q-44 0 -83 14.5t-66 40.5t-35 60v272q8 34 35 62.5t66 45.5t83 17q73 0 127.5 -32.5t85 -90.5t30.5 -133t-30.5 -132.5t-85 -90.5t-127.5 -33zM47 -210v942h196v-361l-32 -119l27 -120v-342h-191zM313 162q24 0 43 11t29.5 30t10.5 43q0 25 -10.5 43.5t-29 29.5
t-42.5 11t-42.5 -10.5t-29 -29.5t-10.5 -44q0 -24 10 -43t28.5 -30t42.5 -11z" />
    <glyph glyph-name="ydieresis" unicode="&#xff;" horiz-adv-x="549" 
d="M191 0l-194 492h208l114 -419h-86l112 419h207l-193 -492h-168zM84 -210l143 323l132 -113l-83 -210h-192zM160 538q-43 0 -71.5 29.5t-28.5 72.5t28.5 72.5t71.5 29.5q44 0 72 -29.5t28 -72.5t-28 -72.5t-72 -29.5zM390 538q-43 0 -71.5 29.5t-28.5 72.5t28.5 72.5
t71.5 29.5q44 0 72 -29.5t28 -72.5t-28 -72.5t-72 -29.5z" />
    <glyph glyph-name="Amacron" unicode="&#x100;" horiz-adv-x="755" 
d="M6 0l271 712h204l268 -712h-208l-199 605h72l-204 -605h-204zM182 120v156h398v-156h-398zM182 932h392v-137h-392v137z" />
    <glyph glyph-name="amacron" unicode="&#x101;" horiz-adv-x="610" 
d="M252 -10q-69 0 -122 33t-83 90.5t-30 132.5t30 133t83 90.5t122 32.5q43 0 79.5 -14.5t61 -40.5t31.5 -60v-282q-7 -34 -31.5 -60t-61 -40.5t-79.5 -14.5zM296 162q37 0 59.5 23.5t22.5 60.5q0 25 -10 43.5t-28.5 29.5t-42.5 11t-42.5 -11t-29.5 -30t-11 -43t10.5 -43
t29.5 -30t42 -11zM372 0v132l27 120l-27 119v121h191v-492h-191zM119 712h392v-137h-392v137z" />
    <glyph glyph-name="Abreve" unicode="&#x102;" horiz-adv-x="755" 
d="M6 0l271 712h204l268 -712h-208l-199 605h72l-204 -605h-204zM182 120v156h398v-156h-398zM580 949q0 -56 -27 -102t-72.5 -72.5t-101.5 -26.5q-58 0 -104 26.5t-73 72.5t-27 102h139q0 -28 18.5 -47t46.5 -19q18 0 31.5 8.5t21.5 23.5t8 34h140z" />
    <glyph glyph-name="abreve" unicode="&#x103;" horiz-adv-x="610" 
d="M252 -10q-69 0 -122 33t-83 90.5t-30 132.5t30 133t83 90.5t122 32.5q43 0 79.5 -14.5t61 -40.5t31.5 -60v-282q-7 -34 -31.5 -60t-61 -40.5t-79.5 -14.5zM296 162q37 0 59.5 23.5t22.5 60.5q0 25 -10 43.5t-28.5 29.5t-42.5 11t-42.5 -11t-29.5 -30t-11 -43t10.5 -43
t29.5 -30t42 -11zM372 0v132l27 120l-27 119v121h191v-492h-191zM517 729q0 -56 -27 -102t-72.5 -72.5t-101.5 -26.5q-58 0 -104 26.5t-73 72.5t-27 102h139q0 -28 18.5 -47t46.5 -19q18 0 31.5 8.5t21.5 23.5t8 34h140z" />
    <glyph glyph-name="Aogonek" unicode="&#x104;" horiz-adv-x="755" 
d="M6 0l271 712h204l268 -712h-208l-199 605h72l-204 -605h-204zM182 120v156h398v-156h-398zM648 -220q-83 0 -129.5 34.5t-46.5 95.5t43.5 97.5t107.5 36.5l126 -44q-43 -9 -65 -25t-22 -44q0 -18 9 -27t25 -9q8 0 16.5 3t18.5 8l37 -98q-25 -14 -55 -21t-65 -7z" />
    <glyph glyph-name="aogonek" unicode="&#x105;" horiz-adv-x="610" 
d="M252 -10q-69 0 -122 33t-83 90.5t-30 132.5t30 133t83 90.5t122 32.5q43 0 79.5 -14.5t61 -40.5t31.5 -60v-282q-7 -34 -31.5 -60t-61 -40.5t-79.5 -14.5zM296 162q37 0 59.5 23.5t22.5 60.5q0 25 -10 43.5t-28.5 29.5t-42.5 11t-42.5 -11t-29.5 -30t-11 -43t10.5 -43
t29.5 -30t42 -11zM372 0v132l27 120l-27 119v121h191v-492h-191zM462 -220q-83 0 -129.5 34.5t-46.5 95.5t43.5 97.5t107.5 36.5l126 -44q-43 -9 -65 -25t-22 -44q0 -18 9 -27t25 -9q8 0 16.5 3t18.5 8l37 -98q-25 -14 -55 -21t-65 -7z" />
    <glyph glyph-name="Cacute" unicode="&#x106;" horiz-adv-x="695" 
d="M411 -12q-82 0 -152.5 27.5t-123.5 77.5t-82.5 117.5t-29.5 146.5q0 80 29.5 147t82 116t122.5 76.5t152 27.5q83 0 152 -26t120 -72l-133 -134q-24 26 -58.5 41t-80.5 15q-40 0 -73.5 -13t-57.5 -38t-37.5 -60.5t-13.5 -79.5q0 -45 13.5 -80.5t37.5 -60.5t57.5 -38.5
t73.5 -13.5q45 0 80.5 14t61.5 41l134 -134q-53 -46 -119 -71.5t-155 -25.5zM316 752l-50 97l190 135l83 -152z" />
    <glyph glyph-name="cacute" unicode="&#x107;" horiz-adv-x="505" 
d="M296 -12q-80 0 -144 33t-101 91.5t-37 132.5q0 75 37.5 133.5t102 92t145.5 33.5q58 0 104.5 -18t86.5 -55l-123 -123q-13 12 -29 18t-39 6q-24 0 -43.5 -10.5t-31.5 -29.5t-12 -45t12 -45.5t32 -30.5t43 -11q26 0 43 8t30 22l123 -123q-43 -40 -90 -59.5t-109 -19.5z
M204 532l-50 97l190 135l83 -152z" />
    <glyph glyph-name="Cdotaccent" unicode="&#x10a;" horiz-adv-x="695" 
d="M411 -12q-82 0 -152.5 27.5t-123.5 77.5t-82.5 117.5t-29.5 146.5q0 80 29.5 147t82 116t122.5 76.5t152 27.5q83 0 152 -26t120 -72l-133 -134q-24 26 -58.5 41t-80.5 15q-40 0 -73.5 -13t-57.5 -38t-37.5 -60.5t-13.5 -79.5q0 -45 13.5 -80.5t37.5 -60.5t57.5 -38.5
t73.5 -13.5q45 0 80.5 14t61.5 41l134 -134q-53 -46 -119 -71.5t-155 -25.5zM403 758q-43 0 -71.5 29.5t-28.5 72.5t28.5 72.5t71.5 29.5q44 0 72 -29.5t28 -72.5t-28 -72.5t-72 -29.5z" />
    <glyph glyph-name="cdotaccent" unicode="&#x10b;" horiz-adv-x="505" 
d="M296 -12q-80 0 -144 33t-101 91.5t-37 132.5q0 75 37.5 133.5t102 92t145.5 33.5q58 0 104.5 -18t86.5 -55l-123 -123q-13 12 -29 18t-39 6q-24 0 -43.5 -10.5t-31.5 -29.5t-12 -45t12 -45.5t32 -30.5t43 -11q26 0 43 8t30 22l123 -123q-43 -40 -90 -59.5t-109 -19.5z
M291 538q-43 0 -71.5 29.5t-28.5 72.5t28.5 72.5t71.5 29.5q44 0 72 -29.5t28 -72.5t-28 -72.5t-72 -29.5z" />
    <glyph glyph-name="Ccaron" unicode="&#x10c;" horiz-adv-x="695" 
d="M411 -12q-82 0 -152.5 27.5t-123.5 77.5t-82.5 117.5t-29.5 146.5q0 80 29.5 147t82 116t122.5 76.5t152 27.5q83 0 152 -26t120 -72l-133 -134q-24 26 -58.5 41t-80.5 15q-40 0 -73.5 -13t-57.5 -38t-37.5 -60.5t-13.5 -79.5q0 -45 13.5 -80.5t37.5 -60.5t57.5 -38.5
t73.5 -13.5q45 0 80.5 14t61.5 41l134 -134q-53 -46 -119 -71.5t-155 -25.5zM555 964l50 -82l-156 -135h-93l-156 135l50 82l231 -111h-158z" />
    <glyph glyph-name="ccaron" unicode="&#x10d;" horiz-adv-x="505" 
d="M296 -12q-80 0 -144 33t-101 91.5t-37 132.5q0 75 37.5 133.5t102 92t145.5 33.5q58 0 104.5 -18t86.5 -55l-123 -123q-13 12 -29 18t-39 6q-24 0 -43.5 -10.5t-31.5 -29.5t-12 -45t12 -45.5t32 -30.5t43 -11q26 0 43 8t30 22l123 -123q-43 -40 -90 -59.5t-109 -19.5z
M443 744l50 -82l-156 -135h-93l-156 135l50 82l231 -111h-158z" />
    <glyph glyph-name="Dcaron" unicode="&#x10e;" horiz-adv-x="768" 
d="M193 0v170h166q56 0 97 20.5t63 62.5t22 104t-22.5 103t-63 61.5t-96.5 20.5h-176v170h176q84 0 154.5 -25t122.5 -72t80.5 -112.5t28.5 -146.5t-28.5 -146.5t-80.5 -112.5t-122 -72t-153 -25h-168zM59 0v712h200v-712h-200zM511 964l50 -82l-156 -135h-93l-156 135
l50 82l231 -111h-158z" />
    <glyph glyph-name="dcaron" unicode="&#x10f;" horiz-adv-x="862" 
d="M260 -10q-73 0 -127.5 33t-85 90.5t-30.5 132.5t30.5 133t85 90.5t127.5 32.5q44 0 83 -14.5t66.5 -40.5t34.5 -60v-272q-7 -34 -34.5 -62.5t-66.5 -45.5t-83 -17zM296 162q25 0 43 10.5t28.5 29.5t10.5 44t-10 43.5t-28.5 29.5t-42.5 11t-42.5 -11t-29.5 -30t-11 -43
t10.5 -43t29.5 -30t42 -11zM563 0h-191v132l27 120l-32 119v361h196v-732zM706 331l-88 48l78 146l54 15q-9 -17 -21 -28.5t-27 -11.5q-34 0 -62.5 28.5t-28.5 71.5q0 46 31 79t78 33q44 0 76.5 -32.5t32.5 -79.5q0 -19 -7 -44t-29 -65z" />
    <glyph glyph-name="Dcroat" unicode="&#x110;" horiz-adv-x="801" 
d="M0 279v154h489v-154h-489zM226 0v170h166q56 0 97 20.5t63 62.5t22 104t-22.5 103t-63 61.5t-96.5 20.5h-176v170h176q84 0 154.5 -25t122.5 -72t80.5 -112.5t28.5 -146.5t-28.5 -146.5t-80.5 -112.5t-122 -72t-153 -25h-168zM92 0v712h200v-712h-200z" />
    <glyph glyph-name="dcroat" unicode="&#x111;" horiz-adv-x="600" 
d="M231 535v164h369v-164h-369zM260 -10q-73 0 -127.5 33t-85 90.5t-30.5 132.5t30.5 133t85 90.5t127.5 32.5q44 0 83 -14.5t66.5 -40.5t34.5 -60v-272q-7 -34 -34.5 -62.5t-66.5 -45.5t-83 -17zM296 162q25 0 43 10.5t28.5 29.5t10.5 44t-10 43.5t-28.5 29.5t-42.5 11
t-42.5 -11t-29.5 -30t-11 -43t10.5 -43t29.5 -30t42 -11zM563 0h-191v132l27 120l-32 119v361h196v-732z" />
    <glyph glyph-name="Emacron" unicode="&#x112;" horiz-adv-x="639" 
d="M59 0v712h200v-712h-200zM221 0v166h382v-166h-382zM221 282v162h345v-162h-345zM221 546v166h376v-166h-376zM144 932h392v-137h-392v137z" />
    <glyph glyph-name="emacron" unicode="&#x113;" 
d="M303 -12q-86 0 -151 32.5t-101.5 91t-36.5 134.5q0 75 35.5 133t97.5 91.5t140 33.5q77 0 136 -31.5t92.5 -87.5t33.5 -128q0 -15 -1.5 -31.5t-6.5 -38.5l-444 -3v120l371 3l-91 -53q0 40 -9.5 65.5t-28.5 38.5t-48 13q-30 0 -52 -15t-33.5 -43t-11.5 -68
q0 -41 12.5 -68.5t36.5 -41.5t60 -14q35 0 61.5 11.5t48.5 36.5l98 -97q-37 -42 -89 -63t-119 -21zM93 712h392v-137h-392v137z" />
    <glyph glyph-name="Edotaccent" unicode="&#x116;" horiz-adv-x="639" 
d="M59 0v712h200v-712h-200zM221 0v166h382v-166h-382zM221 282v162h345v-162h-345zM221 546v166h376v-166h-376zM340 758q-43 0 -71.5 29.5t-28.5 72.5t28.5 72.5t71.5 29.5q44 0 72 -29.5t28 -72.5t-28 -72.5t-72 -29.5z" />
    <glyph glyph-name="edotaccent" unicode="&#x117;" 
d="M303 -12q-86 0 -151 32.5t-101.5 91t-36.5 134.5q0 75 35.5 133t97.5 91.5t140 33.5q77 0 136 -31.5t92.5 -87.5t33.5 -128q0 -15 -1.5 -31.5t-6.5 -38.5l-444 -3v120l371 3l-91 -53q0 40 -9.5 65.5t-28.5 38.5t-48 13q-30 0 -52 -15t-33.5 -43t-11.5 -68
q0 -41 12.5 -68.5t36.5 -41.5t60 -14q35 0 61.5 11.5t48.5 36.5l98 -97q-37 -42 -89 -63t-119 -21zM289 538q-43 0 -71.5 29.5t-28.5 72.5t28.5 72.5t71.5 29.5q44 0 72 -29.5t28 -72.5t-28 -72.5t-72 -29.5z" />
    <glyph glyph-name="Eogonek" unicode="&#x118;" horiz-adv-x="639" 
d="M59 0v712h200v-712h-200zM221 0v166h382v-166h-382zM221 282v162h345v-162h-345zM221 546v166h376v-166h-376zM502 -220q-83 0 -129.5 34.5t-46.5 95.5t43.5 97.5t107.5 36.5l126 -44q-43 -9 -65 -25t-22 -44q0 -18 9 -27t25 -9q8 0 16.5 3t18.5 8l37 -98
q-25 -14 -55 -21t-65 -7z" />
    <glyph glyph-name="eogonek" unicode="&#x119;" 
d="M303 -12q-86 0 -151 32.5t-101.5 91t-36.5 134.5q0 75 35.5 133t97.5 91.5t140 33.5q77 0 136 -31.5t92.5 -87.5t33.5 -128q0 -15 -1.5 -31.5t-6.5 -38.5l-444 -3v120l371 3l-91 -53q0 40 -9.5 65.5t-28.5 38.5t-48 13q-30 0 -52 -15t-33.5 -43t-11.5 -68
q0 -41 12.5 -68.5t36.5 -41.5t60 -14q35 0 61.5 11.5t48.5 36.5l98 -97q-37 -42 -89 -63t-119 -21zM321 -210q-83 0 -129.5 34.5t-46.5 95.5t43.5 97.5t107.5 36.5l126 -44q-43 -9 -65 -25t-22 -44q0 -18 9 -27t25 -9q8 0 16.5 3t18.5 8l37 -98q-25 -14 -55 -21t-65 -7z" />
    <glyph glyph-name="Ecaron" unicode="&#x11a;" horiz-adv-x="639" 
d="M59 0v712h200v-712h-200zM221 0v166h382v-166h-382zM221 282v162h345v-162h-345zM221 546v166h376v-166h-376zM492 964l50 -82l-156 -135h-93l-156 135l50 82l231 -111h-158z" />
    <glyph glyph-name="ecaron" unicode="&#x11b;" 
d="M303 -12q-86 0 -151 32.5t-101.5 91t-36.5 134.5q0 75 35.5 133t97.5 91.5t140 33.5q77 0 136 -31.5t92.5 -87.5t33.5 -128q0 -15 -1.5 -31.5t-6.5 -38.5l-444 -3v120l371 3l-91 -53q0 40 -9.5 65.5t-28.5 38.5t-48 13q-30 0 -52 -15t-33.5 -43t-11.5 -68
q0 -41 12.5 -68.5t36.5 -41.5t60 -14q35 0 61.5 11.5t48.5 36.5l98 -97q-37 -42 -89 -63t-119 -21zM441 744l50 -82l-156 -135h-93l-156 135l50 82l231 -111h-158z" />
    <glyph glyph-name="Gbreve" unicode="&#x11e;" horiz-adv-x="797" 
d="M410 -12q-83 0 -153.5 27.5t-123 77.5t-81.5 117t-29 146q0 80 30.5 147t85 116.5t126.5 77t154 27.5q99 0 177.5 -34t127.5 -92l-135 -135q-37 43 -77 64t-96 21q-53 0 -96 -23.5t-68.5 -66.5t-25.5 -101t23.5 -101.5t65.5 -67.5t98 -24q54 0 91 21t56.5 60t19.5 92
l137 -87l-331 10v160h395v-30q0 -128 -46.5 -218t-130 -137t-194.5 -47zM611 949q0 -56 -27 -102t-72.5 -72.5t-101.5 -26.5q-58 0 -104 26.5t-73 72.5t-27 102h139q0 -28 18.5 -47t46.5 -19q18 0 31.5 8.5t21.5 23.5t8 34h140z" />
    <glyph glyph-name="gbreve" unicode="&#x11f;" horiz-adv-x="592" 
d="M258 -226q-83 0 -147 27.5t-99 77.5l116 115q23 -25 51 -39.5t68 -14.5q48 0 75.5 23t27.5 67v130l32 106l-27 105v121h191v-454q0 -81 -38 -140t-103 -91.5t-147 -32.5zM249 20q-69 0 -122 32t-83 87t-30 122q0 68 30 122.5t83 86.5t122 32q43 0 79.5 -14.5t61 -40.5
t31.5 -60v-252q-7 -34 -31.5 -60t-61 -40.5t-79.5 -14.5zM285 187q24 0 41 11t26 28t9 36t-9 36t-25.5 28t-40.5 11q-23 0 -40 -11t-26 -28.5t-9 -35.5q0 -17 9 -34.5t25.5 -29t39.5 -11.5zM517 729q0 -56 -27 -102t-72.5 -72.5t-101.5 -26.5q-58 0 -104 26.5t-73 72.5
t-27 102h139q0 -28 18.5 -47t46.5 -19q18 0 31.5 8.5t21.5 23.5t8 34h140z" />
    <glyph glyph-name="Gdotaccent" unicode="&#x120;" horiz-adv-x="797" 
d="M410 -12q-83 0 -153.5 27.5t-123 77.5t-81.5 117t-29 146q0 80 30.5 147t85 116.5t126.5 77t154 27.5q99 0 177.5 -34t127.5 -92l-135 -135q-37 43 -77 64t-96 21q-53 0 -96 -23.5t-68.5 -66.5t-25.5 -101t23.5 -101.5t65.5 -67.5t98 -24q54 0 91 21t56.5 60t19.5 92
l137 -87l-331 10v160h395v-30q0 -128 -46.5 -218t-130 -137t-194.5 -47zM409 758q-43 0 -71.5 29.5t-28.5 72.5t28.5 72.5t71.5 29.5q44 0 72 -29.5t28 -72.5t-28 -72.5t-72 -29.5z" />
    <glyph glyph-name="gdotaccent" unicode="&#x121;" horiz-adv-x="592" 
d="M258 -226q-83 0 -147 27.5t-99 77.5l116 115q23 -25 51 -39.5t68 -14.5q48 0 75.5 23t27.5 67v130l32 106l-27 105v121h191v-454q0 -81 -38 -140t-103 -91.5t-147 -32.5zM249 20q-69 0 -122 32t-83 87t-30 122q0 68 30 122.5t83 86.5t122 32q43 0 79.5 -14.5t61 -40.5
t31.5 -60v-252q-7 -34 -31.5 -60t-61 -40.5t-79.5 -14.5zM285 187q24 0 41 11t26 28t9 36t-9 36t-25.5 28t-40.5 11q-23 0 -40 -11t-26 -28.5t-9 -35.5q0 -17 9 -34.5t25.5 -29t39.5 -11.5zM315 538q-43 0 -71.5 29.5t-28.5 72.5t28.5 72.5t71.5 29.5q44 0 72 -29.5
t28 -72.5t-28 -72.5t-72 -29.5z" />
    <glyph glyph-name="uni0122" unicode="&#x122;" horiz-adv-x="797" 
d="M410 -12q-83 0 -153.5 27.5t-123 77.5t-81.5 117t-29 146q0 80 30.5 147t85 116.5t126.5 77t154 27.5q99 0 177.5 -34t127.5 -92l-135 -135q-37 43 -77 64t-96 21q-53 0 -96 -23.5t-68.5 -66.5t-25.5 -101t23.5 -101.5t65.5 -67.5t98 -24q54 0 91 21t56.5 60t19.5 92
l137 -87l-331 10v160h395v-30q0 -128 -46.5 -218t-130 -137t-194.5 -47zM331 -429l-73 69l113 121l57 1q-13 -14 -28 -22.5t-29 -4.5q-34 9 -53.5 44t-8.5 77q12 44 50 68t84 12q43 -12 66 -51.5t10 -85.5q-4 -18 -17.5 -40.5t-45.5 -55.5z" />
    <glyph glyph-name="uni0123" unicode="&#x123;" horiz-adv-x="592" 
d="M258 -226q-83 0 -147 27.5t-99 77.5l116 115q23 -25 51 -39.5t68 -14.5q48 0 75.5 23t27.5 67v130l32 106l-27 105v121h191v-454q0 -81 -38 -140t-103 -91.5t-147 -32.5zM249 20q-69 0 -122 32t-83 87t-30 122q0 68 30 122.5t83 86.5t122 32q43 0 79.5 -14.5t61 -40.5
t31.5 -60v-252q-7 -34 -31.5 -60t-61 -40.5t-79.5 -14.5zM285 187q24 0 41 11t26 28t9 36t-9 36t-25.5 28t-40.5 11q-23 0 -40 -11t-26 -28.5t-9 -35.5q0 -17 9 -34.5t25.5 -29t39.5 -11.5zM451 833l-113 -121l-57 -1q14 15 28.5 22.5t28.5 4.5q34 -9 53.5 -44t8.5 -77
q-12 -44 -50 -68t-84 -12q-43 12 -66 51.5t-10 85.5q5 18 18 40.5t45 55.5l125 132z" />
    <glyph glyph-name="Hbar" unicode="&#x126;" horiz-adv-x="748" 
d="M0 492v154h748v-154h-748zM59 0v712h200v-712h-200zM489 0v712h200v-712h-200zM168 280v166h399v-166h-399z" />
    <glyph glyph-name="hbar" unicode="&#x127;" horiz-adv-x="593" 
d="M0 535v164h369v-164h-369zM360 0v276q0 29 -16.5 44.5t-41.5 15.5q-17 0 -30.5 -7t-21 -20.5t-7.5 -32.5l-76 34q0 60 24.5 103t68 66t101.5 23q60 0 104 -23.5t67.5 -64t23.5 -93.5v-321h-196zM47 0v732h196v-732h-196z" />
    <glyph glyph-name="Imacron" unicode="&#x12a;" horiz-adv-x="318" 
d="M-37 932h392v-137h-392v137zM59 0v712h200v-712h-200z" />
    <glyph glyph-name="imacron" unicode="&#x12b;" horiz-adv-x="290" 
d="M-51 712h392v-137h-392v137zM47 0v492h196v-492h-196z" />
    <glyph glyph-name="Iogonek" unicode="&#x12e;" horiz-adv-x="318" 
d="M59 0v712h200v-712h-200zM158 -220q-83 0 -129.5 34.5t-46.5 95.5t43.5 97.5t107.5 36.5l126 -44q-43 -9 -65 -25t-22 -44q0 -18 9 -27t25 -9q8 0 16.5 3t18.5 8l37 -98q-25 -14 -55 -21t-65 -7z" />
    <glyph glyph-name="iogonek" unicode="&#x12f;" horiz-adv-x="288" 
d="M46 0v492h196v-492h-196zM144 538q-43 0 -71.5 29.5t-28.5 72.5t28.5 72.5t71.5 29.5q44 0 72 -29.5t28 -72.5t-28 -72.5t-72 -29.5zM142 -220q-83 0 -129.5 34.5t-46.5 95.5t43.5 97.5t107.5 36.5l126 -44q-43 -9 -65 -25t-22 -44q0 -18 9 -27t25 -9q8 0 16.5 3t18.5 8
l37 -98q-25 -14 -55 -21t-65 -7z" />
    <glyph glyph-name="Idotaccent" unicode="&#x130;" horiz-adv-x="318" 
d="M59 0v712h200v-712h-200zM159 758q-43 0 -71.5 29.5t-28.5 72.5t28.5 72.5t71.5 29.5q44 0 72 -29.5t28 -72.5t-28 -72.5t-72 -29.5z" />
    <glyph glyph-name="dotlessi" unicode="&#x131;" horiz-adv-x="290" 
d="M47 0v492h196v-492h-196z" />
    <glyph glyph-name="IJ" unicode="&#x132;" horiz-adv-x="770" 
d="M423 -12q-73 0 -124.5 24.5t-92.5 71.5l128 128q19 -24 42.5 -36t54.5 -12q25 0 45.5 10.5t33 32t12.5 55.5v450h201v-442q0 -88 -36 -151t-103 -97t-161 -34zM59 220v492h196v-492h-196z" />
    <glyph glyph-name="ij" unicode="&#x133;" horiz-adv-x="591" 
d="M46 0v492h196v-492h-196zM144 538q-43 0 -71.5 29.5t-28.5 72.5t28.5 72.5t71.5 29.5q44 0 72 -29.5t28 -72.5t-28 -72.5t-72 -29.5zM326 -226q-55 0 -96.5 19t-70.5 51l119 119q10 -10 18.5 -13.5t16.5 -3.5q17 0 26.5 9.5t9.5 31.5v505h196v-501q0 -63 -27 -112
t-76 -77t-116 -28zM447 538q-43 0 -71.5 29.5t-28.5 72.5t28.5 72.5t71.5 29.5q44 0 72 -29.5t28 -72.5t-28 -72.5t-72 -29.5z" />
    <glyph glyph-name="uni0136" unicode="&#x136;" horiz-adv-x="737" 
d="M491 0l-249 371l237 341h241l-274 -370v64l285 -406h-240zM59 0v712h200v-712h-200zM267 -429l-73 69l113 121l57 1q-13 -14 -28 -22.5t-29 -4.5q-34 9 -53.5 44t-8.5 77q12 44 50 68t84 12q43 -12 66 -51.5t10 -85.5q-4 -18 -17.5 -40.5t-45.5 -55.5z" />
    <glyph glyph-name="uni0137" unicode="&#x137;" horiz-adv-x="580" 
d="M364 0l-137 259l136 233h211l-176 -263l5 64l181 -293h-220zM47 0v732h196v-732h-196zM220 -429l-73 69l113 121l57 1q-13 -14 -28 -22.5t-29 -4.5q-34 9 -53.5 44t-8.5 77q12 44 50 68t84 12q43 -12 66 -51.5t10 -85.5q-4 -18 -17.5 -40.5t-45.5 -55.5z" />
    <glyph glyph-name="Lacute" unicode="&#x139;" horiz-adv-x="572" 
d="M59 0v712h200v-712h-200zM222 0v170h333v-170h-333zM220 752l-50 97l190 135l83 -152z" />
    <glyph glyph-name="lacute" unicode="&#x13a;" horiz-adv-x="290" 
d="M47 0v732h196v-732h-196zM158 752l-50 97l190 135l83 -152z" />
    <glyph glyph-name="uni013B" unicode="&#x13b;" horiz-adv-x="572" 
d="M59 0v712h200v-712h-200zM222 0v170h333v-170h-333zM229 -429l-73 69l113 121l57 1q-13 -14 -28 -22.5t-29 -4.5q-34 9 -53.5 44t-8.5 77q12 44 50 68t84 12q43 -12 66 -51.5t10 -85.5q-4 -18 -17.5 -40.5t-45.5 -55.5z" />
    <glyph glyph-name="uni013C" unicode="&#x13c;" horiz-adv-x="290" 
d="M47 0v732h196v-732h-196zM67 -429l-73 69l113 121l57 1q-13 -14 -28 -22.5t-29 -4.5q-34 9 -53.5 44t-8.5 77q12 44 50 68t84 12q43 -12 66 -51.5t10 -85.5q-4 -18 -17.5 -40.5t-45.5 -55.5z" />
    <glyph glyph-name="Lcaron" unicode="&#x13d;" horiz-adv-x="572" 
d="M59 0v712h200v-712h-200zM222 0v170h333v-170h-333zM432 331l-88 48l78 146l54 15q-9 -17 -21 -28.5t-27 -11.5q-34 0 -62.5 28.5t-28.5 71.5q0 46 31 79t78 33q44 0 76.5 -32.5t32.5 -79.5q0 -19 -7 -44t-29 -65z" />
    <glyph glyph-name="lcaron" unicode="&#x13e;" horiz-adv-x="542" 
d="M47 0v732h196v-732h-196zM386 331l-88 48l78 146l54 15q-9 -17 -21 -28.5t-27 -11.5q-34 0 -62.5 28.5t-28.5 71.5q0 46 31 79t78 33q44 0 76.5 -32.5t32.5 -79.5q0 -19 -7 -44t-29 -65z" />
    <glyph glyph-name="Lslash" unicode="&#x141;" horiz-adv-x="597" 
d="M47 367l314 181v-159l-314 -180v158zM84 0v712h200v-712h-200zM247 0v170h333v-170h-333z" />
    <glyph glyph-name="lslash" unicode="&#x142;" horiz-adv-x="365" 
d="M47 367l271 157v-159l-271 -156v158zM84 0v732h196v-732h-196z" />
    <glyph glyph-name="Nacute" unicode="&#x143;" horiz-adv-x="758" 
d="M59 0v712h140l60 -150v-562h-200zM549 0l-413 519l63 193l413 -519zM549 0l-50 158v554h200v-712h-150zM292 752l-50 97l190 135l83 -152z" />
    <glyph glyph-name="nacute" unicode="&#x144;" horiz-adv-x="593" 
d="M360 0v276q0 29 -16.5 44.5t-41.5 15.5q-17 0 -30.5 -7t-21 -20.5t-7.5 -32.5l-76 34q0 60 26.5 103t73 66t105.5 23q53 0 94.5 -23.5t65.5 -64t24 -93.5v-321h-196zM47 0v492h196v-492h-196zM210 532l-50 97l190 135l83 -152z" />
    <glyph glyph-name="uni0145" unicode="&#x145;" horiz-adv-x="758" 
d="M59 0v712h140l60 -150v-562h-200zM549 0l-413 519l63 193l413 -519zM549 0l-50 158v554h200v-712h-150zM301 -429l-73 69l113 121l57 1q-13 -14 -28 -22.5t-29 -4.5q-34 9 -53.5 44t-8.5 77q12 44 50 68t84 12q43 -12 66 -51.5t10 -85.5q-4 -18 -17.5 -40.5t-45.5 -55.5z
" />
    <glyph glyph-name="uni0146" unicode="&#x146;" horiz-adv-x="593" 
d="M360 0v276q0 29 -16.5 44.5t-41.5 15.5q-17 0 -30.5 -7t-21 -20.5t-7.5 -32.5l-76 34q0 60 26.5 103t73 66t105.5 23q53 0 94.5 -23.5t65.5 -64t24 -93.5v-321h-196zM47 0v492h196v-492h-196zM219 -429l-73 69l113 121l57 1q-13 -14 -28 -22.5t-29 -4.5q-34 9 -53.5 44
t-8.5 77q12 44 50 68t84 12q43 -12 66 -51.5t10 -85.5q-4 -18 -17.5 -40.5t-45.5 -55.5z" />
    <glyph glyph-name="Ncaron" unicode="&#x147;" horiz-adv-x="758" 
d="M59 0v712h140l60 -150v-562h-200zM549 0l-413 519l63 193l413 -519zM549 0l-50 158v554h200v-712h-150zM531 964l50 -82l-156 -135h-93l-156 135l50 82l231 -111h-158z" />
    <glyph glyph-name="ncaron" unicode="&#x148;" horiz-adv-x="593" 
d="M360 0v276q0 29 -16.5 44.5t-41.5 15.5q-17 0 -30.5 -7t-21 -20.5t-7.5 -32.5l-76 34q0 60 26.5 103t73 66t105.5 23q53 0 94.5 -23.5t65.5 -64t24 -93.5v-321h-196zM47 0v492h196v-492h-196zM449 744l50 -82l-156 -135h-93l-156 135l50 82l231 -111h-158z" />
    <glyph glyph-name="Eng" unicode="&#x14a;" horiz-adv-x="758" 
d="M59 0v712h140l60 -150v-562h-200zM549 0l-413 519l63 193l413 -519zM549 0l-50 158v554h200v-712h-150zM480 -226q-55 0 -96.5 19t-70.5 51l119 119q10 -10 18.5 -13.5t16.5 -3.5q17 0 26.5 9.5t9.5 31.5v505h196v-501q0 -63 -27 -112t-76 -77t-116 -28z" />
    <glyph glyph-name="eng" unicode="&#x14b;" horiz-adv-x="593" 
d="M337 -226q-55 0 -96.5 19t-70.5 51l119 119q10 -10 18.5 -13.5t16.5 -3.5q17 0 26.5 9.5t9.5 31.5v116h196v-112q0 -63 -27 -112t-76 -77t-116 -28zM360 0v276q0 29 -16.5 44.5t-41.5 15.5q-17 0 -30.5 -7t-21 -20.5t-7.5 -32.5l-76 34q0 60 26.5 103t73 66t105.5 23
q53 0 94.5 -23.5t65.5 -64t24 -93.5v-321h-196zM47 0v492h196v-492h-196z" />
    <glyph glyph-name="Omacron" unicode="&#x14c;" horiz-adv-x="818" 
d="M411 -14q-84 0 -154.5 28t-123 78t-81.5 118t-29 147q0 80 28.5 147t80.5 117t122.5 77.5t154.5 27.5t154.5 -27.5t122.5 -77.5t80.5 -117.5t28.5 -147.5q0 -79 -28.5 -146.5t-80.5 -118t-122 -78t-153 -27.5zM409 162q56 0 97 24t63 68t22 103q0 44 -12.5 79.5t-36.5 61
t-57.5 39t-75.5 13.5q-56 0 -97 -23.5t-63 -67t-22 -102.5q0 -45 12.5 -81t36.5 -61.5t57.5 -39t75.5 -13.5zM213 932h392v-137h-392v137z" />
    <glyph glyph-name="omacron" unicode="&#x14d;" horiz-adv-x="588" 
d="M295 -12q-81 0 -144.5 33.5t-100 92.5t-36.5 133t36 132t99.5 91.5t144.5 33.5t144 -33.5t99.5 -91.5t36.5 -132t-36 -133t-99 -92.5t-144 -33.5zM294 160q25 0 43.5 10.5t28.5 30t10 45.5t-10.5 45.5t-28.5 30t-43 10.5q-24 0 -42.5 -11t-29 -30.5t-10.5 -45.5
q0 -25 10.5 -44.5t29 -30t42.5 -10.5zM98 712h392v-137h-392v137z" />
    <glyph glyph-name="Ohungarumlaut" unicode="&#x150;" horiz-adv-x="818" 
d="M411 -14q-84 0 -154.5 28t-123 78t-81.5 118t-29 147q0 80 28.5 147t80.5 117t122.5 77.5t154.5 27.5t154.5 -27.5t122.5 -77.5t80.5 -117.5t28.5 -147.5q0 -79 -28.5 -146.5t-80.5 -118t-122 -78t-153 -27.5zM409 162q56 0 97 24t63 68t22 103q0 44 -12.5 79.5t-36.5 61
t-57.5 39t-75.5 13.5q-56 0 -97 -23.5t-63 -67t-22 -102.5q0 -45 12.5 -81t36.5 -61.5t57.5 -39t75.5 -13.5zM255 758l-87 67l116 203l139 -103zM521 758l-87 67l116 203l139 -103z" />
    <glyph glyph-name="ohungarumlaut" unicode="&#x151;" horiz-adv-x="588" 
d="M295 -12q-81 0 -144.5 33.5t-100 92.5t-36.5 133t36 132t99.5 91.5t144.5 33.5t144 -33.5t99.5 -91.5t36.5 -132t-36 -133t-99 -92.5t-144 -33.5zM294 160q25 0 43.5 10.5t28.5 30t10 45.5t-10.5 45.5t-28.5 30t-43 10.5q-24 0 -42.5 -11t-29 -30.5t-10.5 -45.5
q0 -25 10.5 -44.5t29 -30t42.5 -10.5zM140 538l-87 67l116 203l139 -103zM406 538l-87 67l116 203l139 -103z" />
    <glyph glyph-name="OE" unicode="&#x152;" horiz-adv-x="1171" 
d="M401 -14q-80 0 -148.5 28t-120 78t-80.5 118t-29 147q0 80 28.5 147t79.5 117t119.5 77.5t148.5 27.5q84 0 142 -27.5t94.5 -77.5t53 -117.5t16.5 -147.5q0 -79 -16.5 -146.5t-52.5 -118t-94 -78t-141 -27.5zM409 162q56 0 97 24t63 68t22 103t-22.5 102.5t-63 67
t-96.5 23.5t-97 -23.5t-63 -67t-22 -102.5q0 -45 12.5 -81t36.5 -61.5t57.5 -39t75.5 -13.5zM591 0v712h200v-712h-200zM753 0v166h382v-166h-382zM753 282v162h345v-162h-345zM753 546v166h376v-166h-376z" />
    <glyph glyph-name="oe" unicode="&#x153;" horiz-adv-x="940" 
d="M295 -12q-81 0 -144.5 33.5t-100 92.5t-36.5 133t36 132t99.5 91.5t144.5 33.5t144 -33.5t99.5 -91.5t36.5 -132t-36 -133t-99 -92.5t-144 -33.5zM294 160q25 0 43.5 10.5t28.5 30t10 45.5t-10.5 45.5t-28.5 30t-43 10.5q-24 0 -42.5 -11t-29 -30.5t-10.5 -45.5
q0 -25 10.5 -44.5t29 -30t42.5 -10.5zM682 -12q-86 0 -151 32.5t-101.5 91t-36.5 134.5q0 75 35.5 133t97.5 91.5t140 33.5q77 0 136 -31.5t92.5 -87.5t33.5 -128q0 -15 -1.5 -31.5t-6.5 -38.5l-444 -3v120l371 3l-91 -53q0 40 -9.5 65.5t-28.5 38.5t-48 13q-30 0 -52 -15
t-33.5 -43t-11.5 -68q0 -41 12.5 -68.5t36.5 -41.5t60 -14q35 0 61.5 11.5t48.5 36.5l98 -97q-37 -42 -89 -63t-119 -21z" />
    <glyph glyph-name="Racute" unicode="&#x154;" horiz-adv-x="675" 
d="M221 284v138h121q41 0 62.5 20t21.5 53t-21.5 53t-62.5 20h-121v144h153q74 0 130 -27t88 -75t32 -112t-32.5 -112t-90.5 -75t-137 -27h-143zM59 0v712h200v-712h-200zM443 0l-194 304l180 39l241 -343h-227zM212 752l-50 97l190 135l83 -152z" />
    <glyph glyph-name="racute" unicode="&#x155;" horiz-adv-x="462" 
d="M47 0v492h196v-492h-196zM243 266l-91 81q38 80 88.5 117.5t126.5 37.5q34 0 58.5 -8t39.5 -23l-110 -156q-7 8 -20.5 13.5t-31.5 5.5q-30 0 -45 -17.5t-15 -50.5zM156 532l-50 97l190 135l83 -152z" />
    <glyph glyph-name="uni0156" unicode="&#x156;" horiz-adv-x="675" 
d="M221 284v138h121q41 0 62.5 20t21.5 53t-21.5 53t-62.5 20h-121v144h153q74 0 130 -27t88 -75t32 -112t-32.5 -112t-90.5 -75t-137 -27h-143zM59 0v712h200v-712h-200zM443 0l-194 304l180 39l241 -343h-227zM221 -429l-73 69l113 121l57 1q-13 -14 -28 -22.5t-29 -4.5
q-34 9 -53.5 44t-8.5 77q12 44 50 68t84 12q43 -12 66 -51.5t10 -85.5q-4 -18 -17.5 -40.5t-45.5 -55.5z" />
    <glyph glyph-name="uni0157" unicode="&#x157;" horiz-adv-x="462" 
d="M47 0v492h196v-492h-196zM243 266l-91 81q38 80 88.5 117.5t126.5 37.5q34 0 58.5 -8t39.5 -23l-110 -156q-7 8 -20.5 13.5t-31.5 5.5q-30 0 -45 -17.5t-15 -50.5zM67 -429l-73 69l113 121l57 1q-13 -14 -28 -22.5t-29 -4.5q-34 9 -53.5 44t-8.5 77q12 44 50 68t84 12
q43 -12 66 -51.5t10 -85.5q-4 -18 -17.5 -40.5t-45.5 -55.5z" />
    <glyph glyph-name="Rcaron" unicode="&#x158;" horiz-adv-x="675" 
d="M221 284v138h121q41 0 62.5 20t21.5 53t-21.5 53t-62.5 20h-121v144h153q74 0 130 -27t88 -75t32 -112t-32.5 -112t-90.5 -75t-137 -27h-143zM59 0v712h200v-712h-200zM443 0l-194 304l180 39l241 -343h-227zM451 964l50 -82l-156 -135h-93l-156 135l50 82l231 -111h-158
z" />
    <glyph glyph-name="rcaron" unicode="&#x159;" horiz-adv-x="462" 
d="M47 0v492h196v-492h-196zM243 266l-91 81q38 80 88.5 117.5t126.5 37.5q34 0 58.5 -8t39.5 -23l-110 -156q-7 8 -20.5 13.5t-31.5 5.5q-30 0 -45 -17.5t-15 -50.5zM395 744l50 -82l-156 -135h-93l-156 135l50 82l231 -111h-158z" />
    <glyph glyph-name="Sacute" unicode="&#x15a;" horiz-adv-x="609" 
d="M289 -12q-91 0 -158.5 26.5t-124.5 84.5l125 125q39 -37 82 -56.5t92 -19.5q41 0 62 12.5t21 34.5t-18 36.5t-47.5 26t-65 23.5t-70.5 29t-64.5 41.5t-47.5 61t-18 89.5q0 69 33 119t93 76.5t141 26.5q80 0 148.5 -25.5t113.5 -72.5l-126 -125q-33 32 -66 47.5t-72 15.5
q-31 0 -49.5 -10t-18.5 -30q0 -21 18 -34.5t47.5 -24.5t65 -23t70.5 -28.5t64.5 -42t47.5 -63.5t18 -92q0 -109 -77.5 -168.5t-218.5 -59.5zM237 752l-50 97l190 135l83 -152z" />
    <glyph glyph-name="sacute" unicode="&#x15b;" horiz-adv-x="485" 
d="M243 -15q-46 0 -92 12t-85.5 33t-66.5 48l103 106q24 -24 57.5 -38t70.5 -14q17 0 26.5 4.5t9.5 12.5q0 14 -16.5 21t-42 13t-54 15.5t-54.5 26t-42 46t-16 75.5q0 47 26.5 83.5t75 58t112.5 21.5q65 0 126 -22t97 -66l-104 -106q-25 28 -55 37.5t-50 9.5
q-19 0 -26.5 -5.5t-7.5 -13.5q0 -11 16 -18t41.5 -13t53.5 -16t53.5 -28t41.5 -47.5t16 -76.5q0 -73 -58 -116t-156 -43zM168 532l-50 97l190 135l83 -152z" />
    <glyph glyph-name="Scedilla" unicode="&#x15e;" horiz-adv-x="609" 
d="M289 -12q-91 0 -158.5 26.5t-124.5 84.5l125 125q39 -37 82 -56.5t92 -19.5q41 0 62 12.5t21 34.5t-18 36.5t-47.5 26t-65 23.5t-70.5 29t-64.5 41.5t-47.5 61t-18 89.5q0 69 33 119t93 76.5t141 26.5q80 0 148.5 -25.5t113.5 -72.5l-126 -125q-33 32 -66 47.5t-72 15.5
q-31 0 -49.5 -10t-18.5 -30q0 -21 18 -34.5t47.5 -24.5t65 -23t70.5 -28.5t64.5 -42t47.5 -63.5t18 -92q0 -109 -77.5 -168.5t-218.5 -59.5zM265 -220q-43 0 -71.5 9.5t-59.5 26.5l50 67q15 -9 30 -13.5t29 -4.5q16 0 22.5 5.5t6.5 13.5t-11 13.5t-34 5.5h-12l34 108h93
l-29 -74l-48 41q71 0 106 -26.5t35 -72.5q0 -42 -38 -70.5t-103 -28.5z" />
    <glyph glyph-name="scedilla" unicode="&#x15f;" horiz-adv-x="485" 
d="M243 -15q-46 0 -92 12t-85.5 33t-66.5 48l103 106q24 -24 57.5 -38t70.5 -14q17 0 26.5 4.5t9.5 12.5q0 14 -16.5 21t-42 13t-54 15.5t-54.5 26t-42 46t-16 75.5q0 47 26.5 83.5t75 58t112.5 21.5q65 0 126 -22t97 -66l-104 -106q-25 28 -55 37.5t-50 9.5
q-19 0 -26.5 -5.5t-7.5 -13.5q0 -11 16 -18t41.5 -13t53.5 -16t53.5 -28t41.5 -47.5t16 -76.5q0 -73 -58 -116t-156 -43zM215 -220q-43 0 -71.5 9.5t-59.5 26.5l50 67q15 -9 30 -13.5t29 -4.5q16 0 22.5 5.5t6.5 13.5t-11 13.5t-34 5.5h-12l34 108h93l-29 -74l-48 41
q71 0 106 -26.5t35 -72.5q0 -42 -38 -70.5t-103 -28.5z" />
    <glyph glyph-name="Scaron" unicode="&#x160;" horiz-adv-x="609" 
d="M289 -12q-91 0 -158.5 26.5t-124.5 84.5l125 125q39 -37 82 -56.5t92 -19.5q41 0 62 12.5t21 34.5t-18 36.5t-47.5 26t-65 23.5t-70.5 29t-64.5 41.5t-47.5 61t-18 89.5q0 69 33 119t93 76.5t141 26.5q80 0 148.5 -25.5t113.5 -72.5l-126 -125q-33 32 -66 47.5t-72 15.5
q-31 0 -49.5 -10t-18.5 -30q0 -21 18 -34.5t47.5 -24.5t65 -23t70.5 -28.5t64.5 -42t47.5 -63.5t18 -92q0 -109 -77.5 -168.5t-218.5 -59.5zM476 964l50 -82l-156 -135h-93l-156 135l50 82l231 -111h-158z" />
    <glyph glyph-name="scaron" unicode="&#x161;" horiz-adv-x="485" 
d="M243 -15q-46 0 -92 12t-85.5 33t-66.5 48l103 106q24 -24 57.5 -38t70.5 -14q17 0 26.5 4.5t9.5 12.5q0 14 -16.5 21t-42 13t-54 15.5t-54.5 26t-42 46t-16 75.5q0 47 26.5 83.5t75 58t112.5 21.5q65 0 126 -22t97 -66l-104 -106q-25 28 -55 37.5t-50 9.5
q-19 0 -26.5 -5.5t-7.5 -13.5q0 -11 16 -18t41.5 -13t53.5 -16t53.5 -28t41.5 -47.5t16 -76.5q0 -73 -58 -116t-156 -43zM407 744l50 -82l-156 -135h-93l-156 135l50 82l231 -111h-158z" />
    <glyph glyph-name="Tcaron" unicode="&#x164;" horiz-adv-x="659" 
d="M229 0v712h200v-712h-200zM16 542v170h627v-170h-627zM481 964l50 -82l-156 -135h-93l-156 135l50 82l231 -111h-158z" />
    <glyph glyph-name="tcaron" unicode="&#x165;" horiz-adv-x="585" 
d="M112 0v694h196v-694h-196zM7 332v160h406v-160h-406zM429 524l-88 48l78 146l54 15q-9 -17 -21 -28.5t-27 -11.5q-34 0 -62.5 28.5t-28.5 71.5q0 46 31 79t78 33q44 0 76.5 -32.5t32.5 -79.5q0 -19 -7 -44t-29 -65z" />
    <glyph glyph-name="Umacron" unicode="&#x16a;" horiz-adv-x="714" 
d="M358 -12q-94 0 -164 38.5t-109 106.5t-39 156v423h200v-441q0 -34 15 -58t40.5 -36.5t56.5 -12.5q32 0 56.5 12.5t38.5 36t14 57.5v442h201v-424q0 -88 -38.5 -155.5t-108 -106t-163.5 -38.5zM161 932h392v-137h-392v137z" />
    <glyph glyph-name="umacron" unicode="&#x16b;" 
d="M281 -12q-72 0 -127.5 28t-87.5 78t-32 114v284h196v-286q0 -15 6.5 -27t18 -18.5t26.5 -6.5q21 0 35.5 14.5t14.5 37.5v286h196v-284q0 -65 -31.5 -114.5t-87 -77.5t-127.5 -28zM85 712h392v-137h-392v137z" />
    <glyph glyph-name="Ubreve" unicode="&#x16c;" horiz-adv-x="714" 
d="M358 -12q-94 0 -164 38.5t-109 106.5t-39 156v423h200v-441q0 -34 15 -58t40.5 -36.5t56.5 -12.5q32 0 56.5 12.5t38.5 36t14 57.5v442h201v-424q0 -88 -38.5 -155.5t-108 -106t-163.5 -38.5zM559 949q0 -56 -27 -102t-72.5 -72.5t-101.5 -26.5q-58 0 -104 26.5t-73 72.5
t-27 102h139q0 -28 18.5 -47t46.5 -19q18 0 31.5 8.5t21.5 23.5t8 34h140z" />
    <glyph glyph-name="ubreve" unicode="&#x16d;" 
d="M281 -12q-72 0 -127.5 28t-87.5 78t-32 114v284h196v-286q0 -15 6.5 -27t18 -18.5t26.5 -6.5q21 0 35.5 14.5t14.5 37.5v286h196v-284q0 -65 -31.5 -114.5t-87 -77.5t-127.5 -28zM483 729q0 -56 -27 -102t-72.5 -72.5t-101.5 -26.5q-58 0 -104 26.5t-73 72.5t-27 102h139
q0 -28 18.5 -47t46.5 -19q18 0 31.5 8.5t21.5 23.5t8 34h140z" />
    <glyph glyph-name="Uring" unicode="&#x16e;" horiz-adv-x="714" 
d="M358 -12q-94 0 -164 38.5t-109 106.5t-39 156v423h200v-441q0 -34 15 -58t40.5 -36.5t56.5 -12.5q32 0 56.5 12.5t38.5 36t14 57.5v442h201v-424q0 -88 -38.5 -155.5t-108 -106t-163.5 -38.5zM357 748q-39 0 -70 18t-49 48.5t-18 68.5t18 68.5t49 48.5t70 18q38 0 69 -18
t49 -48.5t18 -68.5t-18 -68.5t-49 -48.5t-69 -18zM357 839q18 0 30 12.5t12 31.5t-12 31.5t-30 12.5q-19 0 -31 -12.5t-12 -31.5t12 -31.5t31 -12.5z" />
    <glyph glyph-name="uring" unicode="&#x16f;" 
d="M281 -12q-72 0 -127.5 28t-87.5 78t-32 114v284h196v-286q0 -15 6.5 -27t18 -18.5t26.5 -6.5q21 0 35.5 14.5t14.5 37.5v286h196v-284q0 -65 -31.5 -114.5t-87 -77.5t-127.5 -28zM281 528q-39 0 -70 18t-49 48.5t-18 68.5t18 68.5t49 48.5t70 18q38 0 69 -18t49 -48.5
t18 -68.5t-18 -68.5t-49 -48.5t-69 -18zM281 619q18 0 30 12.5t12 31.5t-12 31.5t-30 12.5q-19 0 -31 -12.5t-12 -31.5t12 -31.5t31 -12.5z" />
    <glyph glyph-name="Uhungarumlaut" unicode="&#x170;" horiz-adv-x="714" 
d="M358 -12q-94 0 -164 38.5t-109 106.5t-39 156v423h200v-441q0 -34 15 -58t40.5 -36.5t56.5 -12.5q32 0 56.5 12.5t38.5 36t14 57.5v442h201v-424q0 -88 -38.5 -155.5t-108 -106t-163.5 -38.5zM203 758l-87 67l116 203l139 -103zM469 758l-87 67l116 203l139 -103z" />
    <glyph glyph-name="uhungarumlaut" unicode="&#x171;" 
d="M281 -12q-72 0 -127.5 28t-87.5 78t-32 114v284h196v-286q0 -15 6.5 -27t18 -18.5t26.5 -6.5q21 0 35.5 14.5t14.5 37.5v286h196v-284q0 -65 -31.5 -114.5t-87 -77.5t-127.5 -28zM127 538l-87 67l116 203l139 -103zM393 538l-87 67l116 203l139 -103z" />
    <glyph glyph-name="Uogonek" unicode="&#x172;" horiz-adv-x="714" 
d="M358 -12q-94 0 -164 38.5t-109 106.5t-39 156v423h200v-441q0 -34 15 -58t40.5 -36.5t56.5 -12.5q32 0 56.5 12.5t38.5 36t14 57.5v442h201v-424q0 -88 -38.5 -155.5t-108 -106t-163.5 -38.5zM384 -210q-83 0 -129.5 34.5t-46.5 95.5t43.5 97.5t107.5 36.5l126 -44
q-43 -9 -65 -25t-22 -44q0 -18 9 -27t25 -9q8 0 16.5 3t18.5 8l37 -98q-25 -14 -55 -21t-65 -7z" />
    <glyph glyph-name="uogonek" unicode="&#x173;" 
d="M281 -12q-72 0 -127.5 28t-87.5 78t-32 114v284h196v-286q0 -15 6.5 -27t18 -18.5t26.5 -6.5q21 0 35.5 14.5t14.5 37.5v286h196v-284q0 -65 -31.5 -114.5t-87 -77.5t-127.5 -28zM293 -210q-83 0 -129.5 34.5t-46.5 95.5t43.5 97.5t107.5 36.5l126 -44q-43 -9 -65 -25
t-22 -44q0 -18 9 -27t25 -9q8 0 16.5 3t18.5 8l37 -98q-25 -14 -55 -21t-65 -7z" />
    <glyph glyph-name="Wcircumflex" unicode="&#x174;" horiz-adv-x="1022" 
d="M232 0l-224 712h199l158 -548h-92l156 548h165l156 -548h-91l158 548h197l-224 -712h-166l-156 547h86l-156 -547h-166zM358 747l-50 82l156 135h93l156 -135l-50 -82l-231 111h158z" />
    <glyph glyph-name="wcircumflex" unicode="&#x175;" horiz-adv-x="815" 
d="M144 0l-143 492h186l79 -358l-55 -1l103 359h185l104 -359l-56 1l81 358h186l-143 -492h-187l-96 340h40l-99 -340h-185zM255 527l-50 82l156 135h93l156 -135l-50 -82l-231 111h158z" />
    <glyph glyph-name="Ycircumflex" unicode="&#x176;" horiz-adv-x="701" 
d="M275 245l-271 467h230l205 -381h-172l205 381h225l-273 -467h-149zM252 0v318h200v-318h-200zM198 747l-50 82l156 135h93l156 -135l-50 -82l-231 111h158z" />
    <glyph glyph-name="ycircumflex" unicode="&#x177;" horiz-adv-x="549" 
d="M191 0l-194 492h208l114 -419h-86l112 419h207l-193 -492h-168zM84 -210l143 323l132 -113l-83 -210h-192zM122 527l-50 82l156 135h93l156 -135l-50 -82l-231 111h158z" />
    <glyph glyph-name="Ydieresis" unicode="&#x178;" horiz-adv-x="701" 
d="M275 245l-271 467h230l205 -381h-172l205 381h225l-273 -467h-149zM252 0v318h200v-318h-200zM236 758q-43 0 -71.5 29.5t-28.5 72.5t28.5 72.5t71.5 29.5q44 0 72 -29.5t28 -72.5t-28 -72.5t-72 -29.5zM466 758q-43 0 -71.5 29.5t-28.5 72.5t28.5 72.5t71.5 29.5
q44 0 72 -29.5t28 -72.5t-28 -72.5t-72 -29.5z" />
    <glyph glyph-name="Zacute" unicode="&#x179;" horiz-adv-x="626" 
d="M26 139l328 434h244l-329 -434h-243zM26 0v139l109 26h454v-165h-563zM42 547v165h556v-139l-111 -26h-445zM234 752l-50 97l190 135l83 -152z" />
    <glyph glyph-name="zacute" unicode="&#x17a;" horiz-adv-x="510" 
d="M21 119l220 254h243l-220 -254h-243zM21 0v119l117 37h340v-156h-457zM38 336v156h446v-119l-117 -37h-329zM177 532l-50 97l190 135l83 -152z" />
    <glyph glyph-name="Zdotaccent" unicode="&#x17b;" horiz-adv-x="626" 
d="M26 139l328 434h244l-329 -434h-243zM26 0v139l109 26h454v-165h-563zM42 547v165h556v-139l-111 -26h-445zM321 758q-43 0 -71.5 29.5t-28.5 72.5t28.5 72.5t71.5 29.5q44 0 72 -29.5t28 -72.5t-28 -72.5t-72 -29.5z" />
    <glyph glyph-name="zdotaccent" unicode="&#x17c;" horiz-adv-x="510" 
d="M21 119l220 254h243l-220 -254h-243zM21 0v119l117 37h340v-156h-457zM38 336v156h446v-119l-117 -37h-329zM264 538q-43 0 -71.5 29.5t-28.5 72.5t28.5 72.5t71.5 29.5q44 0 72 -29.5t28 -72.5t-28 -72.5t-72 -29.5z" />
    <glyph glyph-name="Zcaron" unicode="&#x17d;" horiz-adv-x="626" 
d="M26 139l328 434h244l-329 -434h-243zM26 0v139l109 26h454v-165h-563zM42 547v165h556v-139l-111 -26h-445zM473 964l50 -82l-156 -135h-93l-156 135l50 82l231 -111h-158z" />
    <glyph glyph-name="zcaron" unicode="&#x17e;" horiz-adv-x="510" 
d="M21 119l220 254h243l-220 -254h-243zM21 0v119l117 37h340v-156h-457zM38 336v156h446v-119l-117 -37h-329zM416 744l50 -82l-156 -135h-93l-156 135l50 82l231 -111h-158z" />
    <glyph glyph-name="uni01CD" unicode="&#x1cd;" horiz-adv-x="755" 
d="M6 0l271 712h204l268 -712h-208l-199 605h72l-204 -605h-204zM182 120v156h398v-156h-398zM530 964l50 -82l-156 -135h-93l-156 135l50 82l231 -111h-158z" />
    <glyph glyph-name="uni01CE" unicode="&#x1ce;" horiz-adv-x="610" 
d="M252 -10q-69 0 -122 33t-83 90.5t-30 132.5t30 133t83 90.5t122 32.5q43 0 79.5 -14.5t61 -40.5t31.5 -60v-282q-7 -34 -31.5 -60t-61 -40.5t-79.5 -14.5zM296 162q37 0 59.5 23.5t22.5 60.5q0 25 -10 43.5t-28.5 29.5t-42.5 11t-42.5 -11t-29.5 -30t-11 -43t10.5 -43
t29.5 -30t42 -11zM372 0v132l27 120l-27 119v121h191v-492h-191zM467 744l50 -82l-156 -135h-93l-156 135l50 82l231 -111h-158z" />
    <glyph glyph-name="uni0218" unicode="&#x218;" horiz-adv-x="609" 
d="M289 -12q-91 0 -158.5 26.5t-124.5 84.5l125 125q39 -37 82 -56.5t92 -19.5q41 0 62 12.5t21 34.5t-18 36.5t-47.5 26t-65 23.5t-70.5 29t-64.5 41.5t-47.5 61t-18 89.5q0 69 33 119t93 76.5t141 26.5q80 0 148.5 -25.5t113.5 -72.5l-126 -125q-33 32 -66 47.5t-72 15.5
q-31 0 -49.5 -10t-18.5 -30q0 -21 18 -34.5t47.5 -24.5t65 -23t70.5 -28.5t64.5 -42t47.5 -63.5t18 -92q0 -109 -77.5 -168.5t-218.5 -59.5zM215 -429l-73 69l113 121l57 1q-13 -14 -28 -22.5t-29 -4.5q-34 9 -53.5 44t-8.5 77q12 44 50 68t84 12q43 -12 66 -51.5t10 -85.5
q-4 -18 -17.5 -40.5t-45.5 -55.5z" />
    <glyph glyph-name="uni0219" unicode="&#x219;" horiz-adv-x="485" 
d="M243 -15q-46 0 -92 12t-85.5 33t-66.5 48l103 106q24 -24 57.5 -38t70.5 -14q17 0 26.5 4.5t9.5 12.5q0 14 -16.5 21t-42 13t-54 15.5t-54.5 26t-42 46t-16 75.5q0 47 26.5 83.5t75 58t112.5 21.5q65 0 126 -22t97 -66l-104 -106q-25 28 -55 37.5t-50 9.5
q-19 0 -26.5 -5.5t-7.5 -13.5q0 -11 16 -18t41.5 -13t53.5 -16t53.5 -28t41.5 -47.5t16 -76.5q0 -73 -58 -116t-156 -43zM165 -429l-73 69l113 121l57 1q-13 -14 -28 -22.5t-29 -4.5q-34 9 -53.5 44t-8.5 77q12 44 50 68t84 12q43 -12 66 -51.5t10 -85.5q-4 -18 -17.5 -40.5
t-45.5 -55.5z" />
    <glyph glyph-name="uni021A" unicode="&#x21a;" horiz-adv-x="659" 
d="M229 0v712h200v-712h-200zM16 542v170h627v-170h-627zM251 -429l-73 69l113 121l57 1q-13 -14 -28 -22.5t-29 -4.5q-34 9 -53.5 44t-8.5 77q12 44 50 68t84 12q43 -12 66 -51.5t10 -85.5q-4 -18 -17.5 -40.5t-45.5 -55.5z" />
    <glyph glyph-name="uni021B" unicode="&#x21b;" horiz-adv-x="420" 
d="M112 0v694h196v-694h-196zM7 332v160h406v-160h-406zM132 -429l-73 69l113 121l57 1q-13 -14 -28 -22.5t-29 -4.5q-34 9 -53.5 44t-8.5 77q12 44 50 68t84 12q43 -12 66 -51.5t10 -85.5q-4 -18 -17.5 -40.5t-45.5 -55.5z" />
    <glyph glyph-name="uni0237" unicode="&#x237;" horiz-adv-x="303" 
d="M38 -226q-55 0 -96.5 19t-70.5 51l119 119q10 -10 18.5 -13.5t16.5 -3.5q17 0 26.5 9.5t9.5 31.5v505h196v-501q0 -63 -27 -112t-76 -77t-116 -28z" />
    <glyph glyph-name="apostrophe" unicode="&#x2bc;" horiz-adv-x="279" 
d="M25 409l99 147l53 14q-9 -17 -21 -28.5t-27 -11.5q-34 0 -62.5 28.5t-28.5 71.5q0 46 31 79t78 33q44 0 76.5 -32.5t32.5 -79.5q0 -19 -7 -45t-32 -64l-104 -160z" />
    <glyph glyph-name="circumflex" unicode="&#x2c6;" horiz-adv-x="485" 
d="M90 527l-50 82l156 135h93l156 -135l-50 -82l-231 111h158z" />
    <glyph glyph-name="caron" unicode="&#x2c7;" horiz-adv-x="485" 
d="M395 744l50 -82l-156 -135h-93l-156 135l50 82l231 -111h-158z" />
    <glyph glyph-name="breve" unicode="&#x2d8;" horiz-adv-x="485" 
d="M445 729q0 -56 -27 -102t-72.5 -72.5t-101.5 -26.5q-58 0 -104 26.5t-73 72.5t-27 102h139q0 -28 18.5 -47t46.5 -19q18 0 31.5 8.5t21.5 23.5t8 34h140z" />
    <glyph glyph-name="dotaccent" unicode="&#x2d9;" horiz-adv-x="380" 
d="M190 538q-43 0 -71.5 29.5t-28.5 72.5t28.5 72.5t71.5 29.5q44 0 72 -29.5t28 -72.5t-28 -72.5t-72 -29.5z" />
    <glyph glyph-name="ring" unicode="&#x2da;" horiz-adv-x="353" 
d="M177 528q-39 0 -70 18t-49 48.5t-18 68.5t18 68.5t49 48.5t70 18q38 0 69 -18t49 -48.5t18 -68.5t-18 -68.5t-49 -48.5t-69 -18zM177 619q18 0 30 12.5t12 31.5t-12 31.5t-30 12.5q-19 0 -31 -12.5t-12 -31.5t12 -31.5t31 -12.5z" />
    <glyph glyph-name="ogonek" unicode="&#x2db;" horiz-adv-x="376" 
d="M216 -220q-83 0 -129.5 34.5t-46.5 95.5t43.5 97.5t107.5 36.5l126 -44q-43 -9 -65 -25t-22 -44q0 -18 9 -27t25 -9q8 0 16.5 3t18.5 8l37 -98q-25 -14 -55 -21t-65 -7z" />
    <glyph glyph-name="tilde" unicode="&#x2dc;" horiz-adv-x="523" 
d="M336 534q-31 0 -55 10.5t-44 21t-41 10.5q-22 0 -39 -10t-31 -31l-86 86q28 53 64 75t83 22q32 0 55.5 -10.5t43.5 -21t41 -10.5q23 0 40 10t30 31l86 -86q-28 -52 -64 -74.5t-83 -22.5z" />
    <glyph glyph-name="hungarumlaut" unicode="&#x2dd;" horiz-adv-x="601" 
d="M127 506l-87 67l116 203l139 -103zM393 506l-87 67l116 203l139 -103z" />
    <glyph glyph-name="gravecomb" unicode="&#x300;" horiz-adv-x="0" 
d="M263 542l-223 80l83 152l190 -135z" />
    <glyph glyph-name="acutecomb" unicode="&#x301;" horiz-adv-x="0" 
d="M90 532l-50 97l190 135l83 -152z" />
    <glyph glyph-name="uni0302" unicode="&#x302;" horiz-adv-x="0" 
d="M90 527l-50 82l156 135h93l156 -135l-50 -82l-231 111h158z" />
    <glyph glyph-name="tildecomb" unicode="&#x303;" horiz-adv-x="0" 
d="M336 534q-31 0 -55 10.5t-44 21t-41 10.5q-22 0 -39 -10t-31 -31l-86 86q28 53 64 75t83 22q32 0 55.5 -10.5t43.5 -21t41 -10.5q23 0 40 10t30 31l86 -86q-28 -52 -64 -74.5t-83 -22.5z" />
    <glyph glyph-name="uni0304" unicode="&#x304;" horiz-adv-x="0" 
d="M40 712h392v-137h-392v137z" />
    <glyph glyph-name="uni0306" unicode="&#x306;" horiz-adv-x="0" 
d="M445 729q0 -56 -27 -102t-72.5 -72.5t-101.5 -26.5q-58 0 -104 26.5t-73 72.5t-27 102h139q0 -28 18.5 -47t46.5 -19q18 0 31.5 8.5t21.5 23.5t8 34h140z" />
    <glyph glyph-name="uni0307" unicode="&#x307;" horiz-adv-x="0" 
d="M190 538q-43 0 -71.5 29.5t-28.5 72.5t28.5 72.5t71.5 29.5q44 0 72 -29.5t28 -72.5t-28 -72.5t-72 -29.5z" />
    <glyph glyph-name="uni0308" unicode="&#x308;" horiz-adv-x="0" 
d="M150 538q-43 0 -71.5 29.5t-28.5 72.5t28.5 72.5t71.5 29.5q44 0 72 -29.5t28 -72.5t-28 -72.5t-72 -29.5zM380 538q-43 0 -71.5 29.5t-28.5 72.5t28.5 72.5t71.5 29.5q44 0 72 -29.5t28 -72.5t-28 -72.5t-72 -29.5z" />
    <glyph glyph-name="uni030A" unicode="&#x30a;" horiz-adv-x="0" 
d="M177 528q-39 0 -70 18t-49 48.5t-18 68.5t18 68.5t49 48.5t70 18q38 0 69 -18t49 -48.5t18 -68.5t-18 -68.5t-49 -48.5t-69 -18zM177 619q18 0 30 12.5t12 31.5t-12 31.5t-30 12.5q-19 0 -31 -12.5t-12 -31.5t12 -31.5t31 -12.5z" />
    <glyph glyph-name="uni030B" unicode="&#x30b;" horiz-adv-x="0" 
d="M127 506l-87 67l116 203l139 -103zM393 506l-87 67l116 203l139 -103z" />
    <glyph glyph-name="uni030C" unicode="&#x30c;" horiz-adv-x="0" 
d="M395 744l50 -82l-156 -135h-93l-156 135l50 82l231 -111h-158z" />
    <glyph glyph-name="uni0312" unicode="&#x312;" horiz-adv-x="0" 
d="M285 833l-113 -121l-57 -1q14 15 28.5 22.5t28.5 4.5q34 -9 53.5 -44t8.5 -77q-12 -44 -50 -68t-84 -12q-43 12 -66 51.5t-10 85.5q5 18 18 40.5t45 55.5l125 132z" />
    <glyph glyph-name="uni0326" unicode="&#x326;" horiz-adv-x="0" 
d="M86 -429l-73 69l113 121l57 1q-13 -14 -28 -22.5t-29 -4.5q-34 9 -53.5 44t-8.5 77q12 44 50 68t84 12q43 -12 66 -51.5t10 -85.5q-4 -18 -17.5 -40.5t-45.5 -55.5z" />
    <glyph glyph-name="uni0327" unicode="&#x327;" horiz-adv-x="0" 
d="M161 -220q-43 0 -71.5 9.5t-59.5 26.5l50 67q15 -9 30 -13.5t29 -4.5q16 0 22.5 5.5t6.5 13.5t-11 13.5t-34 5.5h-12l34 108h93l-29 -74l-48 41q71 0 106 -26.5t35 -72.5q0 -42 -38 -70.5t-103 -28.5z" />
    <glyph glyph-name="uni0328" unicode="&#x328;" horiz-adv-x="0" 
d="M216 -220q-83 0 -129.5 34.5t-46.5 95.5t43.5 97.5t107.5 36.5l126 -44q-43 -9 -65 -25t-22 -44q0 -18 9 -27t25 -9q8 0 16.5 3t18.5 8l37 -98q-25 -14 -55 -21t-65 -7z" />
    <glyph glyph-name="Wgrave" unicode="&#x1e80;" horiz-adv-x="1022" 
d="M232 0l-224 712h199l158 -548h-92l156 548h165l156 -548h-91l158 548h197l-224 -712h-166l-156 547h86l-156 -547h-166zM577 762l-223 80l83 152l190 -135z" />
    <glyph glyph-name="wgrave" unicode="&#x1e81;" horiz-adv-x="815" 
d="M144 0l-143 492h186l79 -358l-55 -1l103 359h185l104 -359l-56 1l81 358h186l-143 -492h-187l-96 340h40l-99 -340h-185zM474 542l-223 80l83 152l190 -135z" />
    <glyph glyph-name="Wacute" unicode="&#x1e82;" horiz-adv-x="1022" 
d="M232 0l-224 712h199l158 -548h-92l156 548h165l156 -548h-91l158 548h197l-224 -712h-166l-156 547h86l-156 -547h-166zM424 752l-50 97l190 135l83 -152z" />
    <glyph glyph-name="wacute" unicode="&#x1e83;" horiz-adv-x="815" 
d="M144 0l-143 492h186l79 -358l-55 -1l103 359h185l104 -359l-56 1l81 358h186l-143 -492h-187l-96 340h40l-99 -340h-185zM321 532l-50 97l190 135l83 -152z" />
    <glyph glyph-name="Wdieresis" unicode="&#x1e84;" horiz-adv-x="1022" 
d="M232 0l-224 712h199l158 -548h-92l156 548h165l156 -548h-91l158 548h197l-224 -712h-166l-156 547h86l-156 -547h-166zM396 758q-43 0 -71.5 29.5t-28.5 72.5t28.5 72.5t71.5 29.5q44 0 72 -29.5t28 -72.5t-28 -72.5t-72 -29.5zM626 758q-43 0 -71.5 29.5t-28.5 72.5
t28.5 72.5t71.5 29.5q44 0 72 -29.5t28 -72.5t-28 -72.5t-72 -29.5z" />
    <glyph glyph-name="wdieresis" unicode="&#x1e85;" horiz-adv-x="815" 
d="M144 0l-143 492h186l79 -358l-55 -1l103 359h185l104 -359l-56 1l81 358h186l-143 -492h-187l-96 340h40l-99 -340h-185zM293 538q-43 0 -71.5 29.5t-28.5 72.5t28.5 72.5t71.5 29.5q44 0 72 -29.5t28 -72.5t-28 -72.5t-72 -29.5zM523 538q-43 0 -71.5 29.5t-28.5 72.5
t28.5 72.5t71.5 29.5q44 0 72 -29.5t28 -72.5t-28 -72.5t-72 -29.5z" />
    <glyph glyph-name="uni1E9E" unicode="&#x1e9e;" horiz-adv-x="761" 
d="M350 434l176 169l145 -48l-113 -120l-208 -108v107zM442 1q-34 0 -67.5 3.5t-59.5 16.5v201q17 -24 52 -39.5t72 -15.5q30 0 53.5 10t37 29t13.5 46t-14 46t-40 29t-62 10q-20 0 -42.5 -2.5t-34.5 -7.5l87 108q35 8 62.5 13.5t48.5 5.5q54 0 97 -25t68 -71.5t25 -110.5
q0 -73 -36.5 -128.5t-103 -86.5t-156.5 -31zM394 737q49 0 98 -8.5t89.5 -19t65 -19l24.5 -8.5v-127l-19 1.5t-49.5 3.5t-67.5 3.5l-74 3t-67 1.5q-49 0 -80 -20.5t-45 -53.5t-14 -72v-422h-196v492q0 70 37 125t111.5 87.5t186.5 32.5z" />
    <glyph glyph-name="Ygrave" unicode="&#x1ef2;" horiz-adv-x="701" 
d="M275 245l-271 467h230l205 -381h-172l205 381h225l-273 -467h-149zM252 0v318h200v-318h-200zM417 762l-223 80l83 152l190 -135z" />
    <glyph glyph-name="ygrave" unicode="&#x1ef3;" horiz-adv-x="549" 
d="M191 0l-194 492h208l114 -419h-86l112 419h207l-193 -492h-168zM84 -210l143 323l132 -113l-83 -210h-192zM341 542l-223 80l83 152l190 -135z" />
    <glyph glyph-name="endash" unicode="&#x2013;" horiz-adv-x="583" 
d="M47 178v154h489v-154h-489z" />
    <glyph glyph-name="emdash" unicode="&#x2014;" horiz-adv-x="873" 
d="M47 178v154h779v-154h-779z" />
    <glyph glyph-name="quoteleft" unicode="&#x2018;" horiz-adv-x="271" 
d="M234 694l-78 -146l-54 -15q9 17 21 28.5t27 11.5q35 0 63 -28t28 -72q0 -46 -31 -79t-78 -33q-44 0 -76.5 32.5t-32.5 79.5q0 19 7 44t29 65l87 160z" />
    <glyph glyph-name="quoteright" unicode="&#x2019;" horiz-adv-x="270" 
d="M36 389l78 146l54 15q-9 -17 -21 -28.5t-27 -11.5q-34 0 -62.5 28.5t-28.5 71.5q0 46 31 79t78 33q44 0 76.5 -32.5t32.5 -79.5q0 -19 -7 -44t-29 -65l-87 -160z" />
    <glyph glyph-name="quotesinglbase" unicode="&#x201a;" horiz-adv-x="290" 
d="M46 -124l78 146l54 15q-9 -17 -21 -28.5t-27 -11.5q-34 0 -62.5 28.5t-28.5 71.5q0 46 31 79t78 33q44 0 76.5 -32.5t32.5 -79.5q0 -19 -7 -44t-29 -65l-87 -160z" />
    <glyph glyph-name="quotedblleft" unicode="&#x201c;" horiz-adv-x="518" 
d="M234 694l-78 -146l-54 -15q9 17 21 28.5t27 11.5q35 0 63 -28t28 -72q0 -46 -31 -79t-78 -33q-44 0 -76.5 32.5t-32.5 79.5q0 19 7 44t29 65l87 160zM481 694l-78 -146l-54 -15q9 17 21 28.5t27 11.5q35 0 63 -28t28 -72q0 -46 -31 -79t-78 -33q-44 0 -76.5 32.5
t-32.5 79.5q0 19 7 44t29 65l87 160z" />
    <glyph glyph-name="quotedblright" unicode="&#x201d;" horiz-adv-x="517" 
d="M283 389l78 146l54 15q-9 -17 -21 -28.5t-27 -11.5q-34 0 -62.5 28.5t-28.5 71.5q0 46 31 79t78 33q44 0 76.5 -32.5t32.5 -79.5q0 -19 -7 -44t-29 -65l-87 -160zM36 389l78 146l54 15q-9 -17 -21 -28.5t-27 -11.5q-34 0 -62.5 28.5t-28.5 71.5q0 46 31 79t78 33
q44 0 76.5 -32.5t32.5 -79.5q0 -19 -7 -44t-29 -65l-87 -160z" />
    <glyph glyph-name="quotedblbase" unicode="&#x201e;" horiz-adv-x="537" 
d="M293 -124l78 146l54 15q-9 -17 -21 -28.5t-27 -11.5q-34 0 -62.5 28.5t-28.5 71.5q0 46 31 79t78 33q44 0 76.5 -32.5t32.5 -79.5q0 -19 -7 -44t-29 -65l-87 -160zM46 -124l78 146l54 15q-9 -17 -21 -28.5t-27 -11.5q-34 0 -62.5 28.5t-28.5 71.5q0 46 31 79t78 33
q44 0 76.5 -32.5t32.5 -79.5q0 -19 -7 -44t-29 -65l-87 -160z" />
    <glyph glyph-name="bullet" unicode="&#x2022;" horiz-adv-x="359" 
d="M180 233q-40 0 -71.5 18.5t-49 50t-17.5 69.5t17.5 69.5t49 50t71.5 18.5t71 -18.5t48.5 -50t17.5 -69.5t-17.5 -69.5t-48.5 -50t-71 -18.5z" />
    <glyph glyph-name="ellipsis" unicode="&#x2026;" horiz-adv-x="909" 
d="M455 -12q-47 0 -78 32t-31 78q0 47 31 79t78 32t77.5 -32t30.5 -79q0 -46 -30.5 -78t-77.5 -32zM755 -12q-47 0 -78 32t-31 78q0 47 31 79t78 32t77.5 -32t30.5 -79q0 -46 -30.5 -78t-77.5 -32zM155 -12q-47 0 -78 32t-31 78q0 47 31 79t78 32t77.5 -32t30.5 -79
q0 -46 -30.5 -78t-77.5 -32z" />
    <glyph glyph-name="guilsinglleft" unicode="&#x2039;" horiz-adv-x="304" 
d="M115 62l-100 185l100 185h175l-105 -185l105 -185h-175z" />
    <glyph glyph-name="guilsinglright" unicode="&#x203a;" horiz-adv-x="304" 
d="M14 62l105 185l-105 185h175l100 -185l-100 -185h-175z" />
    <glyph glyph-name="fraction" unicode="&#x2044;" horiz-adv-x="700" 
d="M279 330l67 -75l-225 -265l-111 111zM407 382l-67 75l225 265l111 -111z" />
    <glyph glyph-name="uni2074" unicode="&#x2074;" horiz-adv-x="341" 
d="M14 471l96 241h128l-98 -241h-126zM14 403v68l32 38h279v-106h-311zM189 350v206h118v-206h-118z" />
    <glyph glyph-name="Euro" unicode="&#x20ac;" horiz-adv-x="707" 
d="M407 -12q-77 0 -143.5 27.5t-117 77.5t-79 117.5t-28.5 146.5q0 80 28 147t78 116t116.5 76.5t143.5 27.5q83 0 152 -26t120 -72l-133 -134q-24 26 -58.5 41t-80.5 15q-47 0 -83.5 -23t-57.5 -66t-21 -102t21 -102.5t57.5 -67t83.5 -23.5q45 0 80.5 14t61.5 41l134 -134
q-53 -46 -119 -71.5t-155 -25.5zM-28 373v100h481l-19 -100h-462zM-28 228v100h450l-19 -100h-431z" />
    <glyph glyph-name="uni2120" unicode="&#x2120;" horiz-adv-x="749" 
d="M166 313q-46 0 -79.5 13.5t-62.5 42.5l63 62q19 -19 40.5 -28.5t46.5 -9.5q21 0 31.5 6.5t10.5 17.5q0 10 -9 17.5t-24 13.5t-32.5 12t-35.5 14t-32.5 20.5t-23.5 31t-9 44.5q0 35 16.5 59.5t46.5 38t70 13.5t74.5 -13t57.5 -36l-63 -62q-17 16 -33.5 23.5t-36.5 7.5
q-15 0 -24.5 -5t-9.5 -15t9 -17t24 -12.5t32.5 -11.5t35.5 -14.5t32.5 -21t23.5 -31.5t9 -46q0 -54 -38.5 -84t-109.5 -30zM346 319v356h72l134 -194h-32l133 194h72v-356h-99v192l15 -4l-73 -104h-65l-72 104l14 4v-192h-99z" />
    <glyph glyph-name="trademark" unicode="&#x2122;" horiz-adv-x="763" 
d="M131 319v356h100v-356h-100zM24 590v85h314v-85h-314zM360 319v356h72l134 -194h-32l133 194h72v-356h-99v192l15 -4l-73 -104h-65l-72 104l14 4v-192h-99z" />
    <glyph glyph-name="arrowleft" unicode="&#x2190;" horiz-adv-x="658" 
d="M220 256v164h428v-164h-428zM509 608l-270 -270l270 -270h-230l-270 270l270 270h230z" />
    <glyph glyph-name="arrowup" unicode="&#x2191;" horiz-adv-x="658" 
d="M247 447h164v-428h-164v428zM599 158l-270 270l-270 -270v230l270 270l270 -270v-230z" />
    <glyph glyph-name="arrowright" unicode="&#x2192;" horiz-adv-x="658" 
d="M438 420v-164h-428v164h428zM149 68l270 270l-270 270h230l270 -270l-270 -270h-230z" />
    <glyph glyph-name="arrowdown" unicode="&#x2193;" horiz-adv-x="658" 
d="M411 229h-164v428h164v-428zM59 518l270 -270l270 270v-230l-270 -270l-270 270v230z" />
    <glyph glyph-name="uni2196" unicode="&#x2196;" horiz-adv-x="658" 
d="M152 401l116 116l332 -332l-115 -117zM600 451l-377 -5l-4 -378l-159 158v382h382z" />
    <glyph glyph-name="uni2197" unicode="&#x2197;" horiz-adv-x="658" 
d="M393 516l116 -116l-332 -332l-117 115zM443 68l-5 377l-378 4l158 159h382v-382z" />
    <glyph glyph-name="uni2198" unicode="&#x2198;" horiz-adv-x="658" 
d="M508 275l-116 -116l-332 332l115 117zM60 225l377 5l4 378l159 -158v-382h-382z" />
    <glyph glyph-name="uni2199" unicode="&#x2199;" horiz-adv-x="658" 
d="M267 160l-116 116l332 332l117 -115zM217 608l5 -377l378 -4l-158 -159h-382v382z" />
    <glyph glyph-name="minus" unicode="&#x2212;" horiz-adv-x="579" 
d="M45 257v154h489v-154h-489z" />
    <glyph glyph-name="uni2215" unicode="&#x2215;" horiz-adv-x="367" 
d="M-3 -70l210 840h163l-210 -840h-163z" />
    <glyph glyph-name="uni2713" unicode="&#x2713;" horiz-adv-x="876" 
d="M280 56l-263 256l124 122l239 -233l-72 -2l427 492l124 -125l-461 -510h-118z" />
    <glyph glyph-name="T_T" horiz-adv-x="1168" 
d="M229 0v712h200v-712h-200zM16 542v170h627v-170h-627zM738 0v712h200v-712h-200zM525 542v170h627v-170h-627z" />
    <glyph glyph-name="T_h" horiz-adv-x="1152" 
d="M229 0v712h200v-712h-200zM16 542v170h597v-170h-597zM919 0v276q0 29 -16.5 44.5t-41.5 15.5q-17 0 -30.5 -7t-21 -20.5t-7.5 -32.5l-76 34q0 60 24.5 103t68 66t101.5 23q60 0 103.5 -23.5t67.5 -64t24 -93.5v-321h-196zM606 0v712h196v-712h-196z" />
    <glyph glyph-name="T_l" horiz-adv-x="849" 
d="M229 0v712h200v-712h-200zM16 542v170h627v-170h-627zM606 0v712h196v-712h-196z" />
    <glyph glyph-name="ae.ss01" horiz-adv-x="925" 
d="M696 -12q-85 0 -151 33.5t-104 92t-38 133.5q0 74 36 132t99 91.5t143 33.5q87 0 147.5 -40.5t88.5 -117.5l-311 -291l-92 95l281 262l-20 -122q-9 35 -33 53t-61 18q-32 0 -55 -12.5t-35 -36t-12 -56.5q0 -39 16.5 -69t46 -47t66.5 -17q31 0 55.5 11.5t49.5 38.5l98 -97
q-43 -45 -96 -66.5t-119 -21.5zM252 -10q-69 0 -122 33t-83 90.5t-30 132.5t30 133t83 90.5t122 32.5q43 0 79.5 -14.5t61 -40.5t31.5 -60v-282q-7 -34 -31.5 -60t-61 -40.5t-79.5 -14.5zM296 162q37 0 59.5 23.5t22.5 60.5q0 25 -10 43.5t-28.5 29.5t-42.5 11t-42.5 -11
t-29.5 -30t-11 -43t10.5 -43t29.5 -30t42 -11zM372 0v132l27 120l-27 119v121h191v-492h-191z" />
    <glyph glyph-name="e.ss01" horiz-adv-x="537" 
d="M308 -12q-85 0 -151 33.5t-104 92t-38 133.5q0 74 36 132t99 91.5t143 33.5q87 0 147.5 -40.5t88.5 -117.5l-311 -291l-92 95l281 262l-20 -122q-9 35 -33 53t-61 18q-32 0 -55 -12.5t-35 -36t-12 -56.5q0 -39 16.5 -69t46 -47t66.5 -17q31 0 55.5 11.5t49.5 38.5l98 -97
q-43 -45 -96 -66.5t-119 -21.5z" />
    <glyph glyph-name="eacute.ss01" horiz-adv-x="537" 
d="M308 -12q-85 0 -151 33.5t-104 92t-38 133.5q0 74 36 132t99 91.5t143 33.5q87 0 147.5 -40.5t88.5 -117.5l-311 -291l-92 95l281 262l-20 -122q-9 35 -33 53t-61 18q-32 0 -55 -12.5t-35 -36t-12 -56.5q0 -39 16.5 -69t46 -47t66.5 -17q31 0 55.5 11.5t49.5 38.5l98 -97
q-43 -45 -96 -66.5t-119 -21.5zM202 532l-50 97l190 135l83 -152z" />
    <glyph glyph-name="ecaron.ss01" horiz-adv-x="537" 
d="M308 -12q-85 0 -151 33.5t-104 92t-38 133.5q0 74 36 132t99 91.5t143 33.5q87 0 147.5 -40.5t88.5 -117.5l-311 -291l-92 95l281 262l-20 -122q-9 35 -33 53t-61 18q-32 0 -55 -12.5t-35 -36t-12 -56.5q0 -39 16.5 -69t46 -47t66.5 -17q31 0 55.5 11.5t49.5 38.5l98 -97
q-43 -45 -96 -66.5t-119 -21.5zM441 744l50 -82l-156 -135h-93l-156 135l50 82l231 -111h-158z" />
    <glyph glyph-name="ecircumflex.ss01" horiz-adv-x="537" 
d="M308 -12q-85 0 -151 33.5t-104 92t-38 133.5q0 74 36 132t99 91.5t143 33.5q87 0 147.5 -40.5t88.5 -117.5l-311 -291l-92 95l281 262l-20 -122q-9 35 -33 53t-61 18q-32 0 -55 -12.5t-35 -36t-12 -56.5q0 -39 16.5 -69t46 -47t66.5 -17q31 0 55.5 11.5t49.5 38.5l98 -97
q-43 -45 -96 -66.5t-119 -21.5zM136 527l-50 82l156 135h93l156 -135l-50 -82l-231 111h158z" />
    <glyph glyph-name="edieresis.ss01" horiz-adv-x="537" 
d="M308 -12q-85 0 -151 33.5t-104 92t-38 133.5q0 74 36 132t99 91.5t143 33.5q87 0 147.5 -40.5t88.5 -117.5l-311 -291l-92 95l281 262l-20 -122q-9 35 -33 53t-61 18q-32 0 -55 -12.5t-35 -36t-12 -56.5q0 -39 16.5 -69t46 -47t66.5 -17q31 0 55.5 11.5t49.5 38.5l98 -97
q-43 -45 -96 -66.5t-119 -21.5zM174 538q-43 0 -71.5 29.5t-28.5 72.5t28.5 72.5t71.5 29.5q44 0 72 -29.5t28 -72.5t-28 -72.5t-72 -29.5zM404 538q-43 0 -71.5 29.5t-28.5 72.5t28.5 72.5t71.5 29.5q44 0 72 -29.5t28 -72.5t-28 -72.5t-72 -29.5z" />
    <glyph glyph-name="edotaccent.ss01" horiz-adv-x="537" 
d="M308 -12q-85 0 -151 33.5t-104 92t-38 133.5q0 74 36 132t99 91.5t143 33.5q87 0 147.5 -40.5t88.5 -117.5l-311 -291l-92 95l281 262l-20 -122q-9 35 -33 53t-61 18q-32 0 -55 -12.5t-35 -36t-12 -56.5q0 -39 16.5 -69t46 -47t66.5 -17q31 0 55.5 11.5t49.5 38.5l98 -97
q-43 -45 -96 -66.5t-119 -21.5zM289 538q-43 0 -71.5 29.5t-28.5 72.5t28.5 72.5t71.5 29.5q44 0 72 -29.5t28 -72.5t-28 -72.5t-72 -29.5z" />
    <glyph glyph-name="egrave.ss01" horiz-adv-x="537" 
d="M308 -12q-85 0 -151 33.5t-104 92t-38 133.5q0 74 36 132t99 91.5t143 33.5q87 0 147.5 -40.5t88.5 -117.5l-311 -291l-92 95l281 262l-20 -122q-9 35 -33 53t-61 18q-32 0 -55 -12.5t-35 -36t-12 -56.5q0 -39 16.5 -69t46 -47t66.5 -17q31 0 55.5 11.5t49.5 38.5l98 -97
q-43 -45 -96 -66.5t-119 -21.5zM355 542l-223 80l83 152l190 -135z" />
    <glyph glyph-name="emacron.ss01" horiz-adv-x="537" 
d="M308 -12q-85 0 -151 33.5t-104 92t-38 133.5q0 74 36 132t99 91.5t143 33.5q87 0 147.5 -40.5t88.5 -117.5l-311 -291l-92 95l281 262l-20 -122q-9 35 -33 53t-61 18q-32 0 -55 -12.5t-35 -36t-12 -56.5q0 -39 16.5 -69t46 -47t66.5 -17q31 0 55.5 11.5t49.5 38.5l98 -97
q-43 -45 -96 -66.5t-119 -21.5zM93 712h392v-137h-392v137z" />
    <glyph glyph-name="eogonek.ss01" horiz-adv-x="537" 
d="M308 -12q-85 0 -151 33.5t-104 92t-38 133.5q0 74 36 132t99 91.5t143 33.5q87 0 147.5 -40.5t88.5 -117.5l-311 -291l-92 95l281 262l-20 -122q-9 35 -33 53t-61 18q-32 0 -55 -12.5t-35 -36t-12 -56.5q0 -39 16.5 -69t46 -47t66.5 -17q31 0 55.5 11.5t49.5 38.5l98 -97
q-43 -45 -96 -66.5t-119 -21.5zM326 -210q-83 0 -129.5 34.5t-46.5 95.5t43.5 97.5t107.5 36.5l126 -44q-43 -9 -65 -25t-22 -44q0 -18 9 -27t25 -9q8 0 16.5 3t18.5 8l37 -98q-25 -14 -55 -21t-65 -7z" />
    <glyph glyph-name="g.ss01" horiz-adv-x="525" 
d="M250 -222q-72 0 -127.5 25t-87 69t-31.5 100q0 46 14 76t42 64l131 -84q-9 -10 -13 -19t-4 -20q0 -25 20 -39t58 -14q41 0 63.5 20t22.5 56q0 25 -12 43t-34 27.5t-51 9.5q-57 0 -103.5 27t-73.5 73.5t-27 103.5q0 60 28.5 106.5t78 73t111.5 26.5q61 0 110 -26t78 -70
t29 -100q0 -55 -27.5 -98t-75.5 -67.5t-109 -24.5l4 106q71 -3 123.5 -33.5t81.5 -79.5t29 -110q0 -65 -31.5 -115t-87 -78t-129.5 -28zM255 240q17 0 29.5 7t20 20t7.5 29q0 17 -7 29.5t-20 19.5t-30 7t-30 -7t-20.5 -19.5t-7.5 -29.5q0 -16 7.5 -29t20.5 -20t30 -7z
M416 354l-109 109l107 104l109 -109z" />
    <glyph glyph-name="k.ss01" horiz-adv-x="563" 
d="M409 -20l-182 279l179 259l141 -102l-149 -187l5 64l159 -209zM47 0v732h196v-732h-196z" />
    <glyph glyph-name="uni0137.ss01" horiz-adv-x="563" 
d="M409 -20l-182 279l179 259l141 -102l-149 -187l5 64l159 -209zM47 0v732h196v-732h-196zM220 -429l-73 69l113 121l57 1q-13 -14 -28 -22.5t-29 -4.5q-34 9 -53.5 44t-8.5 77q12 44 50 68t84 12q43 -12 66 -51.5t10 -85.5q-4 -18 -17.5 -40.5t-45.5 -55.5z" />
    <glyph glyph-name="m.ss01" horiz-adv-x="861" 
d="M36 0v284q0 65 27.5 114.5t79 77.5t121.5 28q69 0 120.5 -29.5t79.5 -98.5h-66q29 69 80 98.5t120 29.5q71 0 122 -28t78.5 -77.5t27.5 -114.5v-284h-196v286q0 23 -14 37.5t-37 14.5q-21 0 -35.5 -14.5t-14.5 -37.5v-286h-196v286q0 23 -14.5 37.5t-35.5 14.5
q-22 0 -36.5 -14.5t-14.5 -37.5v-286h-196z" />
    <glyph glyph-name="n.ss01" horiz-adv-x="571" 
d="M34 0v272q0 70 32 122t89 81t131 29q75 0 131.5 -29t88 -81t31.5 -122v-272h-196v274q0 31 -15 47.5t-40 16.5q-26 0 -41 -16.5t-15 -47.5v-274h-196z" />
    <glyph glyph-name="nacute.ss01" horiz-adv-x="571" 
d="M34 0v272q0 70 32 122t89 81t131 29q75 0 131.5 -29t88 -81t31.5 -122v-272h-196v274q0 31 -15 47.5t-40 16.5q-26 0 -41 -16.5t-15 -47.5v-274h-196zM199 532l-50 97l190 135l83 -152z" />
    <glyph glyph-name="ncaron.ss01" horiz-adv-x="571" 
d="M34 0v272q0 70 32 122t89 81t131 29q75 0 131.5 -29t88 -81t31.5 -122v-272h-196v274q0 31 -15 47.5t-40 16.5q-26 0 -41 -16.5t-15 -47.5v-274h-196zM438 744l50 -82l-156 -135h-93l-156 135l50 82l231 -111h-158z" />
    <glyph glyph-name="uni0146.ss01" horiz-adv-x="571" 
d="M34 0v272q0 70 32 122t89 81t131 29q75 0 131.5 -29t88 -81t31.5 -122v-272h-196v274q0 31 -15 47.5t-40 16.5q-26 0 -41 -16.5t-15 -47.5v-274h-196zM208 -429l-73 69l113 121l57 1q-13 -14 -28 -22.5t-29 -4.5q-34 9 -53.5 44t-8.5 77q12 44 50 68t84 12
q43 -12 66 -51.5t10 -85.5q-4 -18 -17.5 -40.5t-45.5 -55.5z" />
    <glyph glyph-name="ntilde.ss01" horiz-adv-x="571" 
d="M34 0v272q0 70 32 122t89 81t131 29q75 0 131.5 -29t88 -81t31.5 -122v-272h-196v274q0 31 -15 47.5t-40 16.5q-26 0 -41 -16.5t-15 -47.5v-274h-196zM360 534q-31 0 -55 10.5t-44 21t-41 10.5q-22 0 -39 -10t-31 -31l-86 86q28 53 64 75t83 22q32 0 55.5 -10.5t43.5 -21
t41 -10.5q23 0 40 10t30 31l86 -86q-28 -52 -64 -74.5t-83 -22.5z" />
    <glyph glyph-name="eng.ss01" horiz-adv-x="571" 
d="M318 -226q-55 0 -96.5 19t-70.5 51l119 119q10 -10 18.5 -13.5t16.5 -3.5q17 0 26.5 9.5t9.5 31.5v116h196v-112q0 -63 -27 -112t-76 -77t-116 -28zM34 0v272q0 70 32 122t89 81t131 29q75 0 131.5 -29t88 -81t31.5 -122v-272h-196v274q0 31 -15 47.5t-40 16.5
q-26 0 -41 -16.5t-15 -47.5v-274h-196z" />
    <glyph glyph-name="oe.ss01" horiz-adv-x="916" 
d="M295 -12q-81 0 -144.5 33.5t-100 92.5t-36.5 133t36 132t99.5 91.5t144.5 33.5t144 -33.5t99.5 -91.5t36.5 -132t-36 -133t-99 -92.5t-144 -33.5zM294 160q25 0 43.5 10.5t28.5 30t10 45.5t-10.5 45.5t-28.5 30t-43 10.5q-24 0 -42.5 -11t-29 -30.5t-10.5 -45.5
q0 -25 10.5 -44.5t29 -30t42.5 -10.5zM687 -12q-85 0 -151 33.5t-104 92t-38 133.5q0 74 36 132t99 91.5t143 33.5q87 0 147.5 -40.5t88.5 -117.5l-311 -291l-92 95l281 262l-20 -122q-9 35 -33 53t-61 18q-32 0 -55 -12.5t-35 -36t-12 -56.5q0 -39 16.5 -69t46 -47
t66.5 -17q31 0 55.5 11.5t49.5 38.5l98 -97q-43 -45 -96 -66.5t-119 -21.5z" />
    <glyph glyph-name="t.ss01" horiz-adv-x="499" 
d="M331 -12q-71 0 -120.5 26.5t-74.5 74.5t-25 111v494h196v-497q0 -17 10 -27t25 -10q11 0 20 4t16 11l121 -121q-29 -30 -67.5 -48t-100.5 -18zM11 332v160h441v-160h-441z" />
    <glyph glyph-name="tcaron.ss01" horiz-adv-x="552" 
d="M331 -12q-71 0 -120.5 26.5t-74.5 74.5t-25 111v494h196v-497q0 -17 10 -27t25 -10q11 0 20 4t16 11l121 -121q-29 -30 -67.5 -48t-100.5 -18zM11 332v160h441v-160h-441zM429 524l-88 48l78 146l54 15q-9 -17 -21 -28.5t-27 -11.5q-34 0 -62.5 28.5t-28.5 71.5
q0 46 31 79t78 33q44 0 76.5 -32.5t32.5 -79.5q0 -19 -7 -44t-29 -65z" />
    <glyph glyph-name="uni021B.ss01" horiz-adv-x="499" 
d="M331 -12q-71 0 -120.5 26.5t-74.5 74.5t-25 111v494h196v-497q0 -17 10 -27t25 -10q11 0 20 4t16 11l121 -121q-29 -30 -67.5 -48t-100.5 -18zM11 332v160h441v-160h-441zM229 -429l-73 69l113 121l57 1q-13 -14 -28 -22.5t-29 -4.5q-34 9 -53.5 44t-8.5 77q12 44 50 68
t84 12q43 -12 66 -51.5t10 -85.5q-4 -18 -17.5 -40.5t-45.5 -55.5z" />
    <glyph glyph-name="f_t" horiz-adv-x="739" 
d="M105 0v512q0 64 28 116.5t82.5 84t131.5 31.5v-172q-19 0 -32.5 -14t-13.5 -37v-521h-196zM5 332v160h727v-160h-727zM431 0v694h196v-694h-196z" />
    <glyph glyph-name="r_f" horiz-adv-x="766" 
d="M47 0v492h196v-492h-196zM403 0v512q0 64 28 116.5t81 84t128 31.5q56 0 99.5 -18t72.5 -48l-121 -121q-7 8 -18 11.5t-23 3.5q-23 0 -37 -14t-14 -37v-521h-196zM243 264l-91 74q38 80 92.5 117.5t152.5 37.5h337v-161h-391q-52 0 -76 -17.5t-24 -50.5z" />
    <glyph glyph-name="r_t" horiz-adv-x="711" 
d="M47 0v492h196v-492h-196zM243 264l-91 74q38 80 92.5 117.5t152.5 37.5h307v-161h-361q-52 0 -76 -17.5t-24 -50.5zM403 0v694h196v-694h-196z" />
    <glyph glyph-name="t_f" horiz-adv-x="801" 
d="M112 0v694h196v-694h-196zM7 332v160h762v-160h-762zM438 0v512q0 64 28 116.5t81 84t128 31.5q56 0 99.5 -18t72.5 -48l-121 -121q-7 8 -18 11.5t-23 3.5q-23 0 -37 -14t-14 -37v-521h-196z" />
    <glyph glyph-name="one.ss01" horiz-adv-x="452" 
d="M197 0v632l33 80h165v-712h-198zM109 392l-106 122l227 198l63 -150z" />
    <glyph glyph-name="zero.tf" horiz-adv-x="590" 
d="M296 -12q-88 0 -157 47.5t-108 131t-39 190.5t38.5 190t107 130t156.5 47q89 0 157.5 -47t107.5 -130t39 -191t-38.5 -191t-106.5 -130t-157 -47zM295 158q34 0 57 23t35 67.5t12 107.5t-12 107t-35.5 67.5t-57.5 23.5q-33 0 -56 -23t-35 -67t-12 -107t12 -107.5
t35.5 -68t56.5 -23.5z" />
    <glyph glyph-name="one.tf" horiz-adv-x="590" 
d="M231 0v712h195v-712h-195zM68 548v164h344v-164h-344zM68 0v164h464v-164h-464z" />
    <glyph glyph-name="two.tf" horiz-adv-x="590" 
d="M21 107l285 286q18 18 28.5 32.5t14.5 27.5t4 26q0 35 -22.5 55.5t-60.5 20.5q-34 0 -63.5 -20.5t-62.5 -69.5l-130 117q44 70 114 106t159 36q80 0 138.5 -28.5t90.5 -81.5t32 -126q0 -41 -11 -77t-35 -70.5t-62 -70.5l-180 -170zM21 0v107l166 57h376v-164h-542z" />
    <glyph glyph-name="three.tf" horiz-adv-x="590" 
d="M265 -12q-76 0 -142.5 25.5t-111.5 72.5l125 123q18 -24 53 -39.5t73 -15.5q31 0 54.5 10t37.5 29t14 46t-14.5 46t-40.5 29t-63 10q-21 0 -43 -2.5t-35 -7.5l87 108q35 8 63 13.5t49 5.5q54 0 97.5 -25t69 -71.5t25.5 -110.5q0 -73 -37 -128.5t-104 -86.5t-157 -31z
M172 314v107l160 185l213 -1l-164 -183zM64 548v164h481v-107l-147 -57h-334z" />
    <glyph glyph-name="four.tf" horiz-adv-x="590" 
d="M4 240l209 472h212l-214 -472h-207zM4 133v107l54 57h526v-164h-580zM332 0v416h195v-416h-195z" />
    <glyph glyph-name="five.tf" horiz-adv-x="590" 
d="M267 -12q-73 0 -143.5 25.5t-115.5 72.5l126 123q18 -25 53.5 -40t71.5 -15q32 0 56 11t37 31.5t13 47.5t-13.5 48.5t-40 34t-65.5 12.5q-31 0 -60 -10t-49 -25l22 128q30 16 51.5 25.5t43.5 14t52 4.5q83 0 140 -33t86 -87.5t29 -118.5q0 -73 -35.5 -129.5t-101.5 -88
t-157 -31.5zM137 304l-74 64l38 344h178l-38 -325zM123 548l-22 164h421v-164h-399z" />
    <glyph glyph-name="six.tf" horiz-adv-x="590" 
d="M295 -12q-78 0 -141 33t-99.5 89.5t-36.5 127.5q0 84 58 169l208 305h222l-239 -330l-75 16q17 26 32.5 44t38 27.5t59.5 9.5q70 0 126.5 -32.5t90 -87t33.5 -121.5q0 -71 -36.5 -127.5t-99 -89.5t-141.5 -33zM295 154q25 0 44.5 11.5t31 32t11.5 46.5t-11.5 46.5t-31 32
t-44.5 11.5t-44.5 -11.5t-31 -32t-11.5 -46.5t11.5 -46.5t31 -32t44.5 -11.5z" />
    <glyph glyph-name="seven.tf" horiz-adv-x="590" 
d="M138 0l232 605h193l-221 -605h-204zM26 548v164h537v-107l-57 -57h-480z" />
    <glyph glyph-name="eight.tf" horiz-adv-x="590" 
d="M295 -12q-81 0 -141.5 27.5t-94 75t-33.5 108.5q0 55 21 96t57 66.5t80 32.5l-3 -33q-40 7 -69.5 31.5t-45 60.5t-15.5 74q0 57 31 101.5t86 70t127 25.5t127 -25.5t85.5 -70t30.5 -101.5q0 -38 -15.5 -74t-44 -60.5t-69.5 -31.5l-4 33q45 -7 81 -32.5t57 -66.5t21 -96
q0 -61 -33.5 -108.5t-93.5 -75t-142 -27.5zM295 152q24 0 42 10t28 27.5t10 39.5t-10 39t-28 27t-42 10q-23 0 -41.5 -10t-28.5 -27t-10 -39t10 -39.5t28.5 -27.5t41.5 -10zM295 444q26 0 43.5 16.5t17.5 41.5q0 26 -17.5 43.5t-43.5 17.5t-44 -16.5t-18 -42.5
q0 -25 18 -42.5t44 -17.5z" />
    <glyph glyph-name="nine.tf" horiz-adv-x="590" 
d="M84 0l239 330l75 -16q-17 -25 -32.5 -43.5t-38 -28t-59.5 -9.5q-69 0 -126 32.5t-90.5 87t-33.5 121.5q0 71 36.5 127.5t99.5 89.5t141 33q79 0 141.5 -33t99 -89.5t36.5 -127.5q0 -84 -58 -169l-208 -305h-222zM295 378q25 0 44.5 11.5t31 32t11.5 46.5t-11.5 46.5
t-31 32t-44.5 11.5t-44.5 -11.5t-31 -32t-11.5 -46.5t11.5 -46.5t31 -32t44.5 -11.5z" />
    <glyph glyph-name="ampersand.ss01" horiz-adv-x="672" 
d="M310 -12q-83 0 -145.5 27t-96.5 76t-34 114q0 74 41.5 123.5t114.5 62.5l-4 -30q-39 10 -67.5 32.5t-44 56.5t-15.5 76q0 59 31 103.5t86 69.5t126 25q73 0 131.5 -27t90.5 -76l-121 -120q-21 32 -43.5 47t-49.5 15q-30 0 -49.5 -17t-19.5 -43q0 -16 7.5 -29t20.5 -21
t29 -8v-140q-21 0 -38 -10t-27 -27t-10 -39q0 -23 11.5 -40.5t32 -27t47.5 -9.5q28 0 48.5 9.5t31.5 27t11 40.5q0 19 -6 33.5t-17 25t-28 14.5l64 91q52 -12 91.5 -41.5t61.5 -69.5t22 -87q0 -60 -36 -107t-100 -73.5t-147 -26.5zM354 302v143h300v-143h-300z" />
    <glyph glyph-name="uni030C.alt" horiz-adv-x="0" 
d="M165 111l-88 48l78 146l54 15q-9 -17 -21 -28.5t-27 -11.5q-34 0 -62.5 28.5t-28.5 71.5q0 46 31 79t78 33q44 0 76.5 -32.5t32.5 -79.5q0 -19 -7 -44t-29 -65z" />
    <glyph glyph-name="Dcroat.BRACKET.varAlt01" horiz-adv-x="801" 
d="M226 0v170h166q56 0 97 20.5t63 62.5t22 104t-22.5 103t-63 61.5t-96.5 20.5h-176v170h176q84 0 154.5 -25t122.5 -72t80.5 -112.5t28.5 -146.5t-28.5 -146.5t-80.5 -112.5t-122 -72t-153 -25h-168zM92 0v712h200v-712h-200zM0 274v164h369v-164h-369z" />
    <glyph glyph-name="cent.BRACKET.varAlt01" horiz-adv-x="505" 
d="M296 98q-80 0 -144 33t-101 91.5t-37 132.5q0 75 37.5 133.5t102 92t145.5 33.5q58 0 104.5 -18t86.5 -55l-123 -123q-13 12 -29 18t-39 6q-24 0 -43.5 -10.5t-31.5 -29.5t-12 -45t12 -45.5t32 -30.5t43 -11q26 0 43 8t30 22l123 -123q-43 -40 -90 -59.5t-109 -19.5z
M212 185h140v-175h-140v175zM352 521h-140v181h140v-181z" />
    <glyph glyph-name="dollar.BRACKET.varAlt01" horiz-adv-x="622" 
d="M296 -12q-88 0 -153 26.5t-120 84.5l121 125q38 -37 79 -56.5t89 -19.5q40 0 60 12.5t20 34.5t-17.5 36.5t-46 26t-62.5 23.5t-68 29t-62.5 41.5t-46 61t-17.5 89.5q0 69 32 119t90 76.5t136 26.5q77 0 143.5 -25.5t109.5 -72.5l-122 -125q-31 32 -63 47.5t-70 15.5
q-30 0 -48 -10t-18 -30q0 -21 17.5 -34.5t46 -24.5t62.5 -23t68 -28.5t62.5 -42t46 -63.5t17.5 -92q0 -109 -74.5 -168.5t-211.5 -59.5zM246 97h140v-199h-140v199zM386 640h-140v174h140v-174z" />
    </font>
</defs>
</svg>
